<?xml version="1.0" standalone="no"?>
<!DOCTYPE svg PUBLIC "-//W3C//DTD SVG 1.1//EN" "http://www.w3.org/Graphics/SVG/1.1/DTD/svg11.dtd" >
<svg>
<metadata>
Created by FontForge 20120731 at Mon Jul 22 04:22:01 2019
 By www-data
Copyright 2010 The Cuprum Project Authors (lemonad@jovanny.ru), with Reserved Font Name "Cuprum".
</metadata>
<defs>
<font id="Cuprum-Regular" horiz-adv-x="450" >
  <font-face 
    font-family="Cuprum"
    font-weight="400"
    font-stretch="normal"
    units-per-em="1000"
    panose-1="0 0 5 0 0 0 0 0 0 0"
    ascent="800"
    descent="-200"
    x-height="500"
    cap-height="700"
    bbox="-410 -285 960 1057"
    underline-thickness="50"
    underline-position="-50"
    unicode-range="U+000D-2215"
  />
<missing-glyph horiz-adv-x="250" 
 />
    <glyph glyph-name=".notdef" horiz-adv-x="250" 
 />
    <glyph glyph-name="NULL" horiz-adv-x="0" 
 />
    <glyph glyph-name="NULL" horiz-adv-x="0" 
 />
    <glyph glyph-name="nonmarkingreturn" unicode="&#xd;" horiz-adv-x="250" 
 />
    <glyph glyph-name="space" unicode=" " horiz-adv-x="250" 
 />
    <glyph glyph-name="A" unicode="A" horiz-adv-x="510" 
d="M20 0l170 700h130l170 -700h-90l-45 180h-200l-45 -180h-90zM170 250h170l-83 350h-4z" />
    <glyph glyph-name="Aacute" unicode="&#xc1;" horiz-adv-x="510" 
d="M220 750l35 130h95l-70 -130h-60zM20 0l170 700h130l170 -700h-90l-45 180h-200l-45 -180h-90zM170 250h170l-83 350h-4z" />
    <glyph glyph-name="Abreve" unicode="&#x102;" horiz-adv-x="510" 
d="M20 0l170 700h130l170 -700h-90l-45 180h-200l-45 -180h-90zM170 250h170l-83 350h-4zM174 789q-34 19 -54 51l40 40q17 -17 42 -28.5t53 -11.5t53 11.5t42 28.5l40 -40q-20 -32 -54 -51t-81 -19t-81 19z" />
    <glyph glyph-name="uni1EAE" unicode="&#x1eae;" horiz-adv-x="510" 
d="M20 0l170 700h130l170 -700h-90l-45 180h-200l-45 -180h-90zM170 250h170l-83 350h-4zM174 789q-34 19 -54 51l40 40q17 -17 42 -28.5t53 -11.5t53 11.5t42 28.5l40 -40q-20 -32 -54 -51t-81 -19t-81 19zM225 893l35 130h95l-70 -130h-60z" />
    <glyph glyph-name="uni1EB6" unicode="&#x1eb6;" horiz-adv-x="510" 
d="M20 0l170 700h130l170 -700h-90l-45 180h-200l-45 -180h-90zM170 250h170l-83 350h-4zM218 -156v91h74v-91h-74zM174 789q-34 19 -54 51l40 40q17 -17 42 -28.5t53 -11.5t53 11.5t42 28.5l40 -40q-20 -32 -54 -51t-81 -19t-81 19z" />
    <glyph glyph-name="uni1EB0" unicode="&#x1eb0;" horiz-adv-x="510" 
d="M20 0l170 700h130l170 -700h-90l-45 180h-200l-45 -180h-90zM170 250h170l-83 350h-4zM174 789q-34 19 -54 51l40 40q17 -17 42 -28.5t53 -11.5t53 11.5t42 28.5l40 -40q-20 -32 -54 -51t-81 -19t-81 19zM229 889l-63 130h95l28 -130h-60z" />
    <glyph glyph-name="uni1EB2" unicode="&#x1eb2;" horiz-adv-x="510" 
d="M20 0l170 700h130l170 -700h-90l-45 180h-200l-45 -180h-90zM170 250h170l-83 350h-4zM174 789q-34 19 -54 51l40 40q17 -17 42 -28.5t53 -11.5t53 11.5t42 28.5l40 -40q-20 -32 -54 -51t-81 -19t-81 19zM221.5 912q6.5 10 19.5 23q7 7 12.5 15t5.5 15q0 37 -42 37h-50
v47q22 8 57 8q40 0 67 -20t27 -68q0 -13 -7.5 -23.5t-20.5 -21.5q-13 -13 -18.5 -20.5t-5.5 -17.5h-51q0 16 6.5 26z" />
    <glyph glyph-name="uni1EB4" unicode="&#x1eb4;" horiz-adv-x="510" 
d="M20 0l170 700h130l170 -700h-90l-45 180h-200l-45 -180h-90zM170 250h170l-83 350h-4zM174 789q-34 19 -54 51l40 40q17 -17 42 -28.5t53 -11.5t53 11.5t42 28.5l40 -40q-20 -32 -54 -51t-81 -19t-81 19zM263.5 918q-12.5 10 -26.5 28q-8 11 -14 16.5t-13 5.5
q-12 0 -18.5 -11.5t-6.5 -33.5h-50q0 56 19 80.5t61 24.5q19 0 31.5 -10t26.5 -28q8 -11 14 -16.5t13 -5.5q12 0 18.5 11.5t6.5 33.5h50q0 -56 -19 -80.5t-61 -24.5q-19 0 -31.5 10z" />
    <glyph glyph-name="Acircumflex" unicode="&#xc2;" horiz-adv-x="510" 
d="M133 750l75 130h95l75 -130h-60l-63 74l-62 -74h-60zM20 0l170 700h130l170 -700h-90l-45 180h-200l-45 -180h-90zM170 250h170l-83 350h-4z" />
    <glyph glyph-name="uni1EA4" unicode="&#x1ea4;" horiz-adv-x="510" 
d="M20 0l170 700h130l170 -700h-90l-45 180h-200l-45 -180h-90zM170 250h170l-83 350h-4zM132 750l75 130h95l75 -130h-60l-63 74l-62 -74h-60zM362 828l35 130h95l-70 -130h-60z" />
    <glyph glyph-name="uni1EAC" unicode="&#x1eac;" horiz-adv-x="510" 
d="M20 0l170 700h130l170 -700h-90l-45 180h-200l-45 -180h-90zM170 250h170l-83 350h-4zM218 -156v91h74v-91h-74zM132 750l75 130h95l75 -130h-60l-63 74l-62 -74h-60z" />
    <glyph glyph-name="uni1EA6" unicode="&#x1ea6;" horiz-adv-x="510" 
d="M20 0l170 700h130l170 -700h-90l-45 180h-200l-45 -180h-90zM170 250h170l-83 350h-4zM132 750l75 130h95l75 -130h-60l-63 74l-62 -74h-60zM376 847l-63 130h95l28 -130h-60z" />
    <glyph glyph-name="uni1EA8" unicode="&#x1ea8;" horiz-adv-x="510" 
d="M20 0l170 700h130l170 -700h-90l-45 180h-200l-45 -180h-90zM170 250h170l-83 350h-4zM132 750l75 130h95l75 -130h-60l-63 74l-62 -74h-60zM373.5 841q6.5 10 19.5 23q7 7 12.5 15t5.5 15q0 37 -42 37h-50v47q22 8 57 8q40 0 67 -20t27 -68q0 -13 -7.5 -23.5
t-20.5 -21.5q-13 -13 -18.5 -20.5t-5.5 -17.5h-51q0 16 6.5 26z" />
    <glyph glyph-name="uni1EAA" unicode="&#x1eaa;" horiz-adv-x="510" 
d="M20 0l170 700h130l170 -700h-90l-45 180h-200l-45 -180h-90zM170 250h170l-83 350h-4zM132 750l75 130h95l75 -130h-60l-63 74l-62 -74h-60zM263.5 921q-12.5 10 -26.5 28q-8 11 -14 16.5t-13 5.5q-12 0 -18.5 -11.5t-6.5 -33.5h-50q0 56 19 80.5t61 24.5q19 0 31.5 -10
t26.5 -28q8 -11 14 -16.5t13 -5.5q12 0 18.5 11.5t6.5 33.5h50q0 -56 -19 -80.5t-61 -24.5q-19 0 -31.5 10z" />
    <glyph glyph-name="Adieresis" unicode="&#xc4;" horiz-adv-x="510" 
d="M130 760v110h90v-110h-90zM290 760v110h90v-110h-90zM20 0l170 700h130l170 -700h-90l-45 180h-200l-45 -180h-90zM170 250h170l-83 350h-4z" />
    <glyph glyph-name="uni1EA0" unicode="&#x1ea0;" horiz-adv-x="510" 
d="M20 0l170 700h130l170 -700h-90l-45 180h-200l-45 -180h-90zM170 250h170l-83 350h-4zM218 -156v91h74v-91h-74z" />
    <glyph glyph-name="Agrave" unicode="&#xc0;" horiz-adv-x="510" 
d="M230 750l-70 130h95l35 -130h-60zM20 0l170 700h130l170 -700h-90l-45 180h-200l-45 -180h-90zM170 250h170l-83 350h-4z" />
    <glyph glyph-name="uni1EA2" unicode="&#x1ea2;" horiz-adv-x="510" 
d="M20 0l170 700h130l170 -700h-90l-45 180h-200l-45 -180h-90zM170 250h170l-83 350h-4zM233.5 775q6.5 10 19.5 23q7 7 12.5 15t5.5 15q0 37 -42 37h-50v47q22 8 57 8q40 0 67 -20t27 -68q0 -13 -7.5 -23.5t-20.5 -21.5q-13 -13 -18.5 -20.5t-5.5 -17.5h-51q0 16 6.5 26z
" />
    <glyph glyph-name="Amacron" unicode="&#x100;" horiz-adv-x="510" 
d="M140 770v60h230v-60h-230zM20 0l170 700h130l170 -700h-90l-45 180h-200l-45 -180h-90zM170 250h170l-83 350h-4z" />
    <glyph glyph-name="Aogonek" unicode="&#x104;" horiz-adv-x="510" 
d="M407 -139q-22 21 -22 59q0 20 5.5 38t11.5 28.5t8 13.5h-10l-45 180h-200l-45 -180h-90l170 700h130l170 -700h-40v-45q0 -34 13 -46.5t47 -12.5h35v-41q-2 -1 -12 -4.5t-26.5 -7t-36.5 -3.5q-41 0 -63 21zM170 250h170l-83 350h-4z" />
    <glyph glyph-name="Aring" unicode="&#xc5;" horiz-adv-x="510" 
d="M193.5 751.5q-23.5 21.5 -23.5 58.5t23.5 58.5t61.5 21.5t61.5 -21.5t23.5 -58.5t-23.5 -58.5t-61.5 -21.5t-61.5 21.5zM280.5 783.5q9.5 8.5 9.5 26.5t-9.5 26.5t-25.5 8.5t-25.5 -8.5t-9.5 -26.5t9.5 -26.5t25.5 -8.5t25.5 8.5zM20 0l170 700h130l170 -700h-90l-45 180
h-200l-45 -180h-90zM170 250h170l-83 350h-4z" />
    <glyph glyph-name="Atilde" unicode="&#xc3;" horiz-adv-x="510" 
d="M20 0l170 700h130l170 -700h-90l-45 180h-200l-45 -180h-90zM170 250h170l-83 350h-4zM263.5 775q-12.5 10 -26.5 28q-8 11 -14 16.5t-13 5.5q-12 0 -18.5 -11.5t-6.5 -33.5h-50q0 56 19 80.5t61 24.5q19 0 31.5 -10t26.5 -28q8 -11 14 -16.5t13 -5.5q12 0 18.5 11.5
t6.5 33.5h50q0 -56 -19 -80.5t-61 -24.5q-19 0 -31.5 10z" />
    <glyph glyph-name="AE" unicode="&#xc6;" horiz-adv-x="731" 
d="M0 0l240 700h451v-70h-250v-230h220v-70h-220v-260h250v-70h-340v180h-199l-62 -180h-90zM176 250h175v380h-45z" />
    <glyph glyph-name="B" unicode="B" horiz-adv-x="500" 
d="M70 10v680q67 20 160 20q104 0 152 -45t48 -140q0 -104 -80 -148v-4q110 -32 110 -183q0 -71 -22.5 -115t-72.5 -64.5t-135 -20.5q-93 0 -160 20zM220 400q60 0 90 31t30 94q0 120 -120 120h-60v-245h60zM230 55q75 0 107.5 31.5t32.5 103.5q0 78 -32.5 111.5
t-107.5 33.5h-70v-280h70z" />
    <glyph glyph-name="C" unicode="C" horiz-adv-x="435" 
d="M148 22.5q-48 32.5 -73 111.5t-25 216q0 136 25 215t70.5 112t114.5 33q42 0 84 -6t66 -14v-45h-130q-67 0 -103.5 -65t-36.5 -230q0 -113 18 -178t51 -91t81 -26h130v-45q-24 -8 -65.5 -14t-84.5 -6q-74 0 -122 32.5z" />
    <glyph glyph-name="Cacute" unicode="&#x106;" horiz-adv-x="435" 
d="M230 750l35 130h95l-70 -130h-60zM148 22.5q-48 32.5 -73 111.5t-25 216q0 136 25 215t70.5 112t114.5 33q42 0 84 -6t66 -14v-45h-130q-67 0 -103.5 -65t-36.5 -230q0 -113 18 -178t51 -91t81 -26h130v-45q-24 -8 -65.5 -14t-84.5 -6q-74 0 -122 32.5z" />
    <glyph glyph-name="Ccaron" unicode="&#x10c;" horiz-adv-x="435" 
d="M208 760l-75 130h60l62 -74l63 74h60l-75 -130h-95zM148 22.5q-48 32.5 -73 111.5t-25 216q0 136 25 215t70.5 112t114.5 33q42 0 84 -6t66 -14v-45h-130q-67 0 -103.5 -65t-36.5 -230q0 -113 18 -178t51 -91t81 -26h130v-45q-24 -8 -65.5 -14t-84.5 -6q-74 0 -122 32.5z
" />
    <glyph glyph-name="Ccedilla" unicode="&#xc7;" horiz-adv-x="435" 
d="M238.5 -161.5q-16.5 3.5 -26.5 7t-12 4.5v30h65q40 0 40 25q0 12 -7.5 18.5t-22.5 6.5h-55v64q-85 15 -127.5 97t-42.5 259q0 136 25 215t70.5 112t114.5 33q42 0 84 -6t66 -14v-45h-130q-67 0 -103.5 -65t-36.5 -230q0 -113 18 -178t51 -91t81 -26h130v-45
q-24 -8 -65.5 -14t-84.5 -6v-15h15q40 0 62.5 -19.5t22.5 -50.5q0 -32 -24 -51t-71 -19q-20 0 -36.5 3.5z" />
    <glyph glyph-name="D" unicode="D" horiz-adv-x="520" 
d="M70 10v680q67 20 160 20q84 0 136 -32.5t78 -111t26 -216.5t-26 -216.5t-78 -111t-136 -32.5q-93 0 -160 20zM230 55q48 0 81 26t51 91t18 178t-18 178t-51 91t-81 26h-70v-590h70z" />
    <glyph glyph-name="Eth" unicode="&#xd0;" horiz-adv-x="540" 
d="M90 10v310h-80v70h80v300q67 20 160 20q84 0 136 -32.5t78 -111t26 -216.5t-26 -216.5t-78 -111t-136 -32.5q-93 0 -160 20zM250 55q48 0 81 26t51 91t18 178t-18 178t-51 91t-81 26h-70v-255h110v-70h-110v-265h70z" />
    <glyph glyph-name="Dcroat" unicode="&#x110;" horiz-adv-x="540" 
d="M90 10v310h-80v70h80v300q67 20 160 20q84 0 136 -32.5t78 -111t26 -216.5t-26 -216.5t-78 -111t-136 -32.5q-93 0 -160 20zM250 55q48 0 81 26t51 91t18 178t-18 178t-51 91t-81 26h-70v-255h110v-70h-110v-265h70z" />
    <glyph glyph-name="E" unicode="E" 
d="M70 0v700h340v-70h-250v-230h220v-70h-220v-260h250v-70h-340z" />
    <glyph glyph-name="Eacute" unicode="&#xc9;" 
d="M210 750l35 130h95l-70 -130h-60zM70 0v700h340v-70h-250v-230h220v-70h-220v-260h250v-70h-340z" />
    <glyph glyph-name="Ecircumflex" unicode="&#xca;" 
d="M115 750l75 130h95l75 -130h-60l-63 74l-62 -74h-60zM70 0v700h340v-70h-250v-230h220v-70h-220v-260h250v-70h-340z" />
    <glyph glyph-name="uni1EBE" unicode="&#x1ebe;" 
d="M70 0v700h340v-70h-250v-230h220v-70h-220v-260h250v-70h-340zM102 750l75 130h95l75 -130h-60l-63 74l-62 -74h-60zM332 828l35 130h95l-70 -130h-60z" />
    <glyph glyph-name="uni1EC6" unicode="&#x1ec6;" 
d="M70 0v700h340v-70h-250v-230h220v-70h-220v-260h250v-70h-340zM188 -156v91h74v-91h-74zM102 750l75 130h95l75 -130h-60l-63 74l-62 -74h-60z" />
    <glyph glyph-name="uni1EC0" unicode="&#x1ec0;" 
d="M70 0v700h340v-70h-250v-230h220v-70h-220v-260h250v-70h-340zM102 750l75 130h95l75 -130h-60l-63 74l-62 -74h-60zM346 847l-63 130h95l28 -130h-60z" />
    <glyph glyph-name="uni1EC2" unicode="&#x1ec2;" 
d="M70 0v700h340v-70h-250v-230h220v-70h-220v-260h250v-70h-340zM102 750l75 130h95l75 -130h-60l-63 74l-62 -74h-60zM343.5 841q6.5 10 19.5 23q7 7 12.5 15t5.5 15q0 37 -42 37h-50v47q22 8 57 8q40 0 67 -20t27 -68q0 -13 -7.5 -23.5t-20.5 -21.5q-13 -13 -18.5 -20.5
t-5.5 -17.5h-51q0 16 6.5 26z" />
    <glyph glyph-name="uni1EC4" unicode="&#x1ec4;" 
d="M70 0v700h340v-70h-250v-230h220v-70h-220v-260h250v-70h-340zM102 750l75 130h95l75 -130h-60l-63 74l-62 -74h-60zM233.5 921q-12.5 10 -26.5 28q-8 11 -14 16.5t-13 5.5q-12 0 -18.5 -11.5t-6.5 -33.5h-50q0 56 19 80.5t61 24.5q19 0 31.5 -10t26.5 -28
q8 -11 14 -16.5t13 -5.5q12 0 18.5 11.5t6.5 33.5h50q0 -56 -19 -80.5t-61 -24.5q-19 0 -31.5 10z" />
    <glyph glyph-name="Edieresis" unicode="&#xcb;" 
d="M110 770v110h90v-110h-90zM270 770v110h90v-110h-90zM70 0v700h340v-70h-250v-230h220v-70h-220v-260h250v-70h-340z" />
    <glyph glyph-name="Edotaccent" unicode="&#x116;" 
d="M200 770v110h90v-110h-90zM70 0v700h340v-70h-250v-230h220v-70h-220v-260h250v-70h-340z" />
    <glyph glyph-name="uni1EB8" unicode="&#x1eb8;" 
d="M70 0v700h340v-70h-250v-230h220v-70h-220v-260h250v-70h-340zM188 -156v91h74v-91h-74z" />
    <glyph glyph-name="Egrave" unicode="&#xc8;" 
d="M220 750l-70 130h95l35 -130h-60zM70 0v700h340v-70h-250v-230h220v-70h-220v-260h250v-70h-340z" />
    <glyph glyph-name="uni1EBA" unicode="&#x1eba;" 
d="M70 0v700h340v-70h-250v-230h220v-70h-220v-260h250v-70h-340zM203.5 775q6.5 10 19.5 23q7 7 12.5 15t5.5 15q0 37 -42 37h-50v47q22 8 57 8q40 0 67 -20t27 -68q0 -13 -7.5 -23.5t-20.5 -21.5q-13 -13 -18.5 -20.5t-5.5 -17.5h-51q0 16 6.5 26z" />
    <glyph glyph-name="Emacron" unicode="&#x112;" 
d="M124 770v60h230v-60h-230zM70 0v700h340v-70h-250v-230h220v-70h-220v-260h250v-70h-340z" />
    <glyph glyph-name="Eogonek" unicode="&#x118;" 
d="M322 -139q-22 21 -22 59q0 20 5.5 38t11.5 28.5t8 13.5h-255v700h340v-70h-250v-230h220v-70h-220v-260h250v-70h-45v-45q0 -34 13 -46.5t47 -12.5h35v-41q-2 -1 -12 -4.5t-26.5 -7t-36.5 -3.5q-41 0 -63 21z" />
    <glyph glyph-name="uni1EBC" unicode="&#x1ebc;" 
d="M70 0v700h340v-70h-250v-230h220v-70h-220v-260h250v-70h-340zM233.5 775q-12.5 10 -26.5 28q-8 11 -14 16.5t-13 5.5q-12 0 -18.5 -11.5t-6.5 -33.5h-50q0 56 19 80.5t61 24.5q19 0 31.5 -10t26.5 -28q8 -11 14 -16.5t13 -5.5q12 0 18.5 11.5t6.5 33.5h50
q0 -56 -19 -80.5t-61 -24.5q-19 0 -31.5 10z" />
    <glyph glyph-name="F" unicode="F" horiz-adv-x="430" 
d="M70 0v700h340v-70h-250v-245h210v-70h-210v-315h-90z" />
    <glyph glyph-name="G" unicode="G" horiz-adv-x="500" 
d="M154 22.5q-52 32.5 -78 111t-26 216.5q0 137 25 216t73 111.5t122 32.5q42 0 84 -6t66 -14v-45h-130q-48 0 -81 -26t-51 -91t-18 -178q0 -115 19 -179.5t56 -90t95 -25.5h40v325h90v-370q-24 -8 -65.5 -14t-84.5 -6q-84 0 -136 32.5z" />
    <glyph glyph-name="Gbreve" unicode="&#x11e;" horiz-adv-x="505" 
d="M185.5 780q-36.5 20 -55.5 55l40 40q19 -19 44.5 -32t55.5 -13t55.5 13t44.5 32l40 -40q-19 -35 -55.5 -55t-84.5 -20t-84.5 20zM154 22.5q-52 32.5 -78 111t-26 216.5q0 137 25 216t73 111.5t122 32.5q42 0 84 -6t66 -14v-45h-130q-48 0 -81 -26t-51 -91t-18 -178
q0 -115 19 -179.5t56 -90t95 -25.5h40v325h90v-370q-24 -8 -65.5 -14t-84.5 -6q-84 0 -136 32.5z" />
    <glyph glyph-name="Gcommaaccent" unicode="&#x122;" horiz-adv-x="500" 
d="M154 22.5q-52 32.5 -78 111t-26 216.5q0 137 25 216t73 111.5t122 32.5q42 0 84 -6t66 -14v-45h-130q-48 0 -81 -26t-51 -91t-18 -178q0 -115 19 -179.5t56 -90t95 -25.5h40v325h90v-370q-24 -8 -65.5 -14t-84.5 -6q-84 0 -136 32.5zM230 -220v150h90l-30 -150h-60z" />
    <glyph glyph-name="H" unicode="H" horiz-adv-x="530" 
d="M70 0v700h90v-310h210v310h90v-700h-90v320h-210v-320h-90z" />
    <glyph glyph-name="I" unicode="I" horiz-adv-x="230" 
d="M70 0v700h90v-700h-90z" />
    <glyph glyph-name="Iacute" unicode="&#xcd;" horiz-adv-x="230" 
d="M85 750l35 130h95l-70 -130h-60zM70 0v700h90v-700h-90z" />
    <glyph glyph-name="Icircumflex" unicode="&#xce;" horiz-adv-x="215" 
d="M-15 750l75 130h95l75 -130h-60l-63 74l-62 -74h-60zM60 0v700h90v-700h-90z" />
    <glyph glyph-name="Idieresis" unicode="&#xcf;" horiz-adv-x="230" 
d="M-10 770v110h90v-110h-90zM150 770v110h90v-110h-90zM70 0v700h90v-700h-90z" />
    <glyph glyph-name="Idotaccent" unicode="&#x130;" horiz-adv-x="230" 
d="M70 770v110h90v-110h-90zM70 0v700h90v-700h-90z" />
    <glyph glyph-name="uni1ECA" unicode="&#x1eca;" horiz-adv-x="230" 
d="M70 0v700h90v-700h-90zM78 -156v91h74v-91h-74z" />
    <glyph glyph-name="Igrave" unicode="&#xcc;" horiz-adv-x="225" 
d="M85 750l-70 130h95l35 -130h-60zM65 0v700h90v-700h-90z" />
    <glyph glyph-name="uni1EC8" unicode="&#x1ec8;" horiz-adv-x="230" 
d="M70 0v700h90v-700h-90zM93.5 775q6.5 10 19.5 23q7 7 12.5 15t5.5 15q0 37 -42 37h-50v47q22 8 57 8q40 0 67 -20t27 -68q0 -13 -7.5 -23.5t-20.5 -21.5q-13 -13 -18.5 -20.5t-5.5 -17.5h-51q0 16 6.5 26z" />
    <glyph glyph-name="Imacron" unicode="&#x12a;" horiz-adv-x="220" 
d="M-5 760v60h230v-60h-230zM65 0v700h90v-700h-90z" />
    <glyph glyph-name="Iogonek" unicode="&#x12e;" horiz-adv-x="220" 
d="M72 -139q-22 21 -22 59q0 20 5.5 38t11.5 28.5t8 13.5h-10v700h90v-700h-40v-45q0 -34 13 -46.5t47 -12.5h35v-41q-2 -1 -12 -4.5t-26.5 -7t-36.5 -3.5q-41 0 -63 21z" />
    <glyph glyph-name="Itilde" unicode="&#x128;" horiz-adv-x="230" 
d="M70 0v700h90v-700h-90zM123.5 775q-12.5 10 -26.5 28q-8 11 -14 16.5t-13 5.5q-12 0 -18.5 -11.5t-6.5 -33.5h-50q0 56 19 80.5t61 24.5q19 0 31.5 -10t26.5 -28q8 -11 14 -16.5t13 -5.5q12 0 18.5 11.5t6.5 33.5h50q0 -56 -19 -80.5t-61 -24.5q-19 0 -31.5 10z" />
    <glyph glyph-name="J" unicode="J" horiz-adv-x="350" 
d="M0 10v45h90q56 0 83 40.5t27 144.5v460h90v-460q0 -95 -20.5 -149t-64 -77.5t-115.5 -23.5q-40 0 -90 20z" />
    <glyph glyph-name="Jcircumflex" unicode="&#x134;" horiz-adv-x="353" 
d="M123 740l75 130h95l75 -130h-60l-63 74l-62 -74h-60zM0 10v45h90q56 0 83 40.5t27 144.5v460h90v-460q0 -95 -20.5 -149t-64 -77.5t-115.5 -23.5q-40 0 -90 20z" />
    <glyph glyph-name="K" unicode="K" horiz-adv-x="490" 
d="M70 0v700h90v-340l195 340h105l-205 -345l225 -355h-105l-215 350v-350h-90z" />
    <glyph glyph-name="Kcommaaccent" unicode="&#x136;" horiz-adv-x="490" 
d="M70 0v700h90v-340l195 340h105l-205 -345l225 -355h-105l-215 350v-350h-90zM210 -200v150h90l-30 -150h-60z" />
    <glyph glyph-name="L" unicode="L" horiz-adv-x="420" 
d="M70 0v700h90v-630h250v-70h-340z" />
    <glyph glyph-name="Lcommaaccent" unicode="&#x13b;" horiz-adv-x="420" 
d="M70 0v700h90v-630h250v-70h-340zM200 -210v150h90l-30 -150h-60z" />
    <glyph glyph-name="Lslash" unicode="&#x141;" horiz-adv-x="425" 
d="M75 0v290l-50 -35l-35 50l85 60v335h90v-270l60 40l35 -50l-95 -65v-285h250v-70h-340z" />
    <glyph glyph-name="M" unicode="M" horiz-adv-x="740" 
d="M55 0l40 700h110l163 -480h4l163 480h110l40 -700h-90l-30 520h-5l-145 -430h-90l-145 430h-5l-30 -520h-90z" />
    <glyph glyph-name="N" unicode="N" horiz-adv-x="540" 
d="M70 0v700h100l205 -495h5v495h90v-700h-100l-205 495h-5v-495h-90z" />
    <glyph glyph-name="Nacute" unicode="&#x143;" horiz-adv-x="540" 
d="M240 750l35 130h95l-70 -130h-60zM70 0v700h100l205 -495h5v495h90v-700h-100l-205 495h-5v-495h-90z" />
    <glyph glyph-name="Ncommaaccent" unicode="&#x145;" horiz-adv-x="540" 
d="M70 0v700h100l205 -495h5v495h90v-700h-100l-205 495h-5v-495h-90zM220 -200v150h90l-30 -150h-60z" />
    <glyph glyph-name="Ntilde" unicode="&#xd1;" horiz-adv-x="540" 
d="M158.5 775q-18.5 25 -18.5 80h50q0 -22 6.5 -33.5t18.5 -11.5q7 0 13.5 5.5t15.5 16.5q15 18 28.5 28t32.5 10q38 0 56.5 -25t18.5 -80h-50q0 22 -6.5 33.5t-18.5 11.5q-7 0 -13.5 -5.5t-15.5 -16.5q-15 -18 -28.5 -28t-32.5 -10q-38 0 -56.5 25zM70 0v700h100l205 -495
h5v495h90v-700h-100l-205 495h-5v-495h-90z" />
    <glyph glyph-name="O" unicode="O" horiz-adv-x="530" 
d="M147 22.5q-47 32.5 -72 112t-25 215.5t25 215.5t72 112t118 32.5t118 -32.5t72 -112t25 -215.5t-25 -215.5t-72 -112t-118 -32.5t-118 32.5zM390 350q0 300 -125 300t-125 -300t125 -300t125 300z" />
    <glyph glyph-name="Oacute" unicode="&#xd3;" horiz-adv-x="530" 
d="M230 760l35 130h95l-70 -130h-60zM147 22.5q-47 32.5 -72 112t-25 215.5t25 215.5t72 112t118 32.5t118 -32.5t72 -112t25 -215.5t-25 -215.5t-72 -112t-118 -32.5t-118 32.5zM390 350q0 300 -125 300t-125 -300t125 -300t125 300z" />
    <glyph glyph-name="Ocircumflex" unicode="&#xd4;" horiz-adv-x="530" 
d="M145 760l75 130h95l75 -130h-60l-63 74l-62 -74h-60zM147 22.5q-47 32.5 -72 112t-25 215.5t25 215.5t72 112t118 32.5t118 -32.5t72 -112t25 -215.5t-25 -215.5t-72 -112t-118 -32.5t-118 32.5zM390 350q0 300 -125 300t-125 -300t125 -300t125 300z" />
    <glyph glyph-name="uni1ED0" unicode="&#x1ed0;" horiz-adv-x="530" 
d="M147 22.5q-47 32.5 -72 112t-25 215.5t25 215.5t72 112t118 32.5t118 -32.5t72 -112t25 -215.5t-25 -215.5t-72 -112t-118 -32.5t-118 32.5zM390 350q0 300 -125 300t-125 -300t125 -300t125 300zM142 750l75 130h95l75 -130h-60l-63 74l-62 -74h-60zM372 828l35 130h95
l-70 -130h-60z" />
    <glyph glyph-name="uni1ED8" unicode="&#x1ed8;" horiz-adv-x="530" 
d="M147 22.5q-47 32.5 -72 112t-25 215.5t25 215.5t72 112t118 32.5t118 -32.5t72 -112t25 -215.5t-25 -215.5t-72 -112t-118 -32.5t-118 32.5zM390 350q0 300 -125 300t-125 -300t125 -300t125 300zM228 -156v91h74v-91h-74zM142 750l75 130h95l75 -130h-60l-63 74l-62 -74
h-60z" />
    <glyph glyph-name="uni1ED2" unicode="&#x1ed2;" horiz-adv-x="530" 
d="M147 22.5q-47 32.5 -72 112t-25 215.5t25 215.5t72 112t118 32.5t118 -32.5t72 -112t25 -215.5t-25 -215.5t-72 -112t-118 -32.5t-118 32.5zM390 350q0 300 -125 300t-125 -300t125 -300t125 300zM142 750l75 130h95l75 -130h-60l-63 74l-62 -74h-60zM386 847l-63 130h95
l28 -130h-60z" />
    <glyph glyph-name="uni1ED4" unicode="&#x1ed4;" horiz-adv-x="530" 
d="M147 22.5q-47 32.5 -72 112t-25 215.5t25 215.5t72 112t118 32.5t118 -32.5t72 -112t25 -215.5t-25 -215.5t-72 -112t-118 -32.5t-118 32.5zM390 350q0 300 -125 300t-125 -300t125 -300t125 300zM142 750l75 130h95l75 -130h-60l-63 74l-62 -74h-60zM383.5 841
q6.5 10 19.5 23q7 7 12.5 15t5.5 15q0 37 -42 37h-50v47q22 8 57 8q40 0 67 -20t27 -68q0 -13 -7.5 -23.5t-20.5 -21.5q-13 -13 -18.5 -20.5t-5.5 -17.5h-51q0 16 6.5 26z" />
    <glyph glyph-name="uni1ED6" unicode="&#x1ed6;" horiz-adv-x="530" 
d="M147 22.5q-47 32.5 -72 112t-25 215.5t25 215.5t72 112t118 32.5t118 -32.5t72 -112t25 -215.5t-25 -215.5t-72 -112t-118 -32.5t-118 32.5zM390 350q0 300 -125 300t-125 -300t125 -300t125 300zM142 750l75 130h95l75 -130h-60l-63 74l-62 -74h-60zM273.5 921
q-12.5 10 -26.5 28q-8 11 -14 16.5t-13 5.5q-12 0 -18.5 -11.5t-6.5 -33.5h-50q0 56 19 80.5t61 24.5q19 0 31.5 -10t26.5 -28q8 -11 14 -16.5t13 -5.5q12 0 18.5 11.5t6.5 33.5h50q0 -56 -19 -80.5t-61 -24.5q-19 0 -31.5 10z" />
    <glyph glyph-name="Odieresis" unicode="&#xd6;" horiz-adv-x="530" 
d="M140 770v110h90v-110h-90zM300 770v110h90v-110h-90zM147 22.5q-47 32.5 -72 112t-25 215.5t25 215.5t72 112t118 32.5t118 -32.5t72 -112t25 -215.5t-25 -215.5t-72 -112t-118 -32.5t-118 32.5zM390 350q0 300 -125 300t-125 -300t125 -300t125 300z" />
    <glyph glyph-name="uni1ECC" unicode="&#x1ecc;" horiz-adv-x="530" 
d="M147 22.5q-47 32.5 -72 112t-25 215.5t25 215.5t72 112t118 32.5t118 -32.5t72 -112t25 -215.5t-25 -215.5t-72 -112t-118 -32.5t-118 32.5zM390 350q0 300 -125 300t-125 -300t125 -300t125 300zM228 -156v91h74v-91h-74z" />
    <glyph glyph-name="Ograve" unicode="&#xd2;" horiz-adv-x="530" 
d="M240 760l-70 130h95l35 -130h-60zM147 22.5q-47 32.5 -72 112t-25 215.5t25 215.5t72 112t118 32.5t118 -32.5t72 -112t25 -215.5t-25 -215.5t-72 -112t-118 -32.5t-118 32.5zM390 350q0 300 -125 300t-125 -300t125 -300t125 300z" />
    <glyph glyph-name="uni1ECE" unicode="&#x1ece;" horiz-adv-x="530" 
d="M147 22.5q-47 32.5 -72 112t-25 215.5t25 215.5t72 112t118 32.5t118 -32.5t72 -112t25 -215.5t-25 -215.5t-72 -112t-118 -32.5t-118 32.5zM390 350q0 300 -125 300t-125 -300t125 -300t125 300zM243.5 775q6.5 10 19.5 23q7 7 12.5 15t5.5 15q0 37 -42 37h-50v47
q22 8 57 8q40 0 67 -20t27 -68q0 -13 -7.5 -23.5t-20.5 -21.5q-13 -13 -18.5 -20.5t-5.5 -17.5h-51q0 16 6.5 26z" />
    <glyph glyph-name="Ohorn" unicode="&#x1a0;" horiz-adv-x="530" 
d="M460 548q20 -76 20 -198q0 -136 -25 -215.5t-72 -112t-118 -32.5t-118 32.5t-72 112t-25 215.5t25 215.5t72 112t118 32.5q38 0 70 -9q64 5 64 73h74q0 -85 -72 -112q39 -38 59 -114zM390 350q0 300 -125 300t-125 -300t125 -300t125 300z" />
    <glyph glyph-name="uni1EDA" unicode="&#x1eda;" horiz-adv-x="530" 
d="M460 548q20 -76 20 -198q0 -136 -25 -215.5t-72 -112t-118 -32.5t-118 32.5t-72 112t-25 215.5t25 215.5t72 112t118 32.5q38 0 70 -9q64 5 64 73h74q0 -85 -72 -112q39 -38 59 -114zM390 350q0 300 -125 300t-125 -300t125 -300t125 300zM235 760l35 130h95l-70 -130
h-60z" />
    <glyph glyph-name="uni1EE2" unicode="&#x1ee2;" horiz-adv-x="530" 
d="M460 548q20 -76 20 -198q0 -136 -25 -215.5t-72 -112t-118 -32.5t-118 32.5t-72 112t-25 215.5t25 215.5t72 112t118 32.5q38 0 70 -9q64 5 64 73h74q0 -85 -72 -112q39 -38 59 -114zM390 350q0 300 -125 300t-125 -300t125 -300t125 300zM228 -156v91h74v-91h-74z" />
    <glyph glyph-name="uni1EDC" unicode="&#x1edc;" horiz-adv-x="530" 
d="M460 548q20 -76 20 -198q0 -136 -25 -215.5t-72 -112t-118 -32.5t-118 32.5t-72 112t-25 215.5t25 215.5t72 112t118 32.5q38 0 70 -9q64 5 64 73h74q0 -85 -72 -112q39 -38 59 -114zM390 350q0 300 -125 300t-125 -300t125 -300t125 300zM228 760l-63 130h95l28 -130
h-60z" />
    <glyph glyph-name="uni1EDE" unicode="&#x1ede;" horiz-adv-x="530" 
d="M460 548q20 -76 20 -198q0 -136 -25 -215.5t-72 -112t-118 -32.5t-118 32.5t-72 112t-25 215.5t25 215.5t72 112t118 32.5q38 0 70 -9q64 5 64 73h74q0 -85 -72 -112q39 -38 59 -114zM390 350q0 300 -125 300t-125 -300t125 -300t125 300zM243.5 775q6.5 10 19.5 23
q7 7 12.5 15t5.5 15q0 37 -42 37h-50v47q22 8 57 8q40 0 67 -20t27 -68q0 -13 -7.5 -23.5t-20.5 -21.5q-13 -13 -18.5 -20.5t-5.5 -17.5h-51q0 16 6.5 26z" />
    <glyph glyph-name="uni1EE0" unicode="&#x1ee0;" horiz-adv-x="530" 
d="M460 548q20 -76 20 -198q0 -136 -25 -215.5t-72 -112t-118 -32.5t-118 32.5t-72 112t-25 215.5t25 215.5t72 112t118 32.5q38 0 70 -9q64 5 64 73h74q0 -85 -72 -112q39 -38 59 -114zM390 350q0 300 -125 300t-125 -300t125 -300t125 300zM273.5 775q-12.5 10 -26.5 28
q-8 11 -14 16.5t-13 5.5q-12 0 -18.5 -11.5t-6.5 -33.5h-50q0 56 19 80.5t61 24.5q19 0 31.5 -10t26.5 -28q8 -11 14 -16.5t13 -5.5q12 0 18.5 11.5t6.5 33.5h50q0 -56 -19 -80.5t-61 -24.5q-19 0 -31.5 10z" />
    <glyph glyph-name="Omacron" unicode="&#x14c;" horiz-adv-x="530" 
d="M150 770v60h230v-60h-230zM147 22.5q-47 32.5 -72 112t-25 215.5t25 215.5t72 112t118 32.5t118 -32.5t72 -112t25 -215.5t-25 -215.5t-72 -112t-118 -32.5t-118 32.5zM390 350q0 300 -125 300t-125 -300t125 -300t125 300z" />
    <glyph glyph-name="Oslash" unicode="&#xd8;" horiz-adv-x="540" 
d="M174 9.5q-40 19.5 -67 63.5l-37 -53l-40 30l53 76q-28 84 -28 224q0 136 25 215.5t72 112t118 32.5q55 0 95.5 -19.5t67.5 -63.5l37 53l40 -30l-53 -76q28 -84 28 -224q0 -136 -25 -215.5t-72 -112t-118 -32.5q-56 0 -96 19.5zM374 543q-30 107 -104 107
q-125 0 -125 -300q0 -76 7 -125zM395 350q0 64 -7 125l-223 -319q30 -106 105 -106q125 0 125 300z" />
    <glyph glyph-name="Otilde" unicode="&#xd5;" horiz-adv-x="530" 
d="M147 22.5q-47 32.5 -72 112t-25 215.5t25 215.5t72 112t118 32.5t118 -32.5t72 -112t25 -215.5t-25 -215.5t-72 -112t-118 -32.5t-118 32.5zM390 350q0 300 -125 300t-125 -300t125 -300t125 300zM273.5 775q-12.5 10 -26.5 28q-8 11 -14 16.5t-13 5.5q-12 0 -18.5 -11.5
t-6.5 -33.5h-50q0 56 19 80.5t61 24.5q19 0 31.5 -10t26.5 -28q8 -11 14 -16.5t13 -5.5q12 0 18.5 11.5t6.5 33.5h50q0 -56 -19 -80.5t-61 -24.5q-19 0 -31.5 10z" />
    <glyph glyph-name="OE" unicode="&#x152;" horiz-adv-x="740" 
d="M112 83q-72 83 -72 267t72 267t218 83h370v-70h-250v-230h220v-70h-220v-260h250v-70h-370q-146 0 -218 83zM360 70v560h-30q-101 0 -150.5 -64t-49.5 -216t49.5 -216t150.5 -64h30z" />
    <glyph glyph-name="P" unicode="P" horiz-adv-x="490" 
d="M70 690q67 20 160 20q82 0 129.5 -23t69 -77t21.5 -150q0 -97 -20 -152.5t-61.5 -79t-108.5 -23.5q-22 0 -51 3t-49 7v-215h-90v690zM230 275q47 0 75 16.5t41.5 56.5t13.5 112t-13.5 112t-41.5 56.5t-75 16.5h-70v-370h70z" />
    <glyph glyph-name="Thorn" unicode="&#xde;" horiz-adv-x="500" 
d="M70 710h90v-80q152 -7 226 -77.5t74 -202.5t-74 -202.5t-226 -77.5v-80h-90v720zM317.5 192q52.5 53 52.5 158t-52.5 158t-157.5 57v-430q105 4 157.5 57z" />
    <glyph glyph-name="Q" unicode="Q" horiz-adv-x="540" 
d="M147 22.5q-47 32.5 -72 112t-25 215.5t25 215.5t72 112t118 32.5t118 -32.5t72 -112t25 -215.5q0 -113 -17.5 -185t-52.5 -115q60 0 120 -20v-40h-265q-71 0 -118 32.5zM390 350q0 300 -125 300t-125 -300t125 -300t125 300z" />
    <glyph glyph-name="R" unicode="R" horiz-adv-x="505" 
d="M70 690q67 20 160 20q82 0 129.5 -22.5t69 -74.5t21.5 -143q0 -98 -24.5 -149.5t-75.5 -70.5l120 -250h-100l-110 230h-100v-230h-90v690zM230 300q69 0 99.5 37.5t30.5 132.5q0 67 -13.5 105t-41.5 54t-75 16h-70v-345h70z" />
    <glyph glyph-name="Racute" unicode="&#x154;" horiz-adv-x="505" 
d="M200 750l35 130h95l-70 -130h-60zM70 690q67 20 160 20q82 0 129.5 -22.5t69 -74.5t21.5 -143q0 -98 -24.5 -149.5t-75.5 -70.5l120 -250h-100l-110 230h-100v-230h-90v690zM230 300q69 0 99.5 37.5t30.5 132.5q0 67 -13.5 105t-41.5 54t-75 16h-70v-345h70z" />
    <glyph glyph-name="Rcaron" unicode="&#x158;" horiz-adv-x="505" 
d="M183 750l-75 130h60l62 -74l63 74h60l-75 -130h-95zM70 690q67 20 160 20q82 0 129.5 -22.5t69 -74.5t21.5 -143q0 -98 -24.5 -149.5t-75.5 -70.5l120 -250h-100l-110 230h-100v-230h-90v690zM230 300q69 0 99.5 37.5t30.5 132.5q0 67 -13.5 105t-41.5 54t-75 16h-70
v-345h70z" />
    <glyph glyph-name="Rcommaaccent" unicode="&#x156;" horiz-adv-x="505" 
d="M70 690q67 20 160 20q82 0 129.5 -22.5t69 -74.5t21.5 -143q0 -98 -24.5 -149.5t-75.5 -70.5l120 -250h-100l-110 230h-100v-230h-90v690zM230 300q69 0 99.5 37.5t30.5 132.5q0 67 -13.5 105t-41.5 54t-75 16h-70v-345h70zM220 -200v150h90l-30 -150h-60z" />
    <glyph glyph-name="S" unicode="S" horiz-adv-x="445" 
d="M101 -4q-42 6 -66 14v45h130q84 0 119.5 30t35.5 95q0 37 -16 61.5t-40 39.5t-67 35q-52 23 -84.5 45t-55 63t-22.5 106q0 91 46.5 135.5t143.5 44.5q42 0 84 -6t66 -14v-45h-130q-60 0 -90 -29t-30 -86q0 -40 17 -66.5t42.5 -42.5t68.5 -36q52 -25 82.5 -46t52.5 -59.5
t22 -99.5q0 -99 -51.5 -144.5t-173.5 -45.5q-42 0 -84 6z" />
    <glyph glyph-name="Sacute" unicode="&#x15a;" horiz-adv-x="445" 
d="M190 760l35 130h95l-70 -130h-60zM101 -4q-42 6 -66 14v45h130q84 0 119.5 30t35.5 95q0 37 -16 61.5t-40 39.5t-67 35q-52 23 -84.5 45t-55 63t-22.5 106q0 91 46.5 135.5t143.5 44.5q42 0 84 -6t66 -14v-45h-130q-60 0 -90 -29t-30 -86q0 -40 17 -66.5t42.5 -42.5
t68.5 -36q52 -25 82.5 -46t52.5 -59.5t22 -99.5q0 -99 -51.5 -144.5t-173.5 -45.5q-42 0 -84 6z" />
    <glyph glyph-name="Scaron" unicode="&#x160;" horiz-adv-x="445" 
d="M168 760l-75 130h60l62 -74l63 74h60l-75 -130h-95zM101 -4q-42 6 -66 14v45h130q84 0 119.5 30t35.5 95q0 37 -16 61.5t-40 39.5t-67 35q-52 23 -84.5 45t-55 63t-22.5 106q0 91 46.5 135.5t143.5 44.5q42 0 84 -6t66 -14v-45h-130q-60 0 -90 -29t-30 -86
q0 -40 17 -66.5t42.5 -42.5t68.5 -36q52 -25 82.5 -46t52.5 -59.5t22 -99.5q0 -99 -51.5 -144.5t-173.5 -45.5q-42 0 -84 6z" />
    <glyph glyph-name="Scedilla" unicode="&#x15e;" horiz-adv-x="445" 
d="M203.5 -161.5q-16.5 3.5 -26.5 7t-12 4.5v30h65q40 0 40 25q0 12 -7.5 18.5t-22.5 6.5h-55v60q-42 0 -84 6t-66 14v45h130q84 0 119.5 30t35.5 95q0 37 -16 61.5t-40 39.5t-67 35q-52 23 -84.5 45t-55 63t-22.5 106q0 91 46.5 135.5t143.5 44.5q42 0 84 -6t66 -14v-45
h-130q-60 0 -90 -29t-30 -86q0 -40 17 -66.5t42.5 -42.5t68.5 -36q52 -25 82.5 -46t52.5 -59.5t22 -99.5q0 -89 -40.5 -134t-134.5 -53v-18h15q40 0 62.5 -19.5t22.5 -50.5q0 -32 -24 -51t-71 -19q-20 0 -36.5 3.5z" />
    <glyph glyph-name="T" unicode="T" horiz-adv-x="430" 
d="M170 0v630h-160v70h410v-70h-160v-630h-90z" />
    <glyph glyph-name="U" unicode="U" horiz-adv-x="520" 
d="M144.5 13.5q-43.5 23.5 -64 77.5t-20.5 149v460h90v-460q0 -107 27 -148.5t83 -41.5t83 41.5t27 148.5v460h90v-460q0 -95 -20.5 -149t-64 -77.5t-115.5 -23.5t-115.5 23.5z" />
    <glyph glyph-name="Uacute" unicode="&#xda;" horiz-adv-x="520" 
d="M225 740l35 130h95l-70 -130h-60zM144.5 13.5q-43.5 23.5 -64 77.5t-20.5 149v460h90v-460q0 -107 27 -148.5t83 -41.5t83 41.5t27 148.5v460h90v-460q0 -95 -20.5 -149t-64 -77.5t-115.5 -23.5t-115.5 23.5z" />
    <glyph glyph-name="Ucircumflex" unicode="&#xdb;" horiz-adv-x="520" 
d="M138 740l75 130h95l75 -130h-60l-63 74l-62 -74h-60zM144.5 13.5q-43.5 23.5 -64 77.5t-20.5 149v460h90v-460q0 -107 27 -148.5t83 -41.5t83 41.5t27 148.5v460h90v-460q0 -95 -20.5 -149t-64 -77.5t-115.5 -23.5t-115.5 23.5z" />
    <glyph glyph-name="Udieresis" unicode="&#xdc;" horiz-adv-x="520" 
d="M135 750v110h90v-110h-90zM295 750v110h90v-110h-90zM144.5 13.5q-43.5 23.5 -64 77.5t-20.5 149v460h90v-460q0 -107 27 -148.5t83 -41.5t83 41.5t27 148.5v460h90v-460q0 -95 -20.5 -149t-64 -77.5t-115.5 -23.5t-115.5 23.5z" />
    <glyph glyph-name="uni1EE4" unicode="&#x1ee4;" horiz-adv-x="520" 
d="M144.5 13.5q-43.5 23.5 -64 77.5t-20.5 149v460h90v-460q0 -107 27 -148.5t83 -41.5t83 41.5t27 148.5v460h90v-460q0 -95 -20.5 -149t-64 -77.5t-115.5 -23.5t-115.5 23.5zM223 -156v91h74v-91h-74z" />
    <glyph glyph-name="Ugrave" unicode="&#xd9;" horiz-adv-x="520" 
d="M235 740l-70 130h95l35 -130h-60zM144.5 13.5q-43.5 23.5 -64 77.5t-20.5 149v460h90v-460q0 -107 27 -148.5t83 -41.5t83 41.5t27 148.5v460h90v-460q0 -95 -20.5 -149t-64 -77.5t-115.5 -23.5t-115.5 23.5z" />
    <glyph glyph-name="uni1EE6" unicode="&#x1ee6;" horiz-adv-x="520" 
d="M144.5 13.5q-43.5 23.5 -64 77.5t-20.5 149v460h90v-460q0 -107 27 -148.5t83 -41.5t83 41.5t27 148.5v460h90v-460q0 -95 -20.5 -149t-64 -77.5t-115.5 -23.5t-115.5 23.5zM238.5 775q6.5 10 19.5 23q7 7 12.5 15t5.5 15q0 37 -42 37h-50v47q22 8 57 8q40 0 67 -20
t27 -68q0 -13 -7.5 -23.5t-20.5 -21.5q-13 -13 -18.5 -20.5t-5.5 -17.5h-51q0 16 6.5 26z" />
    <glyph glyph-name="Uhorn" unicode="&#x1af;" horiz-adv-x="520" 
d="M460 655v-415q0 -95 -20.5 -149t-64 -77.5t-115.5 -23.5t-115.5 23.5t-64 77.5t-20.5 149v460h90v-460q0 -107 27 -148.5t83 -41.5t83 41.5t27 148.5v460h35q38 0 58.5 16.5t20.5 57.5h74q0 -99 -98 -119z" />
    <glyph glyph-name="uni1EE8" unicode="&#x1ee8;" horiz-adv-x="520" 
d="M460 655v-415q0 -95 -20.5 -149t-64 -77.5t-115.5 -23.5t-115.5 23.5t-64 77.5t-20.5 149v460h90v-460q0 -107 27 -148.5t83 -41.5t83 41.5t27 148.5v460h35q38 0 58.5 16.5t20.5 57.5h74q0 -99 -98 -119zM230 760l35 130h95l-70 -130h-60z" />
    <glyph glyph-name="uni1EF0" unicode="&#x1ef0;" horiz-adv-x="520" 
d="M460 655v-415q0 -95 -20.5 -149t-64 -77.5t-115.5 -23.5t-115.5 23.5t-64 77.5t-20.5 149v460h90v-460q0 -107 27 -148.5t83 -41.5t83 41.5t27 148.5v460h35q38 0 58.5 16.5t20.5 57.5h74q0 -99 -98 -119zM223 -156v91h74v-91h-74z" />
    <glyph glyph-name="uni1EEA" unicode="&#x1eea;" horiz-adv-x="520" 
d="M460 655v-415q0 -95 -20.5 -149t-64 -77.5t-115.5 -23.5t-115.5 23.5t-64 77.5t-20.5 149v460h90v-460q0 -107 27 -148.5t83 -41.5t83 41.5t27 148.5v460h35q38 0 58.5 16.5t20.5 57.5h74q0 -99 -98 -119zM223 760l-63 130h95l28 -130h-60z" />
    <glyph glyph-name="uni1EEC" unicode="&#x1eec;" horiz-adv-x="520" 
d="M460 655v-415q0 -95 -20.5 -149t-64 -77.5t-115.5 -23.5t-115.5 23.5t-64 77.5t-20.5 149v460h90v-460q0 -107 27 -148.5t83 -41.5t83 41.5t27 148.5v460h35q38 0 58.5 16.5t20.5 57.5h74q0 -99 -98 -119zM238.5 775q6.5 10 19.5 23q7 7 12.5 15t5.5 15q0 37 -42 37h-50
v47q22 8 57 8q40 0 67 -20t27 -68q0 -13 -7.5 -23.5t-20.5 -21.5q-13 -13 -18.5 -20.5t-5.5 -17.5h-51q0 16 6.5 26z" />
    <glyph glyph-name="uni1EEE" unicode="&#x1eee;" horiz-adv-x="520" 
d="M460 655v-415q0 -95 -20.5 -149t-64 -77.5t-115.5 -23.5t-115.5 23.5t-64 77.5t-20.5 149v460h90v-460q0 -107 27 -148.5t83 -41.5t83 41.5t27 148.5v460h35q38 0 58.5 16.5t20.5 57.5h74q0 -99 -98 -119zM268.5 775q-12.5 10 -26.5 28q-8 11 -14 16.5t-13 5.5
q-12 0 -18.5 -11.5t-6.5 -33.5h-50q0 56 19 80.5t61 24.5q19 0 31.5 -10t26.5 -28q8 -11 14 -16.5t13 -5.5q12 0 18.5 11.5t6.5 33.5h50q0 -56 -19 -80.5t-61 -24.5q-19 0 -31.5 10z" />
    <glyph glyph-name="Umacron" unicode="&#x16a;" horiz-adv-x="520" 
d="M145 770v60h230v-60h-230zM144.5 13.5q-43.5 23.5 -64 77.5t-20.5 149v460h90v-460q0 -107 27 -148.5t83 -41.5t83 41.5t27 148.5v460h90v-460q0 -95 -20.5 -149t-64 -77.5t-115.5 -23.5t-115.5 23.5z" />
    <glyph glyph-name="Uogonek" unicode="&#x172;" horiz-adv-x="520" 
d="M237 -139q-22 21 -22 59q0 36 19 71q-62 4 -100 28.5t-56 78t-18 142.5v460h90v-460q0 -107 27 -148.5t83 -41.5t83 41.5t27 148.5v460h90v-460q0 -90 -18.5 -143.5t-57.5 -78t-104 -27.5v-36q0 -34 13 -46.5t47 -12.5h35v-41q-2 -1 -12 -4.5t-26.5 -7t-36.5 -3.5
q-41 0 -63 21z" />
    <glyph glyph-name="Utilde" unicode="&#x168;" horiz-adv-x="520" 
d="M144.5 13.5q-43.5 23.5 -64 77.5t-20.5 149v460h90v-460q0 -107 27 -148.5t83 -41.5t83 41.5t27 148.5v460h90v-460q0 -95 -20.5 -149t-64 -77.5t-115.5 -23.5t-115.5 23.5zM268.5 775q-12.5 10 -26.5 28q-8 11 -14 16.5t-13 5.5q-12 0 -18.5 -11.5t-6.5 -33.5h-50
q0 56 19 80.5t61 24.5q19 0 31.5 -10t26.5 -28q8 -11 14 -16.5t13 -5.5q12 0 18.5 11.5t6.5 33.5h50q0 -56 -19 -80.5t-61 -24.5q-19 0 -31.5 10z" />
    <glyph glyph-name="V" unicode="V" horiz-adv-x="490" 
d="M180 0l-160 700h90l133 -605h4l133 605h90l-160 -700h-130z" />
    <glyph glyph-name="W" unicode="W" horiz-adv-x="720" 
d="M135 0l-115 700h90l90 -540h5l110 410h90l110 -410h5l90 540h90l-115 -700h-110l-113 420h-4l-113 -420h-110z" />
    <glyph glyph-name="X" unicode="X" horiz-adv-x="460" 
d="M15 0l150 360l-135 340h90l110 -280l110 280h90l-135 -340l150 -360h-90l-125 300l-125 -300h-90z" />
    <glyph glyph-name="Y" unicode="Y" 
d="M180 0v220l-170 480h90l125 -355l125 355h90l-170 -480v-220h-90z" />
    <glyph glyph-name="Yacute" unicode="&#xdd;" 
d="M190 740l35 130h95l-70 -130h-60zM180 0v220l-170 480h90l125 -355l125 355h90l-170 -480v-220h-90z" />
    <glyph glyph-name="Ydieresis" unicode="&#x178;" 
d="M100 770v110h90v-110h-90zM260 770v110h90v-110h-90zM180 0v220l-170 480h90l125 -355l125 355h90l-170 -480v-220h-90z" />
    <glyph glyph-name="uni1EF4" unicode="&#x1ef4;" 
d="M180 0v220l-170 480h90l125 -355l125 355h90l-170 -480v-220h-90zM188 -156v91h74v-91h-74z" />
    <glyph glyph-name="Ygrave" unicode="&#x1ef2;" 
d="M180 0v220l-170 480h90l125 -355l125 355h90l-170 -480v-220h-90zM188 760l-63 130h95l28 -130h-60z" />
    <glyph glyph-name="uni1EF6" unicode="&#x1ef6;" 
d="M180 0v220l-170 480h90l125 -355l125 355h90l-170 -480v-220h-90zM203.5 775q6.5 10 19.5 23q7 7 12.5 15t5.5 15q0 37 -42 37h-50v47q22 8 57 8q40 0 67 -20t27 -68q0 -13 -7.5 -23.5t-20.5 -21.5q-13 -13 -18.5 -20.5t-5.5 -17.5h-51q0 16 6.5 26z" />
    <glyph glyph-name="uni1EF8" unicode="&#x1ef8;" 
d="M180 0v220l-170 480h90l125 -355l125 355h90l-170 -480v-220h-90zM233.5 775q-12.5 10 -26.5 28q-8 11 -14 16.5t-13 5.5q-12 0 -18.5 -11.5t-6.5 -33.5h-50q0 56 19 80.5t61 24.5q19 0 31.5 -10t26.5 -28q8 -11 14 -16.5t13 -5.5q12 0 18.5 11.5t6.5 33.5h50
q0 -56 -19 -80.5t-61 -24.5q-19 0 -31.5 10z" />
    <glyph glyph-name="Z" unicode="Z" horiz-adv-x="405" 
d="M20 0v65l260 565h-255v70h360v-65l-260 -565h255v-70h-360z" />
    <glyph glyph-name="Zacute" unicode="&#x179;" horiz-adv-x="405" 
d="M170 750l35 130h95l-70 -130h-60zM20 0v65l260 565h-255v70h360v-65l-260 -565h255v-70h-360z" />
    <glyph glyph-name="Zcaron" unicode="&#x17d;" horiz-adv-x="405" 
d="M168 760l-75 130h60l62 -74l63 74h60l-75 -130h-95zM20 0v65l260 565h-255v70h360v-65l-260 -565h255v-70h-360z" />
    <glyph glyph-name="Zdotaccent" unicode="&#x17b;" horiz-adv-x="405" 
d="M160 770v110h90v-110h-90zM20 0v65l260 565h-255v70h360v-65l-260 -565h255v-70h-360z" />
    <glyph glyph-name="a" unicode="a" 
d="M83 24.5q-38 34.5 -38 125.5q0 88 38 121.5t112 33.5q40 0 100 -10v45q0 64 -26.5 87t-83.5 23h-100v40q24 8 58 14t62 6q64 0 102.5 -14t58 -50.5t19.5 -105.5v-340h-75l-5 30h-5q-19 -19 -47 -29.5t-58 -10.5q-74 0 -112 34.5zM263 56q20 6 32 14v175h-70
q-42 0 -66 -21.5t-24 -73.5q0 -56 24 -78t66 -22q18 0 38 6z" />
    <glyph glyph-name="aacute" unicode="&#xe1;" 
d="M195 560l35 130h95l-70 -130h-60zM83 24.5q-38 34.5 -38 125.5q0 88 38 121.5t112 33.5q40 0 100 -10v45q0 64 -26.5 87t-83.5 23h-100v40q24 8 58 14t62 6q64 0 102.5 -14t58 -50.5t19.5 -105.5v-340h-75l-5 30h-5q-19 -19 -47 -29.5t-58 -10.5q-74 0 -112 34.5zM263 56
q20 6 32 14v175h-70q-42 0 -66 -21.5t-24 -73.5q0 -56 24 -78t66 -22q18 0 38 6z" />
    <glyph glyph-name="abreve" unicode="&#x103;" 
d="M83 24.5q-38 34.5 -38 125.5q0 88 38 121.5t112 33.5q40 0 100 -10v45q0 64 -26.5 87t-83.5 23h-100v40q24 8 58 14t62 6q64 0 102.5 -14t58 -50.5t19.5 -105.5v-340h-75l-5 30h-5q-19 -19 -47 -29.5t-58 -10.5q-74 0 -112 34.5zM263 56q20 6 32 14v175h-70
q-42 0 -66 -21.5t-24 -73.5q0 -56 24 -78t66 -22q18 0 38 6zM144 589q-34 19 -54 51l40 40q17 -17 42 -28.5t53 -11.5t53 11.5t42 28.5l40 -40q-20 -32 -54 -51t-81 -19t-81 19z" />
    <glyph glyph-name="uni1EAF" unicode="&#x1eaf;" 
d="M83 24.5q-38 34.5 -38 125.5q0 88 38 121.5t112 33.5q40 0 100 -10v45q0 64 -26.5 87t-83.5 23h-100v40q24 8 58 14t62 6q64 0 102.5 -14t58 -50.5t19.5 -105.5v-340h-75l-5 30h-5q-19 -19 -47 -29.5t-58 -10.5q-74 0 -112 34.5zM263 56q20 6 32 14v175h-70
q-42 0 -66 -21.5t-24 -73.5q0 -56 24 -78t66 -22q18 0 38 6zM144 589q-34 19 -54 51l40 40q17 -17 42 -28.5t53 -11.5t53 11.5t42 28.5l40 -40q-20 -32 -54 -51t-81 -19t-81 19zM195 693l35 130h95l-70 -130h-60z" />
    <glyph glyph-name="uni1EB7" unicode="&#x1eb7;" 
d="M83 24.5q-38 34.5 -38 125.5q0 88 38 121.5t112 33.5q40 0 100 -10v45q0 64 -26.5 87t-83.5 23h-100v40q24 8 58 14t62 6q64 0 102.5 -14t58 -50.5t19.5 -105.5v-340h-75l-5 30h-5q-19 -19 -47 -29.5t-58 -10.5q-74 0 -112 34.5zM263 56q20 6 32 14v175h-70
q-42 0 -66 -21.5t-24 -73.5q0 -56 24 -78t66 -22q18 0 38 6zM188 -156v91h74v-91h-74zM144 589q-34 19 -54 51l40 40q17 -17 42 -28.5t53 -11.5t53 11.5t42 28.5l40 -40q-20 -32 -54 -51t-81 -19t-81 19z" />
    <glyph glyph-name="uni1EB1" unicode="&#x1eb1;" 
d="M83 24.5q-38 34.5 -38 125.5q0 88 38 121.5t112 33.5q40 0 100 -10v45q0 64 -26.5 87t-83.5 23h-100v40q24 8 58 14t62 6q64 0 102.5 -14t58 -50.5t19.5 -105.5v-340h-75l-5 30h-5q-19 -19 -47 -29.5t-58 -10.5q-74 0 -112 34.5zM263 56q20 6 32 14v175h-70
q-42 0 -66 -21.5t-24 -73.5q0 -56 24 -78t66 -22q18 0 38 6zM144 589q-34 19 -54 51l40 40q17 -17 42 -28.5t53 -11.5t53 11.5t42 28.5l40 -40q-20 -32 -54 -51t-81 -19t-81 19zM199 689l-63 130h95l28 -130h-60z" />
    <glyph glyph-name="uni1EB3" unicode="&#x1eb3;" 
d="M83 24.5q-38 34.5 -38 125.5q0 88 38 121.5t112 33.5q40 0 100 -10v45q0 64 -26.5 87t-83.5 23h-100v40q24 8 58 14t62 6q64 0 102.5 -14t58 -50.5t19.5 -105.5v-340h-75l-5 30h-5q-19 -19 -47 -29.5t-58 -10.5q-74 0 -112 34.5zM263 56q20 6 32 14v175h-70
q-42 0 -66 -21.5t-24 -73.5q0 -56 24 -78t66 -22q18 0 38 6zM144 589q-34 19 -54 51l40 40q17 -17 42 -28.5t53 -11.5t53 11.5t42 28.5l40 -40q-20 -32 -54 -51t-81 -19t-81 19zM191.5 712q6.5 10 19.5 23q7 7 12.5 15t5.5 15q0 37 -42 37h-50v47q22 8 57 8q40 0 67 -20
t27 -68q0 -13 -7.5 -23.5t-20.5 -21.5q-13 -13 -18.5 -20.5t-5.5 -17.5h-51q0 16 6.5 26z" />
    <glyph glyph-name="uni1EB5" unicode="&#x1eb5;" 
d="M83 24.5q-38 34.5 -38 125.5q0 88 38 121.5t112 33.5q40 0 100 -10v45q0 64 -26.5 87t-83.5 23h-100v40q24 8 58 14t62 6q64 0 102.5 -14t58 -50.5t19.5 -105.5v-340h-75l-5 30h-5q-19 -19 -47 -29.5t-58 -10.5q-74 0 -112 34.5zM263 56q20 6 32 14v175h-70
q-42 0 -66 -21.5t-24 -73.5q0 -56 24 -78t66 -22q18 0 38 6zM144 589q-34 19 -54 51l40 40q17 -17 42 -28.5t53 -11.5t53 11.5t42 28.5l40 -40q-20 -32 -54 -51t-81 -19t-81 19zM233.5 718q-12.5 10 -26.5 28q-8 11 -14 16.5t-13 5.5q-12 0 -18.5 -11.5t-6.5 -33.5h-50
q0 56 19 80.5t61 24.5q19 0 31.5 -10t26.5 -28q8 -11 14 -16.5t13 -5.5q12 0 18.5 11.5t6.5 33.5h50q0 -56 -19 -80.5t-61 -24.5q-19 0 -31.5 10z" />
    <glyph glyph-name="acircumflex" unicode="&#xe2;" 
d="M110 550l75 130h95l75 -130h-60l-63 74l-62 -74h-60zM83 24.5q-38 34.5 -38 125.5q0 88 38 121.5t112 33.5q40 0 100 -10v45q0 64 -26.5 87t-83.5 23h-100v40q24 8 58 14t62 6q64 0 102.5 -14t58 -50.5t19.5 -105.5v-340h-75l-5 30h-5q-19 -19 -47 -29.5t-58 -10.5
q-74 0 -112 34.5zM263 56q20 6 32 14v175h-70q-42 0 -66 -21.5t-24 -73.5q0 -56 24 -78t66 -22q18 0 38 6z" />
    <glyph glyph-name="uni1EA5" unicode="&#x1ea5;" 
d="M83 24.5q-38 34.5 -38 125.5q0 88 38 121.5t112 33.5q40 0 100 -10v45q0 64 -26.5 87t-83.5 23h-100v40q24 8 58 14t62 6q64 0 102.5 -14t58 -50.5t19.5 -105.5v-340h-75l-5 30h-5q-19 -19 -47 -29.5t-58 -10.5q-74 0 -112 34.5zM263 56q20 6 32 14v175h-70
q-42 0 -66 -21.5t-24 -73.5q0 -56 24 -78t66 -22q18 0 38 6zM102 550l75 130h95l75 -130h-60l-63 74l-62 -74h-60zM332 628l35 130h95l-70 -130h-60z" />
    <glyph glyph-name="uni1EAD" unicode="&#x1ead;" 
d="M83 24.5q-38 34.5 -38 125.5q0 88 38 121.5t112 33.5q40 0 100 -10v45q0 64 -26.5 87t-83.5 23h-100v40q24 8 58 14t62 6q64 0 102.5 -14t58 -50.5t19.5 -105.5v-340h-75l-5 30h-5q-19 -19 -47 -29.5t-58 -10.5q-74 0 -112 34.5zM263 56q20 6 32 14v175h-70
q-42 0 -66 -21.5t-24 -73.5q0 -56 24 -78t66 -22q18 0 38 6zM188 -156v91h74v-91h-74zM102 550l75 130h95l75 -130h-60l-63 74l-62 -74h-60z" />
    <glyph glyph-name="uni1EA7" unicode="&#x1ea7;" 
d="M83 24.5q-38 34.5 -38 125.5q0 88 38 121.5t112 33.5q40 0 100 -10v45q0 64 -26.5 87t-83.5 23h-100v40q24 8 58 14t62 6q64 0 102.5 -14t58 -50.5t19.5 -105.5v-340h-75l-5 30h-5q-19 -19 -47 -29.5t-58 -10.5q-74 0 -112 34.5zM263 56q20 6 32 14v175h-70
q-42 0 -66 -21.5t-24 -73.5q0 -56 24 -78t66 -22q18 0 38 6zM102 550l75 130h95l75 -130h-60l-63 74l-62 -74h-60zM346 647l-63 130h95l28 -130h-60z" />
    <glyph glyph-name="uni1EA9" unicode="&#x1ea9;" 
d="M83 24.5q-38 34.5 -38 125.5q0 88 38 121.5t112 33.5q40 0 100 -10v45q0 64 -26.5 87t-83.5 23h-100v40q24 8 58 14t62 6q64 0 102.5 -14t58 -50.5t19.5 -105.5v-340h-75l-5 30h-5q-19 -19 -47 -29.5t-58 -10.5q-74 0 -112 34.5zM263 56q20 6 32 14v175h-70
q-42 0 -66 -21.5t-24 -73.5q0 -56 24 -78t66 -22q18 0 38 6zM102 550l75 130h95l75 -130h-60l-63 74l-62 -74h-60zM343.5 641q6.5 10 19.5 23q7 7 12.5 15t5.5 15q0 37 -42 37h-50v47q22 8 57 8q40 0 67 -20t27 -68q0 -13 -7.5 -23.5t-20.5 -21.5q-13 -13 -18.5 -20.5
t-5.5 -17.5h-51q0 16 6.5 26z" />
    <glyph glyph-name="uni1EAB" unicode="&#x1eab;" 
d="M83 24.5q-38 34.5 -38 125.5q0 88 38 121.5t112 33.5q40 0 100 -10v45q0 64 -26.5 87t-83.5 23h-100v40q24 8 58 14t62 6q64 0 102.5 -14t58 -50.5t19.5 -105.5v-340h-75l-5 30h-5q-19 -19 -47 -29.5t-58 -10.5q-74 0 -112 34.5zM263 56q20 6 32 14v175h-70
q-42 0 -66 -21.5t-24 -73.5q0 -56 24 -78t66 -22q18 0 38 6zM102 550l75 130h95l75 -130h-60l-63 74l-62 -74h-60zM233.5 721q-12.5 10 -26.5 28q-8 11 -14 16.5t-13 5.5q-12 0 -18.5 -11.5t-6.5 -33.5h-50q0 56 19 80.5t61 24.5q19 0 31.5 -10t26.5 -28q8 -11 14 -16.5
t13 -5.5q12 0 18.5 11.5t6.5 33.5h50q0 -56 -19 -80.5t-61 -24.5q-19 0 -31.5 10z" />
    <glyph glyph-name="adieresis" unicode="&#xe4;" 
d="M105 570v110h90v-110h-90zM265 570v110h90v-110h-90zM83 24.5q-38 34.5 -38 125.5q0 88 38 121.5t112 33.5q40 0 100 -10v45q0 64 -26.5 87t-83.5 23h-100v40q24 8 58 14t62 6q64 0 102.5 -14t58 -50.5t19.5 -105.5v-340h-75l-5 30h-5q-19 -19 -47 -29.5t-58 -10.5
q-74 0 -112 34.5zM263 56q20 6 32 14v175h-70q-42 0 -66 -21.5t-24 -73.5q0 -56 24 -78t66 -22q18 0 38 6z" />
    <glyph glyph-name="uni1EA1" unicode="&#x1ea1;" 
d="M83 24.5q-38 34.5 -38 125.5q0 88 38 121.5t112 33.5q40 0 100 -10v45q0 64 -26.5 87t-83.5 23h-100v40q24 8 58 14t62 6q64 0 102.5 -14t58 -50.5t19.5 -105.5v-340h-75l-5 30h-5q-19 -19 -47 -29.5t-58 -10.5q-74 0 -112 34.5zM263 56q20 6 32 14v175h-70
q-42 0 -66 -21.5t-24 -73.5q0 -56 24 -78t66 -22q18 0 38 6zM188 -156v91h74v-91h-74z" />
    <glyph glyph-name="agrave" unicode="&#xe0;" 
d="M215 560l-70 130h95l35 -130h-60zM83 24.5q-38 34.5 -38 125.5q0 88 38 121.5t112 33.5q40 0 100 -10v45q0 64 -26.5 87t-83.5 23h-100v40q24 8 58 14t62 6q64 0 102.5 -14t58 -50.5t19.5 -105.5v-340h-75l-5 30h-5q-19 -19 -47 -29.5t-58 -10.5q-74 0 -112 34.5zM263 56
q20 6 32 14v175h-70q-42 0 -66 -21.5t-24 -73.5q0 -56 24 -78t66 -22q18 0 38 6z" />
    <glyph glyph-name="uni1EA3" unicode="&#x1ea3;" 
d="M83 24.5q-38 34.5 -38 125.5q0 88 38 121.5t112 33.5q40 0 100 -10v45q0 64 -26.5 87t-83.5 23h-100v40q24 8 58 14t62 6q64 0 102.5 -14t58 -50.5t19.5 -105.5v-340h-75l-5 30h-5q-19 -19 -47 -29.5t-58 -10.5q-74 0 -112 34.5zM263 56q20 6 32 14v175h-70
q-42 0 -66 -21.5t-24 -73.5q0 -56 24 -78t66 -22q18 0 38 6zM203.5 575q6.5 10 19.5 23q7 7 12.5 15t5.5 15q0 37 -42 37h-50v47q22 8 57 8q40 0 67 -20t27 -68q0 -13 -7.5 -23.5t-20.5 -21.5q-13 -13 -18.5 -20.5t-5.5 -17.5h-51q0 16 6.5 26z" />
    <glyph glyph-name="amacron" unicode="&#x101;" 
d="M120 580v60h230v-60h-230zM83 24.5q-38 34.5 -38 125.5q0 88 38 121.5t112 33.5q40 0 100 -10v45q0 64 -26.5 87t-83.5 23h-100v40q24 8 58 14t62 6q64 0 102.5 -14t58 -50.5t19.5 -105.5v-340h-75l-5 30h-5q-19 -19 -47 -29.5t-58 -10.5q-74 0 -112 34.5zM263 56
q20 6 32 14v175h-70q-42 0 -66 -21.5t-24 -73.5q0 -56 24 -78t66 -22q18 0 38 6z" />
    <glyph glyph-name="aogonek" unicode="&#x105;" 
d="M317 -139q-22 21 -22 59q0 20 5.5 38t11.5 28.5t8 13.5h-10l-5 30h-5q-19 -19 -47 -29.5t-58 -10.5q-74 0 -112 34.5t-38 125.5q0 88 38 121.5t112 33.5q40 0 100 -10v45q0 64 -26.5 87t-83.5 23h-100v40q24 8 58 14t62 6q64 0 102.5 -14t58 -50.5t19.5 -105.5v-340h-25
v-45q0 -34 13 -46.5t47 -12.5h35v-41q-2 -1 -12 -4.5t-26.5 -7t-36.5 -3.5q-41 0 -63 21zM263 56q20 6 32 14v175h-70q-42 0 -66 -21.5t-24 -73.5q0 -56 24 -78t66 -22q18 0 38 6z" />
    <glyph glyph-name="aring" unicode="&#xe5;" 
d="M168.5 561.5q-23.5 21.5 -23.5 58.5t23.5 58.5t61.5 21.5t61.5 -21.5t23.5 -58.5t-23.5 -58.5t-61.5 -21.5t-61.5 21.5zM255.5 593.5q9.5 8.5 9.5 26.5t-9.5 26.5t-25.5 8.5t-25.5 -8.5t-9.5 -26.5t9.5 -26.5t25.5 -8.5t25.5 8.5zM83 24.5q-38 34.5 -38 125.5
q0 88 38 121.5t112 33.5q40 0 100 -10v45q0 64 -26.5 87t-83.5 23h-100v40q24 8 58 14t62 6q64 0 102.5 -14t58 -50.5t19.5 -105.5v-340h-75l-5 30h-5q-19 -19 -47 -29.5t-58 -10.5q-74 0 -112 34.5zM263 56q20 6 32 14v175h-70q-42 0 -66 -21.5t-24 -73.5q0 -56 24 -78
t66 -22q18 0 38 6z" />
    <glyph glyph-name="atilde" unicode="&#xe3;" 
d="M83 24.5q-38 34.5 -38 125.5q0 88 38 121.5t112 33.5q40 0 100 -10v45q0 64 -26.5 87t-83.5 23h-100v40q24 8 58 14t62 6q64 0 102.5 -14t58 -50.5t19.5 -105.5v-340h-75l-5 30h-5q-19 -19 -47 -29.5t-58 -10.5q-74 0 -112 34.5zM263 56q20 6 32 14v175h-70
q-42 0 -66 -21.5t-24 -73.5q0 -56 24 -78t66 -22q18 0 38 6zM233.5 575q-12.5 10 -26.5 28q-8 11 -14 16.5t-13 5.5q-12 0 -18.5 -11.5t-6.5 -33.5h-50q0 56 19 80.5t61 24.5q19 0 31.5 -10t26.5 -28q8 -11 14 -16.5t13 -5.5q12 0 18.5 11.5t6.5 33.5h50q0 -56 -19 -80.5
t-61 -24.5q-19 0 -31.5 10z" />
    <glyph glyph-name="ae" unicode="&#xe6;" horiz-adv-x="690" 
d="M83 22.5q-38 32.5 -38 117.5q0 81 38.5 113t111.5 32q40 0 100 -10v65q0 64 -26.5 87t-83.5 23h-100v40q24 8 58 14t62 6q46 0 84 -18.5t56 -51.5q19 34 51.5 52t73.5 18q60 0 98 -23.5t57.5 -79.5t19.5 -152v-30h-260v-15q1 -61 15.5 -95.5t44.5 -49.5t80 -15h100v-40
q-24 -8 -58 -14t-62 -6q-60 0 -97 16t-63 54q-47 -70 -150 -70q-74 0 -112 32.5zM555 285q0 91 -23.5 130.5t-61.5 39.5q-37 0 -60.5 -38t-24.5 -127v-5h170zM255 56.5q18 6.5 28 14t12 9.5v145h-70q-90 0 -90 -85q0 -48 22.5 -69t57.5 -21q22 0 40 6.5z" />
    <glyph glyph-name="b" unicode="b" horiz-adv-x="470" 
d="M70 20v680h90v-215q50 25 100 25q83 0 124 -58t41 -202q0 -99 -20.5 -155.5t-62.5 -80.5t-112 -24q-85 0 -160 30zM230 50q53 0 79 43.5t26 156.5t-26 156.5t-79 43.5q-18 0 -38 -6t-32 -14v-380h70z" />
    <glyph glyph-name="c" unicode="c" horiz-adv-x="375" 
d="M128 14q-42 24 -62.5 80.5t-20.5 155.5t20 155.5t60 80.5t105 24q28 0 62 -6t58 -14v-40h-100q-40 0 -64.5 -17.5t-37.5 -61t-13 -121.5q0 -79 13.5 -122.5t40 -60.5t71.5 -17h100v-40q-24 -8 -58 -14t-62 -6q-70 0 -112 24z" />
    <glyph glyph-name="cacute" unicode="&#x107;" horiz-adv-x="375" 
d="M190 560l35 130h95l-70 -130h-60zM128 14q-42 24 -62.5 80.5t-20.5 155.5t20 155.5t60 80.5t105 24q28 0 62 -6t58 -14v-40h-100q-40 0 -64.5 -17.5t-37.5 -61t-13 -121.5q0 -79 13.5 -122.5t40 -60.5t71.5 -17h100v-40q-24 -8 -58 -14t-62 -6q-70 0 -112 24z" />
    <glyph glyph-name="ccaron" unicode="&#x10d;" horiz-adv-x="375" 
d="M170 560l-75 130h60l62 -74l63 74h60l-75 -130h-95zM128 14q-42 24 -62.5 80.5t-20.5 155.5t20 155.5t60 80.5t105 24q28 0 62 -6t58 -14v-40h-100q-40 0 -64.5 -17.5t-37.5 -61t-13 -121.5q0 -79 13.5 -122.5t40 -60.5t71.5 -17h100v-40q-24 -8 -58 -14t-62 -6
q-70 0 -112 24z" />
    <glyph glyph-name="ccedilla" unicode="&#xe7;" horiz-adv-x="375" 
d="M198.5 -161.5q-16.5 3.5 -26.5 7t-12 4.5v30h65q40 0 40 25q0 12 -7.5 18.5t-22.5 6.5h-55v66q-71 13 -103 71.5t-32 182.5q0 99 20 155.5t60 80.5t105 24q28 0 62 -6t58 -14v-40h-100q-40 0 -64.5 -17.5t-37.5 -61t-13 -121.5q0 -79 13.5 -122.5t40 -60.5t71.5 -17h100
v-40q-24 -8 -58 -14t-62 -6h-10v-15h15q40 0 62.5 -19.5t22.5 -50.5q0 -32 -24 -51t-71 -19q-20 0 -36.5 3.5z" />
    <glyph glyph-name="d" unicode="d" horiz-adv-x="470" 
d="M86 48q-41 58 -41 202t41 202t124 58q50 0 100 -25v215h90v-700h-75l-5 30h-5q-19 -19 -47 -29.5t-58 -10.5q-83 0 -124 58zM278 56q20 6 32 14v360q-12 8 -32 14t-38 6q-53 0 -79 -43.5t-26 -156.5t26 -156.5t79 -43.5q18 0 38 6z" />
    <glyph glyph-name="eth" unicode="&#xf0;" horiz-adv-x="455" 
d="M84.5 42q-44.5 52 -44.5 173t43 173t132 52q32 0 56 -6.5t49 -18.5q0 75 -35 130l-50 -60l-45 35l58 69q-62 54 -173 81l5 40q131 -12 211 -69l54 64l45 -35l-57 -67q77 -86 77 -243v-145q0 -121 -44.5 -173t-140.5 -52t-140.5 52zM295 84q25 39 25 131v145q-12 8 -33 14
t-42 6q-59 0 -87 -37t-28 -128q0 -92 25 -131t70 -39t70 39z" />
    <glyph glyph-name="dcroat" unicode="&#x111;" horiz-adv-x="470" 
d="M445 596q-14 -5 -45 -12v-584h-75l-5 30h-5q-19 -19 -47 -29.5t-58 -10.5q-83 0 -124 58t-41 202t41 202t124 58q50 0 100 -25v91h-155v65h155v59h90v-59h45v-45zM310 430q-12 8 -32 14t-38 6q-53 0 -79 -43.5t-26 -156.5t26 -156.5t79 -43.5q18 0 38 6t32 14v360z" />
    <glyph glyph-name="e" unicode="e" horiz-adv-x="440" 
d="M132.5 13.5q-45.5 23.5 -66.5 80t-21 156.5q0 98 19.5 155t57.5 81t98 24t98 -24t57.5 -81t19.5 -155v-30h-260q0 -65 14 -102t44.5 -52.5t81.5 -15.5h100v-40q-24 -8 -58 -14t-62 -6q-77 0 -122.5 23.5zM305 280q0 94 -23.5 134.5t-61.5 40.5t-61.5 -40.5t-23.5 -134.5
h170z" />
    <glyph glyph-name="eacute" unicode="&#xe9;" horiz-adv-x="440" 
d="M185 560l35 130h95l-70 -130h-60zM132.5 13.5q-45.5 23.5 -66.5 80t-21 156.5q0 98 19.5 155t57.5 81t98 24t98 -24t57.5 -81t19.5 -155v-30h-260q0 -65 14 -102t44.5 -52.5t81.5 -15.5h100v-40q-24 -8 -58 -14t-62 -6q-77 0 -122.5 23.5zM305 280q0 94 -23.5 134.5
t-61.5 40.5t-61.5 -40.5t-23.5 -134.5h170z" />
    <glyph glyph-name="ecircumflex" unicode="&#xea;" horiz-adv-x="440" 
d="M100 550l75 130h95l75 -130h-60l-63 74l-62 -74h-60zM132.5 13.5q-45.5 23.5 -66.5 80t-21 156.5q0 98 19.5 155t57.5 81t98 24t98 -24t57.5 -81t19.5 -155v-30h-260q0 -65 14 -102t44.5 -52.5t81.5 -15.5h100v-40q-24 -8 -58 -14t-62 -6q-77 0 -122.5 23.5zM305 280
q0 94 -23.5 134.5t-61.5 40.5t-61.5 -40.5t-23.5 -134.5h170z" />
    <glyph glyph-name="uni1EBF" unicode="&#x1ebf;" horiz-adv-x="440" 
d="M132.5 13.5q-45.5 23.5 -66.5 80t-21 156.5q0 98 19.5 155t57.5 81t98 24t98 -24t57.5 -81t19.5 -155v-30h-260q0 -65 14 -102t44.5 -52.5t81.5 -15.5h100v-40q-24 -8 -58 -14t-62 -6q-77 0 -122.5 23.5zM305 280q0 94 -23.5 134.5t-61.5 40.5t-61.5 -40.5t-23.5 -134.5
h170zM97 550l75 130h95l75 -130h-60l-63 74l-62 -74h-60zM327 628l35 130h95l-70 -130h-60z" />
    <glyph glyph-name="uni1EC7" unicode="&#x1ec7;" horiz-adv-x="440" 
d="M132.5 13.5q-45.5 23.5 -66.5 80t-21 156.5q0 98 19.5 155t57.5 81t98 24t98 -24t57.5 -81t19.5 -155v-30h-260q0 -65 14 -102t44.5 -52.5t81.5 -15.5h100v-40q-24 -8 -58 -14t-62 -6q-77 0 -122.5 23.5zM305 280q0 94 -23.5 134.5t-61.5 40.5t-61.5 -40.5t-23.5 -134.5
h170zM183 -156v91h74v-91h-74zM97 550l75 130h95l75 -130h-60l-63 74l-62 -74h-60z" />
    <glyph glyph-name="uni1EC1" unicode="&#x1ec1;" horiz-adv-x="440" 
d="M132.5 13.5q-45.5 23.5 -66.5 80t-21 156.5q0 98 19.5 155t57.5 81t98 24t98 -24t57.5 -81t19.5 -155v-30h-260q0 -65 14 -102t44.5 -52.5t81.5 -15.5h100v-40q-24 -8 -58 -14t-62 -6q-77 0 -122.5 23.5zM305 280q0 94 -23.5 134.5t-61.5 40.5t-61.5 -40.5t-23.5 -134.5
h170zM97 550l75 130h95l75 -130h-60l-63 74l-62 -74h-60zM341 647l-63 130h95l28 -130h-60z" />
    <glyph glyph-name="uni1EC3" unicode="&#x1ec3;" horiz-adv-x="440" 
d="M132.5 13.5q-45.5 23.5 -66.5 80t-21 156.5q0 98 19.5 155t57.5 81t98 24t98 -24t57.5 -81t19.5 -155v-30h-260q0 -65 14 -102t44.5 -52.5t81.5 -15.5h100v-40q-24 -8 -58 -14t-62 -6q-77 0 -122.5 23.5zM305 280q0 94 -23.5 134.5t-61.5 40.5t-61.5 -40.5t-23.5 -134.5
h170zM97 550l75 130h95l75 -130h-60l-63 74l-62 -74h-60zM338.5 641q6.5 10 19.5 23q7 7 12.5 15t5.5 15q0 37 -42 37h-50v47q22 8 57 8q40 0 67 -20t27 -68q0 -13 -7.5 -23.5t-20.5 -21.5q-13 -13 -18.5 -20.5t-5.5 -17.5h-51q0 16 6.5 26z" />
    <glyph glyph-name="uni1EC5" unicode="&#x1ec5;" horiz-adv-x="440" 
d="M132.5 13.5q-45.5 23.5 -66.5 80t-21 156.5q0 98 19.5 155t57.5 81t98 24t98 -24t57.5 -81t19.5 -155v-30h-260q0 -65 14 -102t44.5 -52.5t81.5 -15.5h100v-40q-24 -8 -58 -14t-62 -6q-77 0 -122.5 23.5zM305 280q0 94 -23.5 134.5t-61.5 40.5t-61.5 -40.5t-23.5 -134.5
h170zM97 550l75 130h95l75 -130h-60l-63 74l-62 -74h-60zM228.5 721q-12.5 10 -26.5 28q-8 11 -14 16.5t-13 5.5q-12 0 -18.5 -11.5t-6.5 -33.5h-50q0 56 19 80.5t61 24.5q19 0 31.5 -10t26.5 -28q8 -11 14 -16.5t13 -5.5q12 0 18.5 11.5t6.5 33.5h50q0 -56 -19 -80.5
t-61 -24.5q-19 0 -31.5 10z" />
    <glyph glyph-name="edieresis" unicode="&#xeb;" horiz-adv-x="440" 
d="M95 570v110h90v-110h-90zM255 570v110h90v-110h-90zM132.5 13.5q-45.5 23.5 -66.5 80t-21 156.5q0 98 19.5 155t57.5 81t98 24t98 -24t57.5 -81t19.5 -155v-30h-260q0 -65 14 -102t44.5 -52.5t81.5 -15.5h100v-40q-24 -8 -58 -14t-62 -6q-77 0 -122.5 23.5zM305 280
q0 94 -23.5 134.5t-61.5 40.5t-61.5 -40.5t-23.5 -134.5h170z" />
    <glyph glyph-name="edotaccent" unicode="&#x117;" horiz-adv-x="440" 
d="M175 570v110h90v-110h-90zM132.5 13.5q-45.5 23.5 -66.5 80t-21 156.5q0 98 19.5 155t57.5 81t98 24t98 -24t57.5 -81t19.5 -155v-30h-260q0 -65 14 -102t44.5 -52.5t81.5 -15.5h100v-40q-24 -8 -58 -14t-62 -6q-77 0 -122.5 23.5zM305 280q0 94 -23.5 134.5t-61.5 40.5
t-61.5 -40.5t-23.5 -134.5h170z" />
    <glyph glyph-name="uni1EB9" unicode="&#x1eb9;" horiz-adv-x="440" 
d="M132.5 13.5q-45.5 23.5 -66.5 80t-21 156.5q0 98 19.5 155t57.5 81t98 24t98 -24t57.5 -81t19.5 -155v-30h-260q0 -65 14 -102t44.5 -52.5t81.5 -15.5h100v-40q-24 -8 -58 -14t-62 -6q-77 0 -122.5 23.5zM305 280q0 94 -23.5 134.5t-61.5 40.5t-61.5 -40.5t-23.5 -134.5
h170zM183 -156v91h74v-91h-74z" />
    <glyph glyph-name="egrave" unicode="&#xe8;" horiz-adv-x="440" 
d="M195 560l-70 130h95l35 -130h-60zM132.5 13.5q-45.5 23.5 -66.5 80t-21 156.5q0 98 19.5 155t57.5 81t98 24t98 -24t57.5 -81t19.5 -155v-30h-260q0 -65 14 -102t44.5 -52.5t81.5 -15.5h100v-40q-24 -8 -58 -14t-62 -6q-77 0 -122.5 23.5zM305 280q0 94 -23.5 134.5
t-61.5 40.5t-61.5 -40.5t-23.5 -134.5h170z" />
    <glyph glyph-name="uni1EBB" unicode="&#x1ebb;" horiz-adv-x="440" 
d="M132.5 13.5q-45.5 23.5 -66.5 80t-21 156.5q0 98 19.5 155t57.5 81t98 24t98 -24t57.5 -81t19.5 -155v-30h-260q0 -65 14 -102t44.5 -52.5t81.5 -15.5h100v-40q-24 -8 -58 -14t-62 -6q-77 0 -122.5 23.5zM305 280q0 94 -23.5 134.5t-61.5 40.5t-61.5 -40.5t-23.5 -134.5
h170zM198.5 575q6.5 10 19.5 23q7 7 12.5 15t5.5 15q0 37 -42 37h-50v47q22 8 57 8q40 0 67 -20t27 -68q0 -13 -7.5 -23.5t-20.5 -21.5q-13 -13 -18.5 -20.5t-5.5 -17.5h-51q0 16 6.5 26z" />
    <glyph glyph-name="emacron" unicode="&#x113;" horiz-adv-x="440" 
d="M110 580v60h230v-60h-230zM132.5 13.5q-45.5 23.5 -66.5 80t-21 156.5q0 98 19.5 155t57.5 81t98 24t98 -24t57.5 -81t19.5 -155v-30h-260q0 -65 14 -102t44.5 -52.5t81.5 -15.5h100v-40q-24 -8 -58 -14t-62 -6q-77 0 -122.5 23.5zM305 280q0 94 -23.5 134.5t-61.5 40.5
t-61.5 -40.5t-23.5 -134.5h170z" />
    <glyph glyph-name="eogonek" unicode="&#x119;" horiz-adv-x="440" 
d="M212 -139q-22 21 -22 59q0 36 20 73q-60 6 -95.5 32.5t-52.5 80.5t-17 144q0 98 19.5 155t57.5 81t98 24t98 -24t57.5 -81t19.5 -155v-30h-260q0 -65 14 -102t44.5 -52.5t81.5 -15.5h100v-40q-24 -8 -58 -14t-62 -6v-35q0 -34 13 -46.5t47 -12.5h35v-41q-2 -1 -12 -4.5
t-26.5 -7t-36.5 -3.5q-41 0 -63 21zM305 280q0 94 -23.5 134.5t-61.5 40.5t-61.5 -40.5t-23.5 -134.5h170z" />
    <glyph glyph-name="uni1EBD" unicode="&#x1ebd;" horiz-adv-x="440" 
d="M132.5 13.5q-45.5 23.5 -66.5 80t-21 156.5q0 98 19.5 155t57.5 81t98 24t98 -24t57.5 -81t19.5 -155v-30h-260q0 -65 14 -102t44.5 -52.5t81.5 -15.5h100v-40q-24 -8 -58 -14t-62 -6q-77 0 -122.5 23.5zM305 280q0 94 -23.5 134.5t-61.5 40.5t-61.5 -40.5t-23.5 -134.5
h170zM228.5 575q-12.5 10 -26.5 28q-8 11 -14 16.5t-13 5.5q-12 0 -18.5 -11.5t-6.5 -33.5h-50q0 56 19 80.5t61 24.5q19 0 31.5 -10t26.5 -28q8 -11 14 -16.5t13 -5.5q12 0 18.5 11.5t6.5 33.5h50q0 -56 -19 -80.5t-61 -24.5q-19 0 -31.5 10z" />
    <glyph glyph-name="f" unicode="f" horiz-adv-x="320" 
d="M80 425h-60v65h60v40q0 98 36.5 134t103.5 36q23 0 57 -6t53 -14v-40h-90q-28 0 -49 -24.5t-21 -85.5v-40h140v-45q-24 -8 -58 -14t-62 -6h-20v-425h-90v425z" />
    <glyph glyph-name="g" unicode="g" horiz-adv-x="465" 
d="M138 -204q-34 6 -58 14v40h100q69 0 99.5 36.5t30.5 128.5q-50 -25 -100 -25q-83 0 -124 58t-41 202q0 99 20.5 155.5t62.5 80.5t112 24q85 0 160 -30v-440q0 -95 -20.5 -149t-64 -77.5t-115.5 -23.5q-28 0 -62 6zM278 56q20 6 32 14v380h-70q-53 0 -79 -43.5t-26 -156.5
t26 -156.5t79 -43.5q18 0 38 6z" />
    <glyph glyph-name="gbreve" unicode="&#x11f;" horiz-adv-x="465" 
d="M149.5 589q-34.5 19 -54.5 51l40 40q17 -17 42 -28.5t53 -11.5t53 11.5t42 28.5l40 -40q-20 -32 -54.5 -51t-80.5 -19t-80.5 19zM138 -204q-34 6 -58 14v40h100q69 0 99.5 36.5t30.5 128.5q-50 -25 -100 -25q-83 0 -124 58t-41 202q0 99 20.5 155.5t62.5 80.5t112 24
q85 0 160 -30v-440q0 -95 -20.5 -149t-64 -77.5t-115.5 -23.5q-28 0 -62 6zM278 56q20 6 32 14v380h-70q-53 0 -79 -43.5t-26 -156.5t26 -156.5t79 -43.5q18 0 38 6z" />
    <glyph glyph-name="gcommaaccent" unicode="&#x123;" horiz-adv-x="465" 
d="M190 570l30 150h60v-150h-90zM138 -204q-34 6 -58 14v40h100q69 0 99.5 36.5t30.5 128.5q-50 -25 -100 -25q-83 0 -124 58t-41 202q0 99 20.5 155.5t62.5 80.5t112 24q85 0 160 -30v-440q0 -95 -20.5 -149t-64 -77.5t-115.5 -23.5q-28 0 -62 6zM278 56q20 6 32 14v380
h-70q-53 0 -79 -43.5t-26 -156.5t26 -156.5t79 -43.5q18 0 38 6z" />
    <glyph glyph-name="h" unicode="h" horiz-adv-x="480" 
d="M70 700h90v-215q50 25 110 25q70 0 107.5 -33t37.5 -117v-360h-90v360q0 49 -25 69.5t-70 20.5q-18 0 -38 -6t-32 -14v-430h-90v700z" />
    <glyph glyph-name="hbar" unicode="&#x127;" horiz-adv-x="490" 
d="M80 545h-60v65h60v90h90v-90h140v-45q-24 -8 -58 -14t-62 -6h-20v-90q50 25 110 25q70 0 107.5 -33t37.5 -117v-330h-90v330q0 49 -25 69.5t-70 20.5q-18 0 -38 -6t-32 -14v-400h-90v545z" />
    <glyph glyph-name="i" unicode="i" horiz-adv-x="230" 
d="M70 570v110h90v-110h-90zM70 0v500h90v-500h-90z" />
    <glyph glyph-name="dotlessi" unicode="&#x131;" horiz-adv-x="230" 
d="M70 0v500h90v-500h-90z" />
    <glyph glyph-name="iacute" unicode="&#xed;" horiz-adv-x="230" 
d="M85 560l35 130h95l-70 -130h-60zM70 0v500h90v-500h-90z" />
    <glyph glyph-name="icircumflex" unicode="&#xee;" horiz-adv-x="215" 
d="M-15 550l75 130h95l75 -130h-60l-63 74l-62 -74h-60zM63 0v500h90v-500h-90z" />
    <glyph glyph-name="idieresis" unicode="&#xef;" horiz-adv-x="230" 
d="M-10 570v110h90v-110h-90zM150 570v110h90v-110h-90zM70 0v500h90v-500h-90z" />
    <glyph glyph-name="uni1ECB" unicode="&#x1ecb;" horiz-adv-x="230" 
d="M70 570v110h90v-110h-90zM70 0v500h90v-500h-90zM78 -156v91h74v-91h-74z" />
    <glyph glyph-name="igrave" unicode="&#xec;" horiz-adv-x="230" 
d="M85 560l-70 130h95l35 -130h-60zM70 0v500h90v-500h-90z" />
    <glyph glyph-name="uni1EC9" unicode="&#x1ec9;" horiz-adv-x="230" 
d="M70 0v500h90v-500h-90zM93.5 575q6.5 10 19.5 23q7 7 12.5 15t5.5 15q0 37 -42 37h-50v47q22 8 57 8q40 0 67 -20t27 -68q0 -13 -7.5 -23.5t-20.5 -21.5q-13 -13 -18.5 -20.5t-5.5 -17.5h-51q0 16 6.5 26z" />
    <glyph glyph-name="ij" unicode="&#x133;" horiz-adv-x="460" 
d="M70 570v110h90v-110h-90zM300 570v110h90v-110h-90zM160 -190v40h70q28 0 49 24.5t21 85.5v475h-140v-435h-90v500h320v-540q0 -98 -36 -134t-104 -36q-40 0 -90 20z" />
    <glyph glyph-name="imacron" unicode="&#x12b;" horiz-adv-x="230" 
d="M0 580v60h230v-60h-230zM70 0v500h90v-500h-90z" />
    <glyph glyph-name="iogonek" unicode="&#x12f;" horiz-adv-x="220" 
d="M65 560v120h90v-120h-90zM72 -139q-22 21 -22 59q0 20 5.5 38t11.5 28.5t8 13.5h-10v500h90v-500h-40v-45q0 -34 13 -46.5t47 -12.5h35v-41q-2 -1 -12 -4.5t-26.5 -7t-36.5 -3.5q-41 0 -63 21z" />
    <glyph glyph-name="itilde" unicode="&#x129;" horiz-adv-x="230" 
d="M70 0v500h90v-500h-90zM123.5 575q-12.5 10 -26.5 28q-8 11 -14 16.5t-13 5.5q-12 0 -18.5 -11.5t-6.5 -33.5h-50q0 56 19 80.5t61 24.5q19 0 31.5 -10t26.5 -28q8 -11 14 -16.5t13 -5.5q12 0 18.5 11.5t6.5 33.5h50q0 -56 -19 -80.5t-61 -24.5q-19 0 -31.5 10z" />
    <glyph glyph-name="j" unicode="j" horiz-adv-x="240" 
d="M80 570v110h90v-110h-90zM-60 -190v40h70q28 0 49 24.5t21 85.5v540h90v-540q0 -98 -36 -134t-104 -36q-40 0 -90 20z" />
    <glyph glyph-name="jcircumflex" unicode="&#x135;" horiz-adv-x="240" 
d="M0 550l75 130h95l75 -130h-60l-63 74l-62 -74h-60zM-60 -190v40h70q28 0 49 24.5t21 85.5v540h90v-540q0 -98 -36 -134t-104 -36q-40 0 -90 20z" />
    <glyph glyph-name="k" unicode="k" horiz-adv-x="435" 
d="M70 0v700h90v-430l145 230h100l-155 -235l175 -265h-100l-165 260v-260h-90z" />
    <glyph glyph-name="kcommaaccent" unicode="&#x137;" horiz-adv-x="435" 
d="M70 0v700h90v-430l145 230h100l-155 -235l175 -265h-100l-165 260v-260h-90zM190 -210v150h90l-30 -150h-60z" />
    <glyph glyph-name="kgreenlandic" unicode="&#x138;" horiz-adv-x="435" 
d="M70 0v500h90v-230l145 230h100l-155 -235l175 -265h-100l-165 260v-260h-90z" />
    <glyph glyph-name="l" unicode="l" horiz-adv-x="230" 
d="M70 0v700h90v-700h-90z" />
    <glyph glyph-name="lcommaaccent" unicode="&#x13c;" horiz-adv-x="230" 
d="M70 0v700h90v-700h-90zM70 -210v150h90l-30 -150h-60z" />
    <glyph glyph-name="ldot" unicode="&#x140;" horiz-adv-x="360" 
d="M70 0v700h90v-700h-90zM220 295v110h90v-110h-90z" />
    <glyph glyph-name="lslash" unicode="&#x142;" horiz-adv-x="270" 
d="M85 0v290l-50 -35l-35 50l85 60v335h90v-270l60 40l35 -50l-95 -65v-355h-90z" />
    <glyph glyph-name="m" unicode="m" horiz-adv-x="690" 
d="M65 500h75l5 -30h5q20 20 44 30t56 10q77 0 112 -44q23 20 58.5 32t64.5 12q67 0 103.5 -33t36.5 -117v-360h-90v360q0 48 -22.5 69t-57.5 21q-21 0 -42 -6t-33 -14q10 -30 10 -70v-360h-90v360q0 48 -22.5 69t-57.5 21q-17 0 -35 -6t-30 -14v-430h-90v500z" />
    <glyph glyph-name="n" unicode="n" horiz-adv-x="475" 
d="M65 500h75l5 -30h5q19 19 47 29.5t58 10.5q77 0 116 -32.5t39 -117.5v-360h-90v360q0 49 -25 69.5t-70 20.5q-18 0 -38 -6t-32 -14v-430h-90v500z" />
    <glyph glyph-name="nacute" unicode="&#x144;" horiz-adv-x="475" 
d="M205 560l35 130h95l-70 -130h-60zM65 500h75l5 -30h5q19 19 47 29.5t58 10.5q77 0 116 -32.5t39 -117.5v-360h-90v360q0 49 -25 69.5t-70 20.5q-18 0 -38 -6t-32 -14v-430h-90v500z" />
    <glyph glyph-name="ncommaaccent" unicode="&#x146;" horiz-adv-x="475" 
d="M65 500h75l5 -30h5q19 19 47 29.5t58 10.5q77 0 116 -32.5t39 -117.5v-360h-90v360q0 49 -25 69.5t-70 20.5q-18 0 -38 -6t-32 -14v-430h-90v500zM195 -210v150h90l-30 -150h-60z" />
    <glyph glyph-name="ntilde" unicode="&#xf1;" horiz-adv-x="475" 
d="M138.5 590q-18.5 25 -18.5 80h50q0 -22 6.5 -33.5t18.5 -11.5q7 0 13.5 5.5t15.5 16.5q15 18 28.5 28t32.5 10q38 0 56.5 -25t18.5 -80h-50q0 22 -6.5 33.5t-18.5 11.5q-7 0 -13.5 -5.5t-15.5 -16.5q-15 -18 -28.5 -28t-32.5 -10q-38 0 -56.5 25zM65 500h75l5 -30h5
q19 19 47 29.5t58 10.5q77 0 116 -32.5t39 -117.5v-360h-90v360q0 49 -25 69.5t-70 20.5q-18 0 -38 -6t-32 -14v-430h-90v500z" />
    <glyph glyph-name="o" unicode="o" horiz-adv-x="460" 
d="M90.5 49.5q-45.5 59.5 -45.5 200.5t45.5 200.5t139.5 59.5t139.5 -59.5t45.5 -200.5t-45.5 -200.5t-139.5 -59.5t-139.5 59.5zM298.5 92q26.5 47 26.5 158t-26.5 158t-68.5 47t-68.5 -47t-26.5 -158t26.5 -158t68.5 -47t68.5 47z" />
    <glyph glyph-name="oacute" unicode="&#xf3;" horiz-adv-x="470" 
d="M200 560l35 130h95l-70 -130h-60zM95.5 49.5q-45.5 59.5 -45.5 200.5t45.5 200.5t139.5 59.5t139.5 -59.5t45.5 -200.5t-45.5 -200.5t-139.5 -59.5t-139.5 59.5zM303.5 92q26.5 47 26.5 158t-26.5 158t-68.5 47t-68.5 -47t-26.5 -158t26.5 -158t68.5 -47t68.5 47z" />
    <glyph glyph-name="ocircumflex" unicode="&#xf4;" horiz-adv-x="460" 
d="M108 550l75 130h95l75 -130h-60l-63 74l-62 -74h-60zM90.5 49.5q-45.5 59.5 -45.5 200.5t45.5 200.5t139.5 59.5t139.5 -59.5t45.5 -200.5t-45.5 -200.5t-139.5 -59.5t-139.5 59.5zM298.5 92q26.5 47 26.5 158t-26.5 158t-68.5 47t-68.5 -47t-26.5 -158t26.5 -158
t68.5 -47t68.5 47z" />
    <glyph glyph-name="uni1ED1" unicode="&#x1ed1;" horiz-adv-x="460" 
d="M90.5 49.5q-45.5 59.5 -45.5 200.5t45.5 200.5t139.5 59.5t139.5 -59.5t45.5 -200.5t-45.5 -200.5t-139.5 -59.5t-139.5 59.5zM298.5 92q26.5 47 26.5 158t-26.5 158t-68.5 47t-68.5 -47t-26.5 -158t26.5 -158t68.5 -47t68.5 47zM107 550l75 130h95l75 -130h-60l-63 74
l-62 -74h-60zM337 628l35 130h95l-70 -130h-60z" />
    <glyph glyph-name="uni1ED9" unicode="&#x1ed9;" horiz-adv-x="460" 
d="M90.5 49.5q-45.5 59.5 -45.5 200.5t45.5 200.5t139.5 59.5t139.5 -59.5t45.5 -200.5t-45.5 -200.5t-139.5 -59.5t-139.5 59.5zM298.5 92q26.5 47 26.5 158t-26.5 158t-68.5 47t-68.5 -47t-26.5 -158t26.5 -158t68.5 -47t68.5 47zM193 -156v91h74v-91h-74zM107 550l75 130
h95l75 -130h-60l-63 74l-62 -74h-60z" />
    <glyph glyph-name="uni1ED3" unicode="&#x1ed3;" horiz-adv-x="460" 
d="M90.5 49.5q-45.5 59.5 -45.5 200.5t45.5 200.5t139.5 59.5t139.5 -59.5t45.5 -200.5t-45.5 -200.5t-139.5 -59.5t-139.5 59.5zM298.5 92q26.5 47 26.5 158t-26.5 158t-68.5 47t-68.5 -47t-26.5 -158t26.5 -158t68.5 -47t68.5 47zM107 550l75 130h95l75 -130h-60l-63 74
l-62 -74h-60zM351 647l-63 130h95l28 -130h-60z" />
    <glyph glyph-name="uni1ED5" unicode="&#x1ed5;" horiz-adv-x="460" 
d="M90.5 49.5q-45.5 59.5 -45.5 200.5t45.5 200.5t139.5 59.5t139.5 -59.5t45.5 -200.5t-45.5 -200.5t-139.5 -59.5t-139.5 59.5zM298.5 92q26.5 47 26.5 158t-26.5 158t-68.5 47t-68.5 -47t-26.5 -158t26.5 -158t68.5 -47t68.5 47zM107 550l75 130h95l75 -130h-60l-63 74
l-62 -74h-60zM348.5 641q6.5 10 19.5 23q7 7 12.5 15t5.5 15q0 37 -42 37h-50v47q22 8 57 8q40 0 67 -20t27 -68q0 -13 -7.5 -23.5t-20.5 -21.5q-13 -13 -18.5 -20.5t-5.5 -17.5h-51q0 16 6.5 26z" />
    <glyph glyph-name="uni1ED7" unicode="&#x1ed7;" horiz-adv-x="460" 
d="M90.5 49.5q-45.5 59.5 -45.5 200.5t45.5 200.5t139.5 59.5t139.5 -59.5t45.5 -200.5t-45.5 -200.5t-139.5 -59.5t-139.5 59.5zM298.5 92q26.5 47 26.5 158t-26.5 158t-68.5 47t-68.5 -47t-26.5 -158t26.5 -158t68.5 -47t68.5 47zM107 550l75 130h95l75 -130h-60l-63 74
l-62 -74h-60zM238.5 721q-12.5 10 -26.5 28q-8 11 -14 16.5t-13 5.5q-12 0 -18.5 -11.5t-6.5 -33.5h-50q0 56 19 80.5t61 24.5q19 0 31.5 -10t26.5 -28q8 -11 14 -16.5t13 -5.5q12 0 18.5 11.5t6.5 33.5h50q0 -56 -19 -80.5t-61 -24.5q-19 0 -31.5 10z" />
    <glyph glyph-name="odieresis" unicode="&#xf6;" horiz-adv-x="470" 
d="M110 570v110h90v-110h-90zM270 570v110h90v-110h-90zM95.5 49.5q-45.5 59.5 -45.5 200.5t45.5 200.5t139.5 59.5t139.5 -59.5t45.5 -200.5t-45.5 -200.5t-139.5 -59.5t-139.5 59.5zM303.5 92q26.5 47 26.5 158t-26.5 158t-68.5 47t-68.5 -47t-26.5 -158t26.5 -158
t68.5 -47t68.5 47z" />
    <glyph glyph-name="uni1ECD" unicode="&#x1ecd;" horiz-adv-x="460" 
d="M90.5 49.5q-45.5 59.5 -45.5 200.5t45.5 200.5t139.5 59.5t139.5 -59.5t45.5 -200.5t-45.5 -200.5t-139.5 -59.5t-139.5 59.5zM298.5 92q26.5 47 26.5 158t-26.5 158t-68.5 47t-68.5 -47t-26.5 -158t26.5 -158t68.5 -47t68.5 47zM193 -156v91h74v-91h-74z" />
    <glyph glyph-name="ograve" unicode="&#xf2;" horiz-adv-x="470" 
d="M210 560l-70 130h95l35 -130h-60zM95.5 49.5q-45.5 59.5 -45.5 200.5t45.5 200.5t139.5 59.5t139.5 -59.5t45.5 -200.5t-45.5 -200.5t-139.5 -59.5t-139.5 59.5zM303.5 92q26.5 47 26.5 158t-26.5 158t-68.5 47t-68.5 -47t-26.5 -158t26.5 -158t68.5 -47t68.5 47z" />
    <glyph glyph-name="uni1ECF" unicode="&#x1ecf;" horiz-adv-x="460" 
d="M90.5 49.5q-45.5 59.5 -45.5 200.5t45.5 200.5t139.5 59.5t139.5 -59.5t45.5 -200.5t-45.5 -200.5t-139.5 -59.5t-139.5 59.5zM298.5 92q26.5 47 26.5 158t-26.5 158t-68.5 47t-68.5 -47t-26.5 -158t26.5 -158t68.5 -47t68.5 47zM208.5 575q6.5 10 19.5 23q7 7 12.5 15
t5.5 15q0 37 -42 37h-50v47q22 8 57 8q40 0 67 -20t27 -68q0 -13 -7.5 -23.5t-20.5 -21.5q-13 -13 -18.5 -20.5t-5.5 -17.5h-51q0 16 6.5 26z" />
    <glyph glyph-name="ohorn" unicode="&#x1a1;" horiz-adv-x="460" 
d="M363 459q52 -61 52 -209q0 -141 -45.5 -200.5t-139.5 -59.5t-139.5 59.5t-45.5 200.5t45.5 200.5t139.5 59.5q40 0 70 -10q33 2 51.5 19t18.5 55h74q0 -91 -81 -115zM298.5 92q26.5 47 26.5 158t-26.5 158t-68.5 47t-68.5 -47t-26.5 -158t26.5 -158t68.5 -47t68.5 47z
" />
    <glyph glyph-name="uni1EDB" unicode="&#x1edb;" horiz-adv-x="460" 
d="M363 459q52 -61 52 -209q0 -141 -45.5 -200.5t-139.5 -59.5t-139.5 59.5t-45.5 200.5t45.5 200.5t139.5 59.5q40 0 70 -10q33 2 51.5 19t18.5 55h74q0 -91 -81 -115zM298.5 92q26.5 47 26.5 158t-26.5 158t-68.5 47t-68.5 -47t-26.5 -158t26.5 -158t68.5 -47t68.5 47z
M200 560l35 130h95l-70 -130h-60z" />
    <glyph glyph-name="uni1EE3" unicode="&#x1ee3;" horiz-adv-x="460" 
d="M363 459q52 -61 52 -209q0 -141 -45.5 -200.5t-139.5 -59.5t-139.5 59.5t-45.5 200.5t45.5 200.5t139.5 59.5q40 0 70 -10q33 2 51.5 19t18.5 55h74q0 -91 -81 -115zM298.5 92q26.5 47 26.5 158t-26.5 158t-68.5 47t-68.5 -47t-26.5 -158t26.5 -158t68.5 -47t68.5 47z
M193 -156v91h74v-91h-74z" />
    <glyph glyph-name="uni1EDD" unicode="&#x1edd;" horiz-adv-x="460" 
d="M363 459q52 -61 52 -209q0 -141 -45.5 -200.5t-139.5 -59.5t-139.5 59.5t-45.5 200.5t45.5 200.5t139.5 59.5q40 0 70 -10q33 2 51.5 19t18.5 55h74q0 -91 -81 -115zM298.5 92q26.5 47 26.5 158t-26.5 158t-68.5 47t-68.5 -47t-26.5 -158t26.5 -158t68.5 -47t68.5 47z
M193 560l-63 130h95l28 -130h-60z" />
    <glyph glyph-name="uni1EDF" unicode="&#x1edf;" horiz-adv-x="460" 
d="M363 459q52 -61 52 -209q0 -141 -45.5 -200.5t-139.5 -59.5t-139.5 59.5t-45.5 200.5t45.5 200.5t139.5 59.5q40 0 70 -10q33 2 51.5 19t18.5 55h74q0 -91 -81 -115zM298.5 92q26.5 47 26.5 158t-26.5 158t-68.5 47t-68.5 -47t-26.5 -158t26.5 -158t68.5 -47t68.5 47z
M208.5 575q6.5 10 19.5 23q7 7 12.5 15t5.5 15q0 37 -42 37h-50v47q22 8 57 8q40 0 67 -20t27 -68q0 -13 -7.5 -23.5t-20.5 -21.5q-13 -13 -18.5 -20.5t-5.5 -17.5h-51q0 16 6.5 26z" />
    <glyph glyph-name="uni1EE1" unicode="&#x1ee1;" horiz-adv-x="460" 
d="M363 459q52 -61 52 -209q0 -141 -45.5 -200.5t-139.5 -59.5t-139.5 59.5t-45.5 200.5t45.5 200.5t139.5 59.5q40 0 70 -10q33 2 51.5 19t18.5 55h74q0 -91 -81 -115zM298.5 92q26.5 47 26.5 158t-26.5 158t-68.5 47t-68.5 -47t-26.5 -158t26.5 -158t68.5 -47t68.5 47z
M238.5 575q-12.5 10 -26.5 28q-8 11 -14 16.5t-13 5.5q-12 0 -18.5 -11.5t-6.5 -33.5h-50q0 56 19 80.5t61 24.5q19 0 31.5 -10t26.5 -28q8 -11 14 -16.5t13 -5.5q12 0 18.5 11.5t6.5 33.5h50q0 -56 -19 -80.5t-61 -24.5q-19 0 -31.5 10z" />
    <glyph glyph-name="omacron" unicode="&#x14d;" horiz-adv-x="470" 
d="M120 580v60h230v-60h-230zM95.5 49.5q-45.5 59.5 -45.5 200.5t45.5 200.5t139.5 59.5t139.5 -59.5t45.5 -200.5t-45.5 -200.5t-139.5 -59.5t-139.5 59.5zM303.5 92q26.5 47 26.5 158t-26.5 158t-68.5 47t-68.5 -47t-26.5 -158t26.5 -158t68.5 -47t68.5 47z" />
    <glyph glyph-name="oslash" unicode="&#xf8;" horiz-adv-x="480" 
d="M155 5.5q-35 15.5 -58 49.5l-32 -35l-35 40l43 47q-18 56 -18 143q0 141 45.5 200.5t139.5 59.5q100 0 143 -65l32 35l35 -40l-43 -47q18 -61 18 -143q0 -141 -45.5 -200.5t-139.5 -59.5q-50 0 -85 15.5zM320 377q-23 78 -80 78q-42 0 -68.5 -47t-26.5 -158q0 -24 2 -62z
M308.5 92q26.5 47 26.5 158q0 34 -3 61l-173 -188q22 -78 81 -78q42 0 68.5 47z" />
    <glyph glyph-name="otilde" unicode="&#xf5;" horiz-adv-x="460" 
d="M90.5 49.5q-45.5 59.5 -45.5 200.5t45.5 200.5t139.5 59.5t139.5 -59.5t45.5 -200.5t-45.5 -200.5t-139.5 -59.5t-139.5 59.5zM298.5 92q26.5 47 26.5 158t-26.5 158t-68.5 47t-68.5 -47t-26.5 -158t26.5 -158t68.5 -47t68.5 47zM238.5 575q-12.5 10 -26.5 28
q-8 11 -14 16.5t-13 5.5q-12 0 -18.5 -11.5t-6.5 -33.5h-50q0 56 19 80.5t61 24.5q19 0 31.5 -10t26.5 -28q8 -11 14 -16.5t13 -5.5q12 0 18.5 11.5t6.5 33.5h50q0 -56 -19 -80.5t-61 -24.5q-19 0 -31.5 10z" />
    <glyph glyph-name="oe" unicode="&#x153;" horiz-adv-x="720" 
d="M90.5 49.5q-45.5 59.5 -45.5 200.5t45.5 200.5t139.5 59.5q42 0 79.5 -21.5t55.5 -58.5q18 37 55.5 58.5t79.5 21.5q60 0 98 -24t57.5 -81t19.5 -155v-30h-260q0 -65 14 -102t44.5 -52.5t81.5 -15.5h100v-40q-24 -8 -58 -14t-62 -6q-66 0 -104.5 19t-65.5 61
q-19 -37 -56 -58.5t-79 -21.5q-94 0 -139.5 59.5zM298.5 92q26.5 47 26.5 158t-26.5 158t-68.5 47t-68.5 -47t-26.5 -158t26.5 -158t68.5 -47t68.5 47zM585 280q0 94 -23.5 134.5t-61.5 40.5t-61.5 -40.5t-23.5 -134.5h170z" />
    <glyph glyph-name="p" unicode="p" horiz-adv-x="465" 
d="M65 500h75l5 -30h5q19 19 47 29.5t58 10.5q83 0 124 -58t41 -202t-41 -202t-124 -58q-50 0 -100 25v-215h-90v700zM304 93.5q26 43.5 26 156.5t-26 156.5t-79 43.5q-18 0 -38 -6t-32 -14v-360q12 -8 32 -14t38 -6q53 0 79 43.5z" />
    <glyph glyph-name="thorn" unicode="&#xfe;" horiz-adv-x="470" 
d="M70 700h90v-215q50 25 100 25q83 0 124 -58t41 -202t-41 -202t-124 -58q-50 0 -100 25v-215h-90v900zM309 93.5q26 43.5 26 156.5t-26 156.5t-79 43.5q-18 0 -38 -6t-32 -14v-360q12 -8 32 -14t38 -6q53 0 79 43.5z" />
    <glyph glyph-name="q" unicode="q" horiz-adv-x="465" 
d="M310 15q-50 -25 -100 -25q-83 0 -124 58t-41 202q0 99 20.5 155.5t62.5 80.5t112 24q85 0 160 -30v-680h-90v215zM278 56q20 6 32 14v380h-70q-53 0 -79 -43.5t-26 -156.5t26 -156.5t79 -43.5q18 0 38 6z" />
    <glyph glyph-name="r" unicode="r" horiz-adv-x="335" 
d="M65 500h76l5 -40h5q48 40 124 40h50v-75h-100q-43 0 -70 -20v-405h-90v500z" />
    <glyph glyph-name="rcaron" unicode="&#x159;" horiz-adv-x="335" 
d="M145 550l-75 130h60l62 -74l63 74h60l-75 -130h-95zM65 500h76l5 -40h5q48 40 124 40h50v-75h-100q-43 0 -70 -20v-405h-90v500z" />
    <glyph glyph-name="rcommaaccent" unicode="&#x157;" horiz-adv-x="335" 
d="M65 500h76l5 -40h5q48 40 124 40h50v-75h-100q-43 0 -70 -20v-405h-90v500zM65 -210v150h90l-30 -150h-60z" />
    <glyph glyph-name="s" unicode="s" horiz-adv-x="395" 
d="M98 -4q-34 6 -58 14v40h100q69 0 99.5 18t30.5 62q0 36 -24.5 55.5t-75.5 39.5q-44 19 -70.5 34.5t-45.5 45t-19 75.5q0 73 43 101.5t137 28.5q28 0 62 -6t58 -14v-40h-100q-54 0 -82 -16.5t-28 -53.5q0 -36 24.5 -55.5t75.5 -39.5q44 -19 70.5 -34.5t45.5 -45t19 -75.5
q0 -55 -20.5 -85t-63.5 -42.5t-116 -12.5q-28 0 -62 6z" />
    <glyph glyph-name="sacute" unicode="&#x15b;" horiz-adv-x="395" 
d="M165 560l35 130h95l-70 -130h-60zM98 -4q-34 6 -58 14v40h100q69 0 99.5 18t30.5 62q0 36 -24.5 55.5t-75.5 39.5q-44 19 -70.5 34.5t-45.5 45t-19 75.5q0 73 43 101.5t137 28.5q28 0 62 -6t58 -14v-40h-100q-54 0 -82 -16.5t-28 -53.5q0 -36 24.5 -55.5t75.5 -39.5
q44 -19 70.5 -34.5t45.5 -45t19 -75.5q0 -55 -20.5 -85t-63.5 -42.5t-116 -12.5q-28 0 -62 6z" />
    <glyph glyph-name="scaron" unicode="&#x161;" horiz-adv-x="395" 
d="M143 560l-75 130h60l62 -74l63 74h60l-75 -130h-95zM98 -4q-34 6 -58 14v40h100q69 0 99.5 18t30.5 62q0 36 -24.5 55.5t-75.5 39.5q-44 19 -70.5 34.5t-45.5 45t-19 75.5q0 73 43 101.5t137 28.5q28 0 62 -6t58 -14v-40h-100q-54 0 -82 -16.5t-28 -53.5
q0 -36 24.5 -55.5t75.5 -39.5q44 -19 70.5 -34.5t45.5 -45t19 -75.5q0 -55 -20.5 -85t-63.5 -42.5t-116 -12.5q-28 0 -62 6z" />
    <glyph glyph-name="scedilla" unicode="&#x15f;" horiz-adv-x="395" 
d="M183.5 -161.5q-16.5 3.5 -26.5 7t-12 4.5v30h65q40 0 40 25q0 12 -7.5 18.5t-22.5 6.5h-55v60h-5q-28 0 -62 6t-58 14v40h100q69 0 99.5 18t30.5 62q0 36 -24.5 55.5t-75.5 39.5q-44 19 -70.5 34.5t-45.5 45t-19 75.5q0 73 43 101.5t137 28.5q28 0 62 -6t58 -14v-40h-100
q-54 0 -82 -16.5t-28 -53.5q0 -36 24.5 -55.5t75.5 -39.5q44 -19 70.5 -34.5t45.5 -45t19 -75.5q0 -70 -34 -101t-111 -37v-17h15q40 0 62.5 -19.5t22.5 -50.5q0 -32 -24 -51t-71 -19q-20 0 -36.5 3.5z" />
    <glyph glyph-name="germandbls" unicode="&#xdf;" horiz-adv-x="530" 
d="M225 10v40h80q48 0 74 19.5t26 65.5q0 32 -19 53.5t-58 49.5q-30 22 -47 37.5t-29 38t-12 51.5q0 31 14 52.5t42 49.5q25 24 37 41.5t12 41.5q0 41 -26 68t-64 27q-100 0 -100 -150v-495h-90v495q0 115 45.5 165t144.5 50q89 0 134.5 -42t45.5 -118q0 -34 -15 -57.5
t-43 -50.5q-23 -22 -35 -38.5t-12 -38.5q0 -23 16 -40t49 -40t52 -40.5t33.5 -45t14.5 -64.5q0 -82 -41 -113.5t-129 -31.5q-40 0 -100 20z" />
    <glyph glyph-name="t" unicode="t" horiz-adv-x="345" 
d="M116.5 26.5q-36.5 36.5 -36.5 133.5v265h-60v65h60v120h90v-120h140v-45q-24 -8 -58 -14t-62 -6h-20v-265q0 -61 21 -85.5t49 -24.5h90v-40q-19 -8 -53 -14t-57 -6q-67 0 -103.5 36.5z" />
    <glyph glyph-name="u" unicode="u" horiz-adv-x="475" 
d="M104 22.5q-39 32.5 -39 117.5v360h90v-360q0 -49 25 -69.5t70 -20.5q18 0 38 6t32 14v430h90v-500h-75l-5 30h-5q-19 -19 -47 -29.5t-58 -10.5q-77 0 -116 32.5z" />
    <glyph glyph-name="uacute" unicode="&#xfa;" horiz-adv-x="475" 
d="M205 560l35 130h95l-70 -130h-60zM104 22.5q-39 32.5 -39 117.5v360h90v-360q0 -49 25 -69.5t70 -20.5q18 0 38 6t32 14v430h90v-500h-75l-5 30h-5q-19 -19 -47 -29.5t-58 -10.5q-77 0 -116 32.5z" />
    <glyph glyph-name="ucircumflex" unicode="&#xfb;" horiz-adv-x="475" 
d="M117 550l75 130h95l75 -130h-60l-63 74l-62 -74h-60zM104 22.5q-39 32.5 -39 117.5v360h90v-360q0 -49 25 -69.5t70 -20.5q18 0 38 6t32 14v430h90v-500h-75l-5 30h-5q-19 -19 -47 -29.5t-58 -10.5q-77 0 -116 32.5z" />
    <glyph glyph-name="udieresis" unicode="&#xfc;" horiz-adv-x="475" 
d="M115 570v110h90v-110h-90zM275 570v110h90v-110h-90zM104 22.5q-39 32.5 -39 117.5v360h90v-360q0 -49 25 -69.5t70 -20.5q18 0 38 6t32 14v430h90v-500h-75l-5 30h-5q-19 -19 -47 -29.5t-58 -10.5q-77 0 -116 32.5z" />
    <glyph glyph-name="uni1EE5" unicode="&#x1ee5;" horiz-adv-x="475" 
d="M104 22.5q-39 32.5 -39 117.5v360h90v-360q0 -49 25 -69.5t70 -20.5q18 0 38 6t32 14v430h90v-500h-75l-5 30h-5q-19 -19 -47 -29.5t-58 -10.5q-77 0 -116 32.5zM201 -156v91h74v-91h-74z" />
    <glyph glyph-name="ugrave" unicode="&#xf9;" horiz-adv-x="475" 
d="M215 560l-70 130h95l35 -130h-60zM104 22.5q-39 32.5 -39 117.5v360h90v-360q0 -49 25 -69.5t70 -20.5q18 0 38 6t32 14v430h90v-500h-75l-5 30h-5q-19 -19 -47 -29.5t-58 -10.5q-77 0 -116 32.5z" />
    <glyph glyph-name="uni1EE7" unicode="&#x1ee7;" horiz-adv-x="475" 
d="M104 22.5q-39 32.5 -39 117.5v360h90v-360q0 -49 25 -69.5t70 -20.5q18 0 38 6t32 14v430h90v-500h-75l-5 30h-5q-19 -19 -47 -29.5t-58 -10.5q-77 0 -116 32.5zM216.5 575q6.5 10 19.5 23q7 7 12.5 15t5.5 15q0 37 -42 37h-50v47q22 8 57 8q40 0 67 -20t27 -68
q0 -13 -7.5 -23.5t-20.5 -21.5q-13 -13 -18.5 -20.5t-5.5 -17.5h-51q0 16 6.5 26z" />
    <glyph glyph-name="uhorn" unicode="&#x1b0;" horiz-adv-x="475" 
d="M498 485.5q-33 -28.5 -88 -33.5v-452h-75l-5 30h-5q-19 -19 -47 -29.5t-58 -10.5q-77 0 -116 32.5t-39 117.5v360h90v-360q0 -49 25 -69.5t70 -20.5q18 0 38 6t32 14v430h58q38 0 58.5 16.5t20.5 57.5h74q0 -60 -33 -88.5z" />
    <glyph glyph-name="uni1EE9" unicode="&#x1ee9;" horiz-adv-x="475" 
d="M498 485.5q-33 -28.5 -88 -33.5v-452h-75l-5 30h-5q-19 -19 -47 -29.5t-58 -10.5q-77 0 -116 32.5t-39 117.5v360h90v-360q0 -49 25 -69.5t70 -20.5q18 0 38 6t32 14v430h58q38 0 58.5 16.5t20.5 57.5h74q0 -60 -33 -88.5zM208 560l35 130h95l-70 -130h-60z" />
    <glyph glyph-name="uni1EF1" unicode="&#x1ef1;" horiz-adv-x="475" 
d="M498 485.5q-33 -28.5 -88 -33.5v-452h-75l-5 30h-5q-19 -19 -47 -29.5t-58 -10.5q-77 0 -116 32.5t-39 117.5v360h90v-360q0 -49 25 -69.5t70 -20.5q18 0 38 6t32 14v430h58q38 0 58.5 16.5t20.5 57.5h74q0 -60 -33 -88.5zM201 -156v91h74v-91h-74z" />
    <glyph glyph-name="uni1EEB" unicode="&#x1eeb;" horiz-adv-x="475" 
d="M498 485.5q-33 -28.5 -88 -33.5v-452h-75l-5 30h-5q-19 -19 -47 -29.5t-58 -10.5q-77 0 -116 32.5t-39 117.5v360h90v-360q0 -49 25 -69.5t70 -20.5q18 0 38 6t32 14v430h58q38 0 58.5 16.5t20.5 57.5h74q0 -60 -33 -88.5zM201 560l-63 130h95l28 -130h-60z" />
    <glyph glyph-name="uni1EED" unicode="&#x1eed;" horiz-adv-x="475" 
d="M498 485.5q-33 -28.5 -88 -33.5v-452h-75l-5 30h-5q-19 -19 -47 -29.5t-58 -10.5q-77 0 -116 32.5t-39 117.5v360h90v-360q0 -49 25 -69.5t70 -20.5q18 0 38 6t32 14v430h58q38 0 58.5 16.5t20.5 57.5h74q0 -60 -33 -88.5zM216.5 575q6.5 10 19.5 23q7 7 12.5 15t5.5 15
q0 37 -42 37h-50v47q22 8 57 8q40 0 67 -20t27 -68q0 -13 -7.5 -23.5t-20.5 -21.5q-13 -13 -18.5 -20.5t-5.5 -17.5h-51q0 16 6.5 26z" />
    <glyph glyph-name="uni1EEF" unicode="&#x1eef;" horiz-adv-x="475" 
d="M498 485.5q-33 -28.5 -88 -33.5v-452h-75l-5 30h-5q-19 -19 -47 -29.5t-58 -10.5q-77 0 -116 32.5t-39 117.5v360h90v-360q0 -49 25 -69.5t70 -20.5q18 0 38 6t32 14v430h58q38 0 58.5 16.5t20.5 57.5h74q0 -60 -33 -88.5zM246.5 575q-12.5 10 -26.5 28q-8 11 -14 16.5
t-13 5.5q-12 0 -18.5 -11.5t-6.5 -33.5h-50q0 56 19 80.5t61 24.5q19 0 31.5 -10t26.5 -28q8 -11 14 -16.5t13 -5.5q12 0 18.5 11.5t6.5 33.5h50q0 -56 -19 -80.5t-61 -24.5q-19 0 -31.5 10z" />
    <glyph glyph-name="umacron" unicode="&#x16b;" horiz-adv-x="475" 
d="M125 570v60h230v-60h-230zM104 22.5q-39 32.5 -39 117.5v360h90v-360q0 -49 25 -69.5t70 -20.5q18 0 38 6t32 14v430h90v-500h-75l-5 30h-5q-19 -19 -47 -29.5t-58 -10.5q-77 0 -116 32.5z" />
    <glyph glyph-name="uogonek" unicode="&#x173;" horiz-adv-x="480" 
d="M342 -139q-22 21 -22 59q0 20 5.5 38t11.5 28.5t8 13.5h-10l-5 30h-5q-19 -19 -47 -29.5t-58 -10.5q-77 0 -116 32.5t-39 117.5v360h90v-360q0 -49 25 -69.5t70 -20.5q18 0 38 6t32 14v430h90v-500h-25v-45q0 -34 13 -46.5t47 -12.5h35v-41q-2 -1 -12 -4.5t-26.5 -7
t-36.5 -3.5q-41 0 -63 21z" />
    <glyph glyph-name="utilde" unicode="&#x169;" horiz-adv-x="475" 
d="M104 22.5q-39 32.5 -39 117.5v360h90v-360q0 -49 25 -69.5t70 -20.5q18 0 38 6t32 14v430h90v-500h-75l-5 30h-5q-19 -19 -47 -29.5t-58 -10.5q-77 0 -116 32.5zM246.5 575q-12.5 10 -26.5 28q-8 11 -14 16.5t-13 5.5q-12 0 -18.5 -11.5t-6.5 -33.5h-50q0 56 19 80.5
t61 24.5q19 0 31.5 -10t26.5 -28q8 -11 14 -16.5t13 -5.5q12 0 18.5 11.5t6.5 33.5h50q0 -56 -19 -80.5t-61 -24.5q-19 0 -31.5 10z" />
    <glyph glyph-name="v" unicode="v" horiz-adv-x="430" 
d="M150 0l-135 500h85l113 -415h4l113 415h85l-135 -500h-130z" />
    <glyph glyph-name="w" unicode="w" horiz-adv-x="610" 
d="M105 0l-90 500h85l69 -380h5l91 280h80l91 -280h5l69 380h85l-90 -500h-110l-88 270h-4l-88 -270h-110z" />
    <glyph glyph-name="x" unicode="x" horiz-adv-x="400" 
d="M15 0l125 255l-121 245h90l91 -185l91 185h90l-121 -245l125 -255h-90l-95 195l-95 -195h-90z" />
    <glyph glyph-name="y" unicode="y" horiz-adv-x="475" 
d="M148 -204q-34 6 -58 14v40h100q69 0 99.5 36.5t30.5 128.5q-50 -25 -100 -25q-77 0 -116 32.5t-39 117.5v360h90v-360q0 -49 25 -69.5t70 -20.5q18 0 38 6t32 14v430h90v-460q0 -95 -20.5 -149t-64 -77.5t-115.5 -23.5q-28 0 -62 6z" />
    <glyph glyph-name="yacute" unicode="&#xfd;" horiz-adv-x="475" 
d="M205 560l35 130h95l-70 -130h-60zM148 -204q-34 6 -58 14v40h100q69 0 99.5 36.5t30.5 128.5q-50 -25 -100 -25q-77 0 -116 32.5t-39 117.5v360h90v-360q0 -49 25 -69.5t70 -20.5q18 0 38 6t32 14v430h90v-460q0 -95 -20.5 -149t-64 -77.5t-115.5 -23.5q-28 0 -62 6z" />
    <glyph glyph-name="ydieresis" unicode="&#xff;" horiz-adv-x="475" 
d="M115 570v110h90v-110h-90zM275 570v110h90v-110h-90zM148 -204q-34 6 -58 14v40h100q69 0 99.5 36.5t30.5 128.5q-50 -25 -100 -25q-77 0 -116 32.5t-39 117.5v360h90v-360q0 -49 25 -69.5t70 -20.5q18 0 38 6t32 14v430h90v-460q0 -95 -20.5 -149t-64 -77.5
t-115.5 -23.5q-28 0 -62 6z" />
    <glyph glyph-name="uni1EF5" unicode="&#x1ef5;" horiz-adv-x="475" 
d="M148 -204q-34 6 -58 14v40h100q69 0 99.5 36.5t30.5 128.5q-50 -25 -100 -25q-77 0 -116 32.5t-39 117.5v360h90v-360q0 -49 25 -69.5t70 -20.5q18 0 38 6t32 14v430h90v-460q0 -95 -20.5 -149t-64 -77.5t-115.5 -23.5q-28 0 -62 6zM444 -156v91h74v-91h-74z" />
    <glyph glyph-name="ygrave" unicode="&#x1ef3;" horiz-adv-x="475" 
d="M148 -204q-34 6 -58 14v40h100q69 0 99.5 36.5t30.5 128.5q-50 -25 -100 -25q-77 0 -116 32.5t-39 117.5v360h90v-360q0 -49 25 -69.5t70 -20.5q18 0 38 6t32 14v430h90v-460q0 -95 -20.5 -149t-64 -77.5t-115.5 -23.5q-28 0 -62 6zM201 560l-63 130h95l28 -130h-60z" />
    <glyph glyph-name="uni1EF7" unicode="&#x1ef7;" horiz-adv-x="475" 
d="M148 -204q-34 6 -58 14v40h100q69 0 99.5 36.5t30.5 128.5q-50 -25 -100 -25q-77 0 -116 32.5t-39 117.5v360h90v-360q0 -49 25 -69.5t70 -20.5q18 0 38 6t32 14v430h90v-460q0 -95 -20.5 -149t-64 -77.5t-115.5 -23.5q-28 0 -62 6zM216.5 575q6.5 10 19.5 23
q7 7 12.5 15t5.5 15q0 37 -42 37h-50v47q22 8 57 8q40 0 67 -20t27 -68q0 -13 -7.5 -23.5t-20.5 -21.5q-13 -13 -18.5 -20.5t-5.5 -17.5h-51q0 16 6.5 26z" />
    <glyph glyph-name="uni1EF9" unicode="&#x1ef9;" horiz-adv-x="475" 
d="M148 -204q-34 6 -58 14v40h100q69 0 99.5 36.5t30.5 128.5q-50 -25 -100 -25q-77 0 -116 32.5t-39 117.5v360h90v-360q0 -49 25 -69.5t70 -20.5q18 0 38 6t32 14v430h90v-460q0 -95 -20.5 -149t-64 -77.5t-115.5 -23.5q-28 0 -62 6zM246.5 575q-12.5 10 -26.5 28
q-8 11 -14 16.5t-13 5.5q-12 0 -18.5 -11.5t-6.5 -33.5h-50q0 56 19 80.5t61 24.5q19 0 31.5 -10t26.5 -28q8 -11 14 -16.5t13 -5.5q12 0 18.5 11.5t6.5 33.5h50q0 -56 -19 -80.5t-61 -24.5q-19 0 -31.5 10z" />
    <glyph glyph-name="z" unicode="z" horiz-adv-x="370" 
d="M20 0v60l225 375h-215v65h320v-60l-224 -375h219v-65h-325z" />
    <glyph glyph-name="zacute" unicode="&#x17a;" horiz-adv-x="370" 
d="M150 560l35 130h95l-70 -130h-60zM20 0v60l225 375h-215v65h320v-60l-224 -375h219v-65h-325z" />
    <glyph glyph-name="zcaron" unicode="&#x17e;" horiz-adv-x="370" 
d="M148 560l-75 130h60l62 -74l63 74h60l-75 -130h-95zM20 0v60l225 375h-215v65h320v-60l-224 -375h219v-65h-325z" />
    <glyph glyph-name="zdotaccent" unicode="&#x17c;" horiz-adv-x="370" 
d="M150 570v110h90v-110h-90zM20 0v60l225 375h-215v65h320v-60l-224 -375h219v-65h-325z" />
    <glyph glyph-name="ordfeminine" unicode="&#xaa;" horiz-adv-x="285" 
d="M55.5 418.5q-25.5 23.5 -25.5 71.5q0 49 27 72t68 23q16 0 37 -2t28 -3v20q0 30 -15.5 42.5t-49.5 12.5h-70v38q15 5 38 8.5t42 3.5q61 0 90.5 -22.5t29.5 -82.5v-200h-60l-5 20q-33 -25 -75 -25q-34 0 -59.5 23.5zM190 460v75h-45q-23 0 -36.5 -11.5t-13.5 -33.5
t13.5 -33.5t36.5 -11.5q22 0 45 15z" />
    <glyph glyph-name="ordmasculine" unicode="&#xba;" horiz-adv-x="300" 
d="M62.5 434.5q-32.5 39.5 -32.5 115.5t32.5 115.5t87.5 39.5t87.5 -39.5t32.5 -115.5t-32.5 -115.5t-87.5 -39.5t-87.5 39.5zM205 550q0 105 -55 105t-55 -105t55 -105t55 105z" />
    <glyph glyph-name="uni0410" unicode="&#x410;" horiz-adv-x="510" 
d="M20 0l170 700h130l170 -700h-90l-45 180h-200l-45 -180h-90zM170 250h170l-83 350h-4z" />
    <glyph glyph-name="uni0411" unicode="&#x411;" horiz-adv-x="490" 
d="M70 10v690h350v-70h-260v-205h70q81 0 129 -21.5t69.5 -69.5t21.5 -129q0 -78 -22 -125t-69.5 -68.5t-128.5 -21.5q-93 0 -160 20zM230 55q69 0 99.5 34.5t30.5 115.5t-30.5 115.5t-99.5 34.5h-70v-300h70z" />
    <glyph glyph-name="uni0412" unicode="&#x412;" horiz-adv-x="500" 
d="M70 10v680q67 20 160 20q104 0 152 -45t48 -140q0 -104 -80 -148v-4q110 -32 110 -183q0 -71 -22.5 -115t-72.5 -64.5t-135 -20.5q-93 0 -160 20zM220 400q60 0 90 31t30 94q0 120 -120 120h-60v-245h60zM230 55q75 0 107.5 31.5t32.5 103.5q0 78 -32.5 111.5
t-107.5 33.5h-70v-280h70z" />
    <glyph glyph-name="uni0413" unicode="&#x413;" horiz-adv-x="410" 
d="M70 0v700h320v-70h-230v-630h-90z" />
    <glyph glyph-name="uni0403" unicode="&#x403;" horiz-adv-x="410" 
d="M190 750l35 130h95l-70 -130h-60zM70 0v700h320v-70h-230v-630h-90z" />
    <glyph glyph-name="uni0490" unicode="&#x490;" horiz-adv-x="410" 
d="M70 0v700h248l7 85h65v-155h-230v-630h-90z" />
    <glyph glyph-name="uni0414" unicode="&#x414;" horiz-adv-x="545" 
d="M10 70h50q0 -3 12.5 25.5t23.5 74t14 105.5l20 425h325v-630h65v-220h-55q-22 60 -30 150h-340q-7 -90 -30 -150h-55v220zM365 70v560h-148l-17 -355q-3 -60 -14 -105.5t-23.5 -74t-12.5 -25.5h215z" />
    <glyph glyph-name="uni0415" unicode="&#x415;" 
d="M70 0v700h340v-70h-250v-230h220v-70h-220v-260h250v-70h-340z" />
    <glyph glyph-name="uni0400" unicode="&#x400;" 
d="M70 0v700h340v-70h-250v-230h220v-70h-220v-260h250v-70h-340zM218 760l-63 130h95l28 -130h-60z" />
    <glyph glyph-name="uni0401" unicode="&#x401;" 
d="M110 770v110h90v-110h-90zM270 770v110h90v-110h-90zM70 0v700h340v-70h-250v-230h220v-70h-220v-260h250v-70h-340z" />
    <glyph glyph-name="uni0416" unicode="&#x416;" horiz-adv-x="740" 
d="M24 -5.5q-19 4.5 -19 5.5v45q35 0 54.5 18t25.5 47l25 130q11 59 35 85.5t65 37.5v4q-35 10 -55 36t-35 87l-25 100q-8 32 -26 48.5t-54 16.5v45q0 1 19 5.5t41 4.5q42 0 71 -30t44 -90l25 -100q22 -90 85 -90h25v300h90v-300h25q63 0 85 90l25 100q15 60 44 90t71 30
q22 0 41 -4.5t19 -5.5v-45q-36 0 -54 -16.5t-26 -48.5l-25 -100q-15 -61 -35 -87t-55 -36v-4q41 -11 65 -37.5t35 -85.5l25 -130q6 -29 25.5 -47t54.5 -18v-45q0 -1 -19 -5.5t-41 -4.5q-45 0 -74.5 30t-40.5 90l-25 130q-9 49 -33.5 69.5t-61.5 20.5h-25v-330h-90v330h-25
q-37 0 -61.5 -20.5t-33.5 -69.5l-25 -130q-11 -60 -40.5 -90t-74.5 -30q-22 0 -41 4.5z" />
    <glyph glyph-name="uni0417" unicode="&#x417;" horiz-adv-x="425" 
d="M79 -4q-40 6 -64 14v45h140q75 0 107.5 31.5t32.5 103.5q0 75 -32.5 107.5t-107.5 32.5h-70v70h60q67 0 98.5 30.5t31.5 94.5q0 61 -31.5 90.5t-98.5 29.5h-120v45q23 8 62 14t68 6q111 0 160.5 -45t49.5 -140q0 -59 -22 -95.5t-68 -57.5v-4q57 -16 83.5 -63t26.5 -115
q0 -71 -22.5 -115t-72.5 -64.5t-135 -20.5q-36 0 -76 6z" />
    <glyph glyph-name="uni0418" unicode="&#x418;" horiz-adv-x="540" 
d="M70 0v700h90v-520h5l200 520h105v-700h-90v520h-5l-205 -520h-100z" />
    <glyph glyph-name="uni0419" unicode="&#x419;" horiz-adv-x="540" 
d="M185.5 780q-36.5 20 -55.5 55l40 40q19 -19 44.5 -32t55.5 -13t55.5 13t44.5 32l40 -40q-19 -35 -55.5 -55t-84.5 -20t-84.5 20zM70 0v700h90v-520h5l200 520h105v-700h-90v520h-5l-205 -520h-100z" />
    <glyph glyph-name="uni040D" unicode="&#x40d;" horiz-adv-x="540" 
d="M70 0v700h90v-520h5l200 520h105v-700h-90v520h-5l-205 -520h-100zM233 760l-63 130h95l28 -130h-60z" />
    <glyph glyph-name="uni041A" unicode="&#x41a;" horiz-adv-x="495" 
d="M355.5 20q-29.5 30 -40.5 90l-25 130q-9 49 -33.5 69.5t-61.5 20.5h-35v-330h-90v700h90v-300h35q63 0 85 90l25 100q15 60 44 90t71 30q22 0 41 -4.5t19 -5.5v-45q-36 0 -54 -16.5t-26 -48.5l-25 -100q-15 -61 -35 -87t-55 -36v-4q41 -11 65 -37.5t35 -85.5l25 -130
q6 -29 25.5 -47t54.5 -18v-45q0 -1 -19 -5.5t-41 -4.5q-45 0 -74.5 30z" />
    <glyph glyph-name="uni040C" unicode="&#x40c;" horiz-adv-x="495" 
d="M220 740l35 130h95l-70 -130h-60zM355.5 20q-29.5 30 -40.5 90l-25 130q-9 49 -33.5 69.5t-61.5 20.5h-35v-330h-90v700h90v-300h35q63 0 85 90l25 100q15 60 44 90t71 30q22 0 41 -4.5t19 -5.5v-45q-36 0 -54 -16.5t-26 -48.5l-25 -100q-15 -61 -35 -87t-55 -36v-4
q41 -11 65 -37.5t35 -85.5l25 -130q6 -29 25.5 -47t54.5 -18v-45q0 -1 -19 -5.5t-41 -4.5q-45 0 -74.5 30z" />
    <glyph glyph-name="uni041B" unicode="&#x41b;" horiz-adv-x="530" 
d="M19 -5.5q-19 4.5 -19 5.5v45q44 0 70 38t30 127l25 490h335v-700h-90v630h-158l-22 -420q-6 -113 -41.5 -166.5t-88.5 -53.5q-22 0 -41 4.5z" />
    <glyph glyph-name="uni041C" unicode="&#x41c;" horiz-adv-x="740" 
d="M55 0l40 700h110l163 -480h4l163 480h110l40 -700h-90l-30 520h-5l-145 -430h-90l-145 430h-5l-30 -520h-90z" />
    <glyph glyph-name="uni041D" unicode="&#x41d;" horiz-adv-x="530" 
d="M70 0v700h90v-310h210v310h90v-700h-90v320h-210v-320h-90z" />
    <glyph glyph-name="uni041E" unicode="&#x41e;" horiz-adv-x="530" 
d="M147 22.5q-47 32.5 -72 112t-25 215.5t25 215.5t72 112t118 32.5t118 -32.5t72 -112t25 -215.5t-25 -215.5t-72 -112t-118 -32.5t-118 32.5zM390 350q0 300 -125 300t-125 -300t125 -300t125 300z" />
    <glyph glyph-name="uni041F" unicode="&#x41f;" horiz-adv-x="530" 
d="M70 0v700h390v-700h-90v630h-210v-630h-90z" />
    <glyph glyph-name="uni0420" unicode="&#x420;" horiz-adv-x="490" 
d="M70 690q67 20 160 20q82 0 129.5 -23t69 -77t21.5 -150q0 -97 -20 -152.5t-61.5 -79t-108.5 -23.5q-22 0 -51 3t-49 7v-215h-90v690zM230 275q47 0 75 16.5t41.5 56.5t13.5 112t-13.5 112t-41.5 56.5t-75 16.5h-70v-370h70z" />
    <glyph glyph-name="uni0421" unicode="&#x421;" horiz-adv-x="435" 
d="M148 22.5q-48 32.5 -73 111.5t-25 216q0 136 25 215t70.5 112t114.5 33q42 0 84 -6t66 -14v-45h-130q-67 0 -103.5 -65t-36.5 -230q0 -113 18 -178t51 -91t81 -26h130v-45q-24 -8 -65.5 -14t-84.5 -6q-74 0 -122 32.5z" />
    <glyph glyph-name="uni0422" unicode="&#x422;" horiz-adv-x="430" 
d="M170 0v630h-160v70h410v-70h-160v-630h-90z" />
    <glyph glyph-name="uni0423" unicode="&#x423;" horiz-adv-x="465" 
d="M76 10v45h70q42 0 66.5 31t41.5 114q-117 0 -149 120l-105 380h90l105 -380q8 -26 26 -40.5t46 -14.5l88 435h90l-109 -540q-18 -90 -55.5 -130t-104.5 -40q-40 0 -100 20z" />
    <glyph glyph-name="uni040E" unicode="&#x40e;" horiz-adv-x="460" 
d="M145.5 770q-36.5 20 -55.5 55l40 40q19 -19 44.5 -32t55.5 -13t55.5 13t44.5 32l40 -40q-19 -35 -55.5 -55t-84.5 -20t-84.5 20zM80 10v45h70q43 0 69 32.5t38 112.5q-56 0 -93 31t-54 89l-110 380h90l110 -380q8 -26 26 -40.5t44 -14.5l80 435h90l-100 -540
q-16 -90 -54 -130t-106 -40q-40 0 -100 20z" />
    <glyph glyph-name="uni0424" unicode="&#x424;" horiz-adv-x="690" 
d="M300 50q-126 8 -198 85.5t-72 214.5t72 214.5t198 85.5v70h90v-70q126 -8 198 -85.5t72 -214.5t-72 -214.5t-198 -85.5v-70h-90v70zM300 585q-51 -3 -92 -30.5t-64.5 -79.5t-23.5 -125t23.5 -125t64.5 -79.5t92 -30.5v470zM482 145.5q41 27.5 64.5 79.5t23.5 125
t-23.5 125t-64.5 79.5t-92 30.5v-470q51 3 92 30.5z" />
    <glyph glyph-name="uni0425" unicode="&#x425;" horiz-adv-x="460" 
d="M15 0l150 360l-135 340h90l110 -280l110 280h90l-135 -340l150 -360h-90l-125 300l-125 -300h-90z" />
    <glyph glyph-name="uni0427" unicode="&#x427;" horiz-adv-x="505" 
d="M345 270q-50 -10 -110 -10q-94 0 -139.5 47.5t-45.5 147.5v245h90v-245q0 -64 32 -94.5t103 -30.5h70v370h90v-700h-90v270z" />
    <glyph glyph-name="uni0426" unicode="&#x426;" horiz-adv-x="540" 
d="M430 0h-360v700h90v-630h200v630h90v-630h65v-220h-55q-22 60 -30 150z" />
    <glyph glyph-name="uni0428" unicode="&#x428;" horiz-adv-x="750" 
d="M70 0v700h90v-630h170v630h90v-630h170v630h90v-700h-610z" />
    <glyph glyph-name="uni0429" unicode="&#x429;" horiz-adv-x="770" 
d="M660 0h-590v700h90v-630h170v630h90v-630h170v630h90v-630h65v-220h-55q-22 60 -30 150z" />
    <glyph glyph-name="uni040F" unicode="&#x40f;" horiz-adv-x="530" 
d="M235 -150l-15 150h-150v700h90v-630h210v630h90v-700h-150l-15 -150h-60z" />
    <glyph glyph-name="uni042C" unicode="&#x42c;" horiz-adv-x="490" 
d="M70 10v690h90v-285q20 4 49 7t51 3q99 0 144.5 -51t45.5 -169q0 -78 -22 -125t-69.5 -68.5t-128.5 -21.5q-93 0 -160 20zM230 55q69 0 99.5 34.5t30.5 115.5t-30.5 115.5t-99.5 34.5h-70v-300h70z" />
    <glyph glyph-name="uni042A" unicode="&#x42a;" horiz-adv-x="550" 
d="M130 10v620h-110v70h200v-285q20 4 49 7t51 3q99 0 144.5 -51t45.5 -169q0 -78 -22 -125t-69.5 -68.5t-128.5 -21.5q-93 0 -160 20zM290 55q69 0 99.5 34.5t30.5 115.5t-30.5 115.5t-99.5 34.5h-70v-300h70z" />
    <glyph glyph-name="uni042B" unicode="&#x42b;" horiz-adv-x="690" 
d="M70 10v690h90v-285q20 4 49 7t51 3q96 0 140.5 -51t44.5 -169q0 -78 -21.5 -125t-68.5 -68.5t-125 -21.5q-93 0 -160 20zM530 0v700h90v-700h-90zM230 55q65 0 95 34.5t30 115.5t-30 115.5t-95 34.5h-70v-300h70z" />
    <glyph glyph-name="uni0409" unicode="&#x409;" horiz-adv-x="790" 
d="M19 -5.5q-19 4.5 -19 5.5v45q44 0 70 38t30 127l25 490h335v-285q20 4 49 7t51 3q99 0 144.5 -51t45.5 -169q0 -78 -22 -125t-69.5 -68.5t-128.5 -21.5q-93 0 -160 20v620h-158l-22 -420q-6 -113 -41.5 -166.5t-88.5 -53.5q-22 0 -41 4.5zM530 55q69 0 99.5 34.5
t30.5 115.5t-30.5 115.5t-99.5 34.5h-70v-300h70z" />
    <glyph glyph-name="uni040A" unicode="&#x40a;" horiz-adv-x="790" 
d="M371 9l-1 -9v335h-210v-335h-90v700h90v-295h210v295h90v-305q20 4 49 7t51 3q99 0 144.5 -49.5t45.5 -160.5q0 -110 -50.5 -157.5t-169.5 -47.5q-92 0 -159 19zM530 55q68 0 99 33t31 107t-31 107t-99 33h-70v-280h70z" />
    <glyph glyph-name="uni0405" unicode="&#x405;" horiz-adv-x="445" 
d="M101 -4q-42 6 -66 14v45h130q84 0 119.5 30t35.5 95q0 37 -16 61.5t-40 39.5t-67 35q-52 23 -84.5 45t-55 63t-22.5 106q0 91 46.5 135.5t143.5 44.5q42 0 84 -6t66 -14v-45h-130q-60 0 -90 -29t-30 -86q0 -40 17 -66.5t42.5 -42.5t68.5 -36q52 -25 82.5 -46t52.5 -59.5
t22 -99.5q0 -99 -51.5 -144.5t-173.5 -45.5q-42 0 -84 6z" />
    <glyph glyph-name="uni0404" unicode="&#x404;" horiz-adv-x="435" 
d="M148 22.5q-48 32.5 -73 111.5t-25 216q0 136 25 215t70.5 112t114.5 33q42 0 84 -6t66 -14v-45h-130q-133 0 -140 -250h210v-70h-210q4 -150 41 -210t109 -60h130v-45q-24 -8 -65.5 -14t-84.5 -6q-74 0 -122 32.5z" />
    <glyph glyph-name="uni042D" unicode="&#x42d;" horiz-adv-x="435" 
d="M81 -4q-42 6 -66 14v45h130q72 0 109 60t41 210h-210v70h210q-7 250 -140 250h-130v45q24 8 66 14t84 6q69 0 114.5 -33t70.5 -112t25 -215q0 -137 -25 -216t-73 -111.5t-122 -32.5q-42 0 -84 6z" />
    <glyph glyph-name="uni0406" unicode="&#x406;" horiz-adv-x="230" 
d="M70 0v700h90v-700h-90z" />
    <glyph glyph-name="uni0407" unicode="&#x407;" horiz-adv-x="230" 
d="M-10 770v110h90v-110h-90zM150 770v110h90v-110h-90zM70 0v700h90v-700h-90z" />
    <glyph glyph-name="uni0408" unicode="&#x408;" horiz-adv-x="350" 
d="M0 10v45h90q56 0 83 40.5t27 144.5v460h90v-460q0 -95 -20.5 -149t-64 -77.5t-115.5 -23.5q-40 0 -90 20z" />
    <glyph glyph-name="uni040B" unicode="&#x40b;" horiz-adv-x="560" 
d="M125 630h-125v70h360v-70h-145v-200q50 10 110 10q94 0 139.5 -47.5t45.5 -147.5v-245h-90v245q0 64 -32 94.5t-103 30.5h-70v-370h-90v630z" />
    <glyph glyph-name="uni042E" unicode="&#x42e;" horiz-adv-x="705" 
d="M336.5 20q-43.5 30 -69 102.5t-32.5 197.5h-75v-320h-90v700h90v-310h75q7 120 32.5 190.5t69 100t108.5 29.5q69 0 114.5 -33t70.5 -112t25 -215t-25 -215t-70.5 -112t-114.5 -33q-65 0 -108.5 30zM531.5 117.5q33.5 67.5 33.5 232.5t-33.5 232.5t-86.5 67.5
q-52 0 -86 -67.5t-34 -232.5t34 -232.5t86 -67.5q53 0 86.5 67.5z" />
    <glyph glyph-name="uni042F" unicode="&#x42f;" horiz-adv-x="500" 
d="M33 -6q-18 4 -23 6v45q36 0 54 16.5t26 48.5l20 85q22 94 75 111v4q-35 5 -65.5 28t-50 64t-19.5 98q0 76 22 121.5t69.5 67t128.5 21.5q93 0 160 -20v-690h-90v285h-40q-73 0 -95 -90l-20 -85q-15 -60 -44 -90t-71 -30q-19 0 -37 4zM340 355v290h-70q-68 0 -99 -33.5
t-31 -111.5t31 -111.5t99 -33.5h70z" />
    <glyph glyph-name="uni0402" unicode="&#x402;" horiz-adv-x="555" 
d="M333.5 -5q-19.5 5 -33.5 15v40h50q32 0 51 26.5t19 83.5v85q0 64 -32 94.5t-103 30.5h-70v-370h-90v630h-125v70h360v-70h-145v-200q50 10 110 10q94 0 139.5 -47.5t45.5 -147.5v-85q0 -88 -35.5 -129t-104.5 -41q-17 0 -36.5 5z" />
    <glyph glyph-name="uni0462" unicode="&#x462;" horiz-adv-x="530" 
d="M444.5 374q45.5 -51 45.5 -169q0 -78 -22 -125t-69.5 -68.5t-128.5 -21.5q-93 0 -160 20v535h-85v65h85v90h90v-90h150v-45q-24 -8 -58 -14t-62 -6h-30v-130q20 4 49 7t51 3q99 0 144.5 -51zM369.5 89.5q30.5 34.5 30.5 115.5t-30.5 115.5t-99.5 34.5h-70v-300h70
q69 0 99.5 34.5z" />
    <glyph glyph-name="uni046A" unicode="&#x46a;" horiz-adv-x="726" 
d="M673.5 63q19.5 -18 54.5 -18v-45q0 -1 -19 -5.5t-41 -4.5q-45 0 -74.5 30t-40.5 90l-25 130q-9 49 -33.5 69.5t-61.5 20.5h-25v-330h-90v330h-25q-37 0 -61.5 -20.5t-33.5 -69.5l-25 -130q-11 -60 -40.5 -90t-74.5 -30q-22 0 -41 4.5t-19 5.5v45q35 0 54.5 18t25.5 47
l25 130q12 62 43 98.5t86 51.5l-202 272v38h664v-38l-201 -271q55 -14 86 -51t44 -100l25 -130q6 -29 25.5 -47zM570 630h-414l168 -230h79z" />
    <glyph glyph-name="uni0472" unicode="&#x472;" horiz-adv-x="530" 
d="M383 677.5q47 -32.5 72 -112t25 -215.5t-25 -215.5t-72 -112t-118 -32.5t-118 32.5t-72 112t-25 215.5t25 215.5t72 112t118 32.5t118 -32.5zM140 382h250q-8 268 -125 268t-125 -268zM390 331q-52 -14 -100 -14h-150q8 -267 125 -267q121 0 125 281z" />
    <glyph glyph-name="uni0474" unicode="&#x474;" horiz-adv-x="502" 
d="M20 700h90l133 -605h4l106 483q15 68 46.5 100t72.5 32q22 0 41 -4.5t19 -5.5v-45q-72 0 -92 -87l-130 -568h-130z" />
    <glyph glyph-name="uni0492" unicode="&#x492;" horiz-adv-x="410" 
d="M160 630v-248h148v-45q-24 -8 -58 -14t-62 -6h-28v-317h-90v317h-52v65h52v318h320v-70h-230z" />
    <glyph glyph-name="uni0494" unicode="&#x494;" horiz-adv-x="500" 
d="M409.5 392.5q45.5 -47.5 45.5 -147.5v-215q0 -88 -35.5 -129t-104.5 -41q-17 0 -36.5 5t-33.5 15v40h50q32 0 51 26.5t19 83.5v215q0 64 -32 94.5t-103 30.5h-70v-370h-90v700h320v-70h-230v-200q50 10 110 10q94 0 139.5 -47.5z" />
    <glyph glyph-name="uni0496" unicode="&#x496;" horiz-adv-x="730" 
d="M750 70v-220h-55q-20 52 -30 150q-41 3 -68 31t-37 79l-25 130q-9 49 -33.5 69.5t-61.5 20.5h-25v-330h-90v330h-25q-37 0 -61.5 -20.5t-33.5 -69.5l-25 -130q-11 -60 -40.5 -90t-74.5 -30q-22 0 -41 4.5t-19 5.5v45q35 0 54.5 18t25.5 47l25 130q11 59 35 85.5t65 37.5
v4q-35 10 -55 36t-35 87l-25 100q-8 32 -26 48.5t-54 16.5v45q0 1 19 5.5t41 4.5q42 0 71 -30t44 -90l25 -100q22 -90 85 -90h25v300h90v-300h25q63 0 85 90l25 100q15 60 44 90t71 30q22 0 41 -4.5t19 -5.5v-45q-36 0 -54 -16.5t-26 -48.5l-25 -100q-15 -61 -35 -87
t-55 -36v-4q41 -11 65 -37.5t35 -85.5l23 -120q5 -25 25 -37.5t57 -12.5h15z" />
    <glyph glyph-name="uni0498" unicode="&#x498;" horiz-adv-x="425" 
d="M350 55.5q-35 -46.5 -115 -59.5v-141h-55q-20 54 -29 135q-36 1 -75 6.5t-61 13.5v45h140q75 0 107.5 31.5t32.5 103.5q0 75 -32.5 107.5t-107.5 32.5h-70v70h60q67 0 98.5 30.5t31.5 94.5q0 61 -31.5 90.5t-98.5 29.5h-120v45q23 8 62 14t68 6q111 0 160.5 -45
t49.5 -140q0 -59 -22 -95.5t-68 -57.5v-4q57 -16 83.5 -63t26.5 -115q0 -88 -35 -134.5z" />
    <glyph glyph-name="uni049A" unicode="&#x49a;" horiz-adv-x="485" 
d="M505 70v-220h-55q-20 52 -30 150q-42 3 -68.5 31t-36.5 79l-25 130q-9 49 -33.5 69.5t-61.5 20.5h-35v-330h-90v700h90v-300h35q63 0 85 90l25 100q15 60 44 90t71 30q22 0 41 -4.5t19 -5.5v-45q-36 0 -54 -16.5t-26 -48.5l-25 -100q-15 -61 -35 -87t-55 -36v-4
q41 -11 65 -37.5t35 -85.5l23 -120q9 -50 82 -50h15z" />
    <glyph glyph-name="uni049C" unicode="&#x49c;" horiz-adv-x="495" 
d="M455.5 63q19.5 -18 54.5 -18v-45q0 -1 -19 -5.5t-41 -4.5q-45 0 -74.5 30t-40.5 90l-25 130q-13 71 -63 86v-108h-44v112h-43v-330h-90v700h90v-300h43v108h44v-101q36 18 53 83l25 100q15 60 44 90t71 30q22 0 41 -4.5t19 -5.5v-45q-36 0 -54 -16.5t-26 -48.5l-25 -100
q-15 -61 -35 -87t-55 -36v-4q41 -11 65 -37.5t35 -85.5l25 -130q6 -29 25.5 -47z" />
    <glyph glyph-name="uni04A0" unicode="&#x4a0;" horiz-adv-x="555" 
d="M495.5 63q19.5 -18 54.5 -18v-45q0 -1 -19 -5.5t-41 -4.5q-45 0 -74.5 30t-40.5 90l-25 130q-9 49 -33.5 69.5t-61.5 20.5h-35v-330h-90v630h-110v70h200v-300h35q63 0 85 90l25 100q15 60 44 90t71 30q22 0 41 -4.5t19 -5.5v-45q-36 0 -54 -16.5t-26 -48.5l-25 -100
q-15 -61 -35 -87t-55 -36v-4q41 -11 65 -37.5t35 -85.5l25 -130q6 -29 25.5 -47z" />
    <glyph glyph-name="uni04A2" unicode="&#x4a2;" horiz-adv-x="530" 
d="M525 70v-220h-55q-22 60 -30 150h-70v320h-210v-320h-90v700h90v-310h210v310h90v-630h65z" />
    <glyph glyph-name="uni0524" unicode="&#x524;" horiz-adv-x="530" 
d="M525 70v-220h-55q-22 60 -30 150h-70v630h-210v-630h-90v700h390v-630h65z" />
    <glyph glyph-name="uni04AA" unicode="&#x4aa;" horiz-adv-x="435" 
d="M420 10q-43 -14 -105 -18v-137h-55q-21 56 -29 137q-91 12 -136 93.5t-45 264.5q0 136 25 215t70.5 112t114.5 33q42 0 84 -6t66 -14v-45h-130q-67 0 -103.5 -65t-36.5 -230q0 -113 18 -178t51 -91t81 -26h130v-45z" />
    <glyph glyph-name="uni04AE" unicode="&#x4ae;" 
d="M180 0v220l-170 480h90l125 -355l125 355h90l-170 -480v-220h-90z" />
    <glyph glyph-name="uni04B0" unicode="&#x4b0;" 
d="M288 272h82v-45q-51 -16 -100 -19v-208h-90v207h-100v65h82l-152 428h90l125 -355l125 355h90z" />
    <glyph glyph-name="uni04B6" unicode="&#x4b6;" horiz-adv-x="505" 
d="M500 70v-220h-55q-22 60 -30 150h-70v270q-50 -10 -110 -10q-94 0 -139.5 47.5t-45.5 147.5v245h90v-245q0 -64 32 -94.5t103 -30.5h70v370h90v-630h65z" />
    <glyph glyph-name="uni04B8" unicode="&#x4b8;" horiz-adv-x="505" 
d="M435 700v-700h-90v270q-37 -7 -70 -9v-113h-44v112q-92 1 -136.5 48t-44.5 147v245h90v-245q0 -53 22 -83t69 -38v104h44v-108h70v370h90z" />
    <glyph glyph-name="uni04BA" unicode="&#x4ba;" horiz-adv-x="505" 
d="M160 430q50 10 110 10q94 0 139.5 -47.5t45.5 -147.5v-245h-90v245q0 64 -32 94.5t-103 30.5h-70v-370h-90v700h90v-270z" />
    <glyph glyph-name="uni04C0" unicode="&#x4c0;" horiz-adv-x="230" 
d="M70 0v700h90v-700h-90z" />
    <glyph glyph-name="uni04C1" unicode="&#x4c1;" horiz-adv-x="740" 
d="M24 -5.5q-19 4.5 -19 5.5v45q35 0 54.5 18t25.5 47l25 130q11 59 35 85.5t65 37.5v4q-35 10 -55 36t-35 87l-25 100q-8 32 -26 48.5t-54 16.5v45q0 1 19 5.5t41 4.5q42 0 71 -30t44 -90l25 -100q22 -90 85 -90h25v300h90v-300h25q63 0 85 90l25 100q15 60 44 90t71 30
q22 0 41 -4.5t19 -5.5v-45q-36 0 -54 -16.5t-26 -48.5l-25 -100q-15 -61 -35 -87t-55 -36v-4q41 -11 65 -37.5t35 -85.5l25 -130q6 -29 25.5 -47t54.5 -18v-45q0 -1 -19 -5.5t-41 -4.5q-45 0 -74.5 30t-40.5 90l-25 130q-9 49 -33.5 69.5t-61.5 20.5h-25v-330h-90v330h-25
q-37 0 -61.5 -20.5t-33.5 -69.5l-25 -130q-11 -60 -40.5 -90t-74.5 -30q-22 0 -41 4.5zM285.5 780q-36.5 20 -55.5 55l40 40q19 -19 44.5 -32t55.5 -13t55.5 13t44.5 32l40 -40q-19 -35 -55.5 -55t-84.5 -20t-84.5 20z" />
    <glyph glyph-name="uni04CB" unicode="&#x4cb;" horiz-adv-x="505" 
d="M435 700v-700h-70q-7 -90 -30 -150h-55v220h65v200q-50 -10 -110 -10q-94 0 -139.5 47.5t-45.5 147.5v245h90v-245q0 -64 32 -94.5t103 -30.5h70v370h90z" />
    <glyph glyph-name="uni04D0" unicode="&#x4d0;" horiz-adv-x="510" 
d="M20 0l170 700h130l170 -700h-90l-45 180h-200l-45 -180h-90zM170 250h170l-83 350h-4zM170.5 780q-36.5 20 -55.5 55l40 40q19 -19 44.5 -32t55.5 -13t55.5 13t44.5 32l40 -40q-19 -35 -55.5 -55t-84.5 -20t-84.5 20z" />
    <glyph glyph-name="uni04D2" unicode="&#x4d2;" horiz-adv-x="510" 
d="M20 0l170 700h130l170 -700h-90l-45 180h-200l-45 -180h-90zM170 250h170l-83 350h-4zM130 780v110h90v-110h-90zM290 780v110h90v-110h-90z" />
    <glyph glyph-name="uni04D6" unicode="&#x4d6;" 
d="M70 0v700h340v-70h-250v-230h220v-70h-220v-260h250v-70h-340zM170.5 780q-36.5 20 -55.5 55l40 40q19 -19 44.5 -32t55.5 -13t55.5 13t44.5 32l40 -40q-19 -35 -55.5 -55t-84.5 -20t-84.5 20z" />
    <glyph glyph-name="uni04D8" unicode="&#x4d8;" horiz-adv-x="527" 
d="M136.5 22.5q-44.5 32.5 -65.5 110t-21 213.5v42h339q0 97 -19 152.5t-60 80t-110 24.5h-111v45q61 19 139 19q95 0 148.5 -33.5t77 -111.5t23.5 -218q0 -134 -24.5 -212t-72.5 -111t-124 -33q-75 0 -119.5 32.5zM352 112.5q37 62.5 37 207.5h-253q2 -146 35 -208t85 -62
q59 0 96 62.5z" />
    <glyph glyph-name="uni04DC" unicode="&#x4dc;" horiz-adv-x="740" 
d="M24 -5.5q-19 4.5 -19 5.5v45q35 0 54.5 18t25.5 47l25 130q11 59 35 85.5t65 37.5v4q-35 10 -55 36t-35 87l-25 100q-8 32 -26 48.5t-54 16.5v45q0 1 19 5.5t41 4.5q42 0 71 -30t44 -90l25 -100q22 -90 85 -90h25v300h90v-300h25q63 0 85 90l25 100q15 60 44 90t71 30
q22 0 41 -4.5t19 -5.5v-45q-36 0 -54 -16.5t-26 -48.5l-25 -100q-15 -61 -35 -87t-55 -36v-4q41 -11 65 -37.5t35 -85.5l25 -130q6 -29 25.5 -47t54.5 -18v-45q0 -1 -19 -5.5t-41 -4.5q-45 0 -74.5 30t-40.5 90l-25 130q-9 49 -33.5 69.5t-61.5 20.5h-25v-330h-90v330h-25
q-37 0 -61.5 -20.5t-33.5 -69.5l-25 -130q-11 -60 -40.5 -90t-74.5 -30q-22 0 -41 4.5zM245 780v110h90v-110h-90zM405 780v110h90v-110h-90z" />
    <glyph glyph-name="uni04DE" unicode="&#x4de;" horiz-adv-x="425" 
d="M79 -4q-40 6 -64 14v45h140q75 0 107.5 31.5t32.5 103.5q0 75 -32.5 107.5t-107.5 32.5h-70v70h60q67 0 98.5 30.5t31.5 94.5q0 61 -31.5 90.5t-98.5 29.5h-120v45q23 8 62 14t68 6q111 0 160.5 -45t49.5 -140q0 -59 -22 -95.5t-68 -57.5v-4q57 -16 83.5 -63t26.5 -115
q0 -71 -22.5 -115t-72.5 -64.5t-135 -20.5q-36 0 -76 6zM45 780v110h90v-110h-90zM205 780v110h90v-110h-90z" />
    <glyph glyph-name="uni04E2" unicode="&#x4e2;" horiz-adv-x="540" 
d="M70 0v700h90v-520h5l200 520h105v-700h-90v520h-5l-205 -520h-100zM155 810v60h230v-60h-230z" />
    <glyph glyph-name="uni04E4" unicode="&#x4e4;" horiz-adv-x="540" 
d="M70 0v700h90v-520h5l200 520h105v-700h-90v520h-5l-205 -520h-100zM145 780v110h90v-110h-90zM305 780v110h90v-110h-90z" />
    <glyph glyph-name="uni04E6" unicode="&#x4e6;" horiz-adv-x="530" 
d="M147 22.5q-47 32.5 -72 112t-25 215.5t25 215.5t72 112t118 32.5t118 -32.5t72 -112t25 -215.5t-25 -215.5t-72 -112t-118 -32.5t-118 32.5zM390 350q0 300 -125 300t-125 -300t125 -300t125 300zM140 780v110h90v-110h-90zM300 780v110h90v-110h-90z" />
    <glyph glyph-name="uni04E8" unicode="&#x4e8;" horiz-adv-x="530" 
d="M383 677.5q47 -32.5 72 -112t25 -215.5t-25 -215.5t-72 -112t-118 -32.5t-118 32.5t-72 112t-25 215.5t25 215.5t72 112t118 32.5t118 -32.5zM140 382h250q-8 268 -125 268t-125 -268zM390 331q-52 -14 -100 -14h-150q8 -267 125 -267q121 0 125 281z" />
    <glyph glyph-name="uni04EE" unicode="&#x4ee;" horiz-adv-x="465" 
d="M76 10v45h70q42 0 66.5 31t41.5 114q-117 0 -149 120l-105 380h90l105 -380q8 -26 26 -40.5t46 -14.5l88 435h90l-109 -540q-18 -90 -55.5 -130t-104.5 -40q-40 0 -100 20zM118 810v60h230v-60h-230z" />
    <glyph glyph-name="uni04F0" unicode="&#x4f0;" horiz-adv-x="465" 
d="M76 10v45h70q42 0 66.5 31t41.5 114q-117 0 -149 120l-105 380h90l105 -380q8 -26 26 -40.5t46 -14.5l88 435h90l-109 -540q-18 -90 -55.5 -130t-104.5 -40q-40 0 -100 20zM108 780v110h90v-110h-90zM268 780v110h90v-110h-90z" />
    <glyph glyph-name="uni04F2" unicode="&#x4f2;" horiz-adv-x="465" 
d="M76 10v45h70q42 0 66.5 31t41.5 114q-117 0 -149 120l-105 380h90l105 -380q8 -26 26 -40.5t46 -14.5l88 435h90l-109 -540q-18 -90 -55.5 -130t-104.5 -40q-40 0 -100 20zM150 760l55 126h90l-90 -126h-55zM265 760l55 126h90l-90 -126h-55z" />
    <glyph glyph-name="uni04F4" unicode="&#x4f4;" horiz-adv-x="505" 
d="M345 270q-50 -10 -110 -10q-94 0 -139.5 47.5t-45.5 147.5v245h90v-245q0 -64 32 -94.5t103 -30.5h70v370h90v-700h-90v270zM128 780v110h90v-110h-90zM288 780v110h90v-110h-90z" />
    <glyph glyph-name="uni04F6" unicode="&#x4f6;" horiz-adv-x="410" 
d="M160 630v-560h65v-220h-55q-22 60 -30 150h-70v700h320v-70h-230z" />
    <glyph glyph-name="uni04F8" unicode="&#x4f8;" horiz-adv-x="690" 
d="M70 10v690h90v-285q20 4 49 7t51 3q96 0 140.5 -51t44.5 -169q0 -78 -21.5 -125t-68.5 -68.5t-125 -21.5q-93 0 -160 20zM530 0v700h90v-700h-90zM230 55q65 0 95 34.5t30 115.5t-30 115.5t-95 34.5h-70v-300h70zM220 780v110h90v-110h-90zM380 780v110h90v-110h-90z" />
    <glyph glyph-name="uni051A" unicode="&#x51a;" horiz-adv-x="540" 
d="M147 22.5q-47 32.5 -72 112t-25 215.5t25 215.5t72 112t118 32.5t118 -32.5t72 -112t25 -215.5q0 -113 -17.5 -185t-52.5 -115q60 0 120 -20v-40h-265q-71 0 -118 32.5zM390 350q0 300 -125 300t-125 -300t125 -300t125 300z" />
    <glyph glyph-name="uni051C" unicode="&#x51c;" horiz-adv-x="720" 
d="M135 0l-115 700h90l90 -540h5l110 410h90l110 -410h5l90 540h90l-115 -700h-110l-113 420h-4l-113 -420h-110z" />
    <glyph glyph-name="uni0430" unicode="&#x430;" 
d="M83 24.5q-38 34.5 -38 125.5q0 88 38 121.5t112 33.5q40 0 100 -10v45q0 64 -26.5 87t-83.5 23h-100v40q24 8 58 14t62 6q64 0 102.5 -14t58 -50.5t19.5 -105.5v-340h-75l-5 30h-5q-19 -19 -47 -29.5t-58 -10.5q-74 0 -112 34.5zM263 56q20 6 32 14v175h-70
q-42 0 -66 -21.5t-24 -73.5q0 -56 24 -78t66 -22q18 0 38 6z" />
    <glyph glyph-name="uni0431" unicode="&#x431;" horiz-adv-x="475" 
d="M135 13q-40 23 -60 76.5t-20 145.5v165q0 116 24 180t77.5 92.5t148.5 32.5l110 5l5 -40q-32 -14 -62.5 -23t-67.5 -12q-77 -8 -111 -48t-34 -132q25 12 49 18.5t56 6.5q90 0 132.5 -55.5t42.5 -189.5q0 -92 -20 -145.5t-60 -76.5t-105 -23t-105 23zM310 87.5
q25 42.5 25 147.5q0 104 -28 144.5t-87 40.5q-21 0 -42 -6t-33 -14v-165q0 -105 25 -147.5t70 -42.5t70 42.5z" />
    <glyph glyph-name="uni0432" unicode="&#x432;" 
d="M65 10v480q67 20 150 20q91 0 133 -30.5t42 -109.5q0 -44 -19.5 -67.5t-50.5 -35.5v-4q39 -11 64.5 -41t25.5 -82q0 -59 -20 -91.5t-59.5 -45.5t-105.5 -13q-93 0 -160 20zM215 290q85 0 85 80t-85 80h-60v-160h60zM225 50q48 0 71.5 20t23.5 70t-23.5 70t-71.5 20h-70
v-180h70z" />
    <glyph glyph-name="uni0433" unicode="&#x433;" horiz-adv-x="365" 
d="M65 0v500h290v-65h-200v-435h-90z" />
    <glyph glyph-name="uni0453" unicode="&#x453;" horiz-adv-x="365" 
d="M175 560l35 130h95l-70 -130h-60zM65 0v500h290v-65h-200v-435h-90z" />
    <glyph glyph-name="uni0491" unicode="&#x491;" horiz-adv-x="365" 
d="M65 0v500h217l8 90h65v-155h-200v-435h-90z" />
    <glyph glyph-name="uni0434" unicode="&#x434;" horiz-adv-x="495" 
d="M10 65h45q17 26 29.5 59.5t15.5 85.5l15 290h295v-435h60v-210h-55q-21 56 -30 145h-290q-9 -89 -30 -145h-55v210zM320 65v370h-118l-12 -225q-3 -52 -15.5 -85.5t-29.5 -59.5h175z" />
    <glyph glyph-name="uni0435" unicode="&#x435;" horiz-adv-x="440" 
d="M132.5 13.5q-45.5 23.5 -66.5 80t-21 156.5q0 98 19.5 155t57.5 81t98 24t98 -24t57.5 -81t19.5 -155v-30h-260q0 -65 14 -102t44.5 -52.5t81.5 -15.5h100v-40q-24 -8 -58 -14t-62 -6q-77 0 -122.5 23.5zM305 280q0 94 -23.5 134.5t-61.5 40.5t-61.5 -40.5t-23.5 -134.5
h170z" />
    <glyph glyph-name="uni0450" unicode="&#x450;" horiz-adv-x="440" 
d="M132.5 13.5q-45.5 23.5 -66.5 80t-21 156.5q0 98 19.5 155t57.5 81t98 24t98 -24t57.5 -81t19.5 -155v-30h-260q0 -65 14 -102t44.5 -52.5t81.5 -15.5h100v-40q-24 -8 -58 -14t-62 -6q-77 0 -122.5 23.5zM305 280q0 94 -23.5 134.5t-61.5 40.5t-61.5 -40.5t-23.5 -134.5
h170zM183 560l-63 130h95l28 -130h-60z" />
    <glyph glyph-name="uni0451" unicode="&#x451;" horiz-adv-x="440" 
d="M95 570v110h90v-110h-90zM255 570v110h90v-110h-90zM132.5 13.5q-45.5 23.5 -66.5 80t-21 156.5q0 98 19.5 155t57.5 81t98 24t98 -24t57.5 -81t19.5 -155v-30h-260q0 -65 14 -102t44.5 -52.5t81.5 -15.5h100v-40q-24 -8 -58 -14t-62 -6q-77 0 -122.5 23.5zM305 280
q0 94 -23.5 134.5t-61.5 40.5t-61.5 -40.5t-23.5 -134.5h170z" />
    <glyph glyph-name="uni0436" unicode="&#x436;" horiz-adv-x="642" 
d="M30 -6q-16 4 -20 6v40q51 0 60 35l25 95q12 46 31.5 66t49.5 27v4q-24 6 -40 25.5t-31 62.5l-25 70q-6 17 -19 26t-41 9v40q5 2 22 6t33 4q40 0 62 -20t38 -65l25 -70q21 -60 56 -60h20v205h90v-205h20q35 0 56 60l25 70q16 45 38 65t62 20q16 0 33 -4t22 -6v-40
q-28 0 -41 -9t-19 -26l-25 -70q-15 -43 -31 -62.5t-40 -25.5v-4q30 -7 49.5 -27t31.5 -66l25 -95q9 -35 60 -35v-40q-4 -2 -20 -6t-35 -4q-40 0 -64 21.5t-36 63.5l-25 95q-8 30 -25 45t-41 15h-20v-230h-90v230h-20q-24 0 -41 -15t-25 -45l-25 -95q-12 -42 -36 -63.5
t-64 -21.5q-19 0 -35 4z" />
    <glyph glyph-name="uni0437" unicode="&#x437;" horiz-adv-x="380" 
d="M73 -4q-34 6 -58 14v40h120q59 0 87 20t28 70q0 90 -85 90h-85v60h75q38 0 61.5 19t23.5 61q0 44 -28 62t-87 18h-100v40q24 8 58 14t62 6q98 0 141.5 -30t43.5 -110q0 -44 -22 -67.5t-58 -35.5v-4q39 -11 64.5 -41t25.5 -82q0 -60 -21 -92t-64.5 -45t-119.5 -13
q-28 0 -62 6z" />
    <glyph glyph-name="uni0438" unicode="&#x438;" horiz-adv-x="480" 
d="M65 0v500h90v-340h5l150 340h105v-500h-90v350h-5l-160 -350h-95z" />
    <glyph glyph-name="uni0439" unicode="&#x439;" horiz-adv-x="480" 
d="M154 579q-34 19 -54 51l40 40q17 -17 42 -28.5t53 -11.5t53 11.5t42 28.5l40 -40q-20 -32 -54 -51t-81 -19t-81 19zM65 0v500h90v-340h5l150 340h105v-500h-90v350h-5l-160 -350h-95z" />
    <glyph glyph-name="uni045D" unicode="&#x45d;" horiz-adv-x="480" 
d="M65 0v500h90v-340h5l150 340h105v-500h-90v350h-5l-160 -350h-95zM203 560l-63 130h95l28 -130h-60z" />
    <glyph glyph-name="uni043A" unicode="&#x43a;" horiz-adv-x="445" 
d="M316 11.5q-24 21.5 -36 63.5l-25 95q-8 30 -25 45t-41 15h-34v-230h-90v500h90v-205h34q35 0 56 60l25 70q16 45 38 65t62 20q16 0 33 -4t22 -6v-40q-28 0 -41 -9t-19 -26l-25 -70q-15 -43 -31 -62.5t-40 -25.5v-4q30 -7 49.5 -27t31.5 -66l25 -95q9 -35 60 -35v-40
q-4 -2 -20 -6t-35 -4q-40 0 -64 21.5z" />
    <glyph glyph-name="uni045C" unicode="&#x45c;" horiz-adv-x="445" 
d="M195 560l35 130h95l-70 -130h-60zM316 11.5q-24 21.5 -36 63.5l-25 95q-8 30 -25 45t-41 15h-34v-230h-90v500h90v-205h34q35 0 56 60l25 70q16 45 38 65t62 20q16 0 33 -4t22 -6v-40q-28 0 -41 -9t-19 -26l-25 -70q-15 -43 -31 -62.5t-40 -25.5v-4q30 -7 49.5 -27
t31.5 -66l25 -95q9 -35 60 -35v-40q-4 -2 -20 -6t-35 -4q-40 0 -64 21.5z" />
    <glyph glyph-name="uni043B" unicode="&#x43b;" horiz-adv-x="471" 
d="M15.5 -5q-14.5 5 -15.5 5v40q32 0 54 30t26 90l20 340h306v-500h-90v435h-130l-16 -275q-5 -86 -36 -128t-79 -42q-25 0 -39.5 5z" />
    <glyph glyph-name="uni043C" unicode="&#x43c;" horiz-adv-x="630" 
d="M55 0l35 500h105l118 -315h4l118 315h105l35 -500h-85l-25 355h-5l-105 -280h-80l-105 280h-5l-25 -355h-85z" />
    <glyph glyph-name="uni043D" unicode="&#x43d;" horiz-adv-x="475" 
d="M65 0v500h90v-215h165v215h90v-500h-90v220h-165v-220h-90z" />
    <glyph glyph-name="uni043E" unicode="&#x43e;" horiz-adv-x="460" 
d="M90.5 49.5q-45.5 59.5 -45.5 200.5t45.5 200.5t139.5 59.5t139.5 -59.5t45.5 -200.5t-45.5 -200.5t-139.5 -59.5t-139.5 59.5zM298.5 92q26.5 47 26.5 158t-26.5 158t-68.5 47t-68.5 -47t-26.5 -158t26.5 -158t68.5 -47t68.5 47z" />
    <glyph glyph-name="uni043F" unicode="&#x43f;" horiz-adv-x="475" 
d="M65 0v500h345v-500h-90v435h-165v-435h-90z" />
    <glyph glyph-name="uni0440" unicode="&#x440;" horiz-adv-x="465" 
d="M65 500h75l5 -30h5q19 19 47 29.5t58 10.5q83 0 124 -58t41 -202t-41 -202t-124 -58q-50 0 -100 25v-215h-90v700zM304 93.5q26 43.5 26 156.5t-26 156.5t-79 43.5q-18 0 -38 -6t-32 -14v-360q12 -8 32 -14t38 -6q53 0 79 43.5z" />
    <glyph glyph-name="uni0441" unicode="&#x441;" horiz-adv-x="375" 
d="M128 14q-42 24 -62.5 80.5t-20.5 155.5t20 155.5t60 80.5t105 24q28 0 62 -6t58 -14v-40h-100q-40 0 -64.5 -17.5t-37.5 -61t-13 -121.5q0 -79 13.5 -122.5t40 -60.5t71.5 -17h100v-40q-24 -8 -58 -14t-62 -6q-70 0 -112 24z" />
    <glyph glyph-name="uni0442" unicode="&#x442;" horiz-adv-x="370" 
d="M140 0v435h-130v65h350v-65h-130v-435h-90z" />
    <glyph glyph-name="uni0443" unicode="&#x443;" horiz-adv-x="445" 
d="M65 -190v40h70q26 0 43 11.5t29.5 41.5t22.5 87q-93 0 -120 120l-90 390h90l90 -390q12 -55 42 -55l83 445h90l-95 -510q-20 -105 -59 -152.5t-106 -47.5q-40 0 -90 20z" />
    <glyph glyph-name="uni045E" unicode="&#x45e;" horiz-adv-x="445" 
d="M144 579q-34 19 -54 51l40 40q17 -17 42 -28.5t53 -11.5t53 11.5t42 28.5l40 -40q-20 -32 -54 -51t-81 -19t-81 19zM65 -190v40h70q26 0 43 11.5t29.5 41.5t22.5 87q-93 0 -120 120l-90 390h90l90 -390q12 -55 42 -55l83 445h90l-95 -510q-20 -105 -59 -152.5t-106 -47.5
q-40 0 -90 20z" />
    <glyph glyph-name="uni0444" unicode="&#x444;" horiz-adv-x="600" 
d="M255 -5q-104 8 -159.5 71t-55.5 184t55.5 184t159.5 71v195h90v-195q104 -8 159.5 -71t55.5 -184t-55.5 -184t-159.5 -71v-195h-90v195zM255 445q-60 -4 -92.5 -49.5t-32.5 -145.5t32.5 -145.5t92.5 -49.5v390zM437.5 104.5q32.5 45.5 32.5 145.5t-32.5 145.5t-92.5 49.5
v-390q60 4 92.5 49.5z" />
    <glyph glyph-name="uni0445" unicode="&#x445;" horiz-adv-x="400" 
d="M15 0l125 255l-121 245h90l91 -185l91 185h90l-121 -245l125 -255h-90l-95 195l-95 -195h-90z" />
    <glyph glyph-name="uni0447" unicode="&#x447;" horiz-adv-x="455" 
d="M300 190q-50 -10 -115 -10q-66 0 -103 32t-37 113v175h90v-175q0 -46 26 -65.5t74 -19.5h65v260h90v-500h-90v190z" />
    <glyph glyph-name="uni0446" unicode="&#x446;" horiz-adv-x="490" 
d="M380 0h-315v500h90v-435h160v435h90v-435h60v-210h-55q-21 56 -30 145z" />
    <glyph glyph-name="uni0448" unicode="&#x448;" horiz-adv-x="670" 
d="M65 0v500h90v-435h135v435h90v-435h135v435h90v-500h-540z" />
    <glyph glyph-name="uni0449" unicode="&#x449;" horiz-adv-x="690" 
d="M580 0h-515v500h90v-435h135v435h90v-435h135v435h90v-435h60v-210h-55q-21 56 -30 145z" />
    <glyph glyph-name="uni045F" unicode="&#x45f;" horiz-adv-x="475" 
d="M207 -140l-15 140h-127v500h90v-435h165v435h90v-500h-128l-15 -140h-60z" />
    <glyph glyph-name="uni044C" unicode="&#x44c;" 
d="M65 10v490h90v-195q60 10 100 10q78 0 116.5 -35t38.5 -130q0 -64 -20 -98.5t-59.5 -48t-105.5 -13.5q-93 0 -160 20zM225 50q48 0 71.5 21.5t23.5 78.5t-23.5 78.5t-71.5 21.5h-70v-200h70z" />
    <glyph glyph-name="uni044A" unicode="&#x44a;" horiz-adv-x="505" 
d="M120 10v425h-100v65h190v-195q60 10 100 10q78 0 116.5 -35t38.5 -130q0 -64 -20 -98.5t-59.5 -48t-105.5 -13.5q-93 0 -160 20zM280 50q48 0 71.5 21.5t23.5 78.5t-23.5 78.5t-71.5 21.5h-70v-200h70z" />
    <glyph glyph-name="uni044B" unicode="&#x44b;" horiz-adv-x="630" 
d="M65 10v490h90v-195q60 10 100 10q74 0 112 -35t38 -130q0 -64 -19.5 -98.5t-58 -48t-102.5 -13.5q-93 0 -160 20zM475 0v500h90v-500h-90zM225 50q45 0 67.5 21.5t22.5 78.5t-22.5 78.5t-67.5 21.5h-70v-200h70z" />
    <glyph glyph-name="uni0459" unicode="&#x459;" horiz-adv-x="700" 
d="M15.5 -5q-14.5 5 -15.5 5v40q32 0 54 30t26 90l20 340h305v-195q60 10 100 10q78 0 116.5 -35t38.5 -130q0 -64 -20 -98.5t-59.5 -48t-105.5 -13.5q-93 0 -160 20v425h-129l-16 -275q-5 -86 -36 -128t-79 -42q-25 0 -39.5 5zM475 50q48 0 71.5 21.5t23.5 78.5t-23.5 78.5
t-71.5 21.5h-70v-200h70z" />
    <glyph glyph-name="uni045A" unicode="&#x45a;" horiz-adv-x="705" 
d="M320 10v220h-165v-230h-90v500h90v-205h165v205h90v-215q60 10 100 10q78 0 116.5 -33.5t38.5 -121.5q0 -59 -20 -91.5t-59.5 -45.5t-105.5 -13q-93 0 -160 20zM480 50q48 0 71.5 20t23.5 70t-23.5 70t-71.5 20h-70v-180h70z" />
    <glyph glyph-name="uni0455" unicode="&#x455;" horiz-adv-x="395" 
d="M98 -4q-34 6 -58 14v40h100q69 0 99.5 18t30.5 62q0 36 -24.5 55.5t-75.5 39.5q-44 19 -70.5 34.5t-45.5 45t-19 75.5q0 73 43 101.5t137 28.5q28 0 62 -6t58 -14v-40h-100q-54 0 -82 -16.5t-28 -53.5q0 -36 24.5 -55.5t75.5 -39.5q44 -19 70.5 -34.5t45.5 -45t19 -75.5
q0 -55 -20.5 -85t-63.5 -42.5t-116 -12.5q-28 0 -62 6z" />
    <glyph glyph-name="uni0454" unicode="&#x454;" horiz-adv-x="375" 
d="M128 14q-42 24 -62.5 80.5t-20.5 155.5t20 155.5t60 80.5t105 24q28 0 62 -6t58 -14v-40h-100q-57 0 -84 -37.5t-31 -122.5h155v-65h-155q3 -68 16 -105.5t39 -53.5t70 -16h100v-40q-24 -8 -58 -14t-62 -6q-70 0 -112 24z" />
    <glyph glyph-name="uni044D" unicode="&#x44d;" horiz-adv-x="375" 
d="M73 -4q-34 6 -58 14v40h100q44 0 70 16t39 53.5t16 105.5h-155v65h155q-4 85 -31 122.5t-84 37.5h-100v40q24 8 58 14t62 6q65 0 105 -24t60 -80.5t20 -155.5t-20.5 -155.5t-62.5 -80.5t-112 -24q-28 0 -62 6z" />
    <glyph glyph-name="uni0456" unicode="&#x456;" horiz-adv-x="220" 
d="M65 570v110h90v-110h-90zM65 0v500h90v-500h-90z" />
    <glyph glyph-name="uni0457" unicode="&#x457;" horiz-adv-x="220" 
d="M-15 570v110h90v-110h-90zM145 570v110h90v-110h-90zM65 0v500h90v-500h-90z" />
    <glyph glyph-name="uni0458" unicode="&#x458;" horiz-adv-x="240" 
d="M80 570v110h90v-110h-90zM-60 -190v40h70q28 0 49 24.5t21 85.5v540h90v-540q0 -98 -36 -134t-104 -36q-40 0 -90 20z" />
    <glyph glyph-name="uni045B" unicode="&#x45b;" horiz-adv-x="490" 
d="M80 545h-60v65h60v90h90v-90h140v-45q-24 -8 -58 -14t-62 -6h-20v-90q50 25 110 25q70 0 107.5 -33t37.5 -117v-330h-90v330q0 49 -25 69.5t-70 20.5q-18 0 -38 -6t-32 -14v-400h-90v545z" />
    <glyph glyph-name="uni044E" unicode="&#x44e;" horiz-adv-x="625" 
d="M271.5 44.5q-44.5 54.5 -51.5 175.5h-65v-220h-90v500h90v-210h65q7 115 51.5 167.5t128.5 52.5q93 0 136.5 -59t43.5 -201t-43.5 -201t-136.5 -59q-84 0 -128.5 54.5zM466 91.5q24 46.5 24 158.5t-24 158.5t-66 46.5t-66 -46.5t-24 -158.5t24 -158.5t66 -46.5t66 46.5z
" />
    <glyph glyph-name="uni044F" unicode="&#x44f;" horiz-adv-x="445" 
d="M32 -6q-17 4 -22 6v40q28 0 41 9t19 26l25 70q11 32 25.5 47t35.5 21v4q-51 2 -86 40.5t-35 97.5q0 89 46 122t139 33t160 -20v-490h-90v195h-34q-47 0 -66 -50l-25 -70q-16 -45 -38 -65t-62 -20q-16 0 -33 4zM290 260v190h-70q-48 0 -71.5 -20.5t-23.5 -74.5t23.5 -74.5
t71.5 -20.5h70z" />
    <glyph glyph-name="uni0452" unicode="&#x452;" horiz-adv-x="475" 
d="M235 10v40h40q32 0 46 21.5t14 78.5v180q0 49 -25 69.5t-70 20.5q-18 0 -38 -6t-32 -14v-400h-90v545h-60v65h60v90h90v-90h140v-45q-24 -8 -58 -14t-62 -6h-20v-90q50 25 110 25q70 0 107.5 -33t37.5 -117v-180q0 -88 -29.5 -124t-95.5 -36q-38 0 -65 20z" />
    <glyph glyph-name="uni0463" unicode="&#x463;" horiz-adv-x="480" 
d="M401.5 280q38.5 -35 38.5 -130q0 -64 -20 -98.5t-59.5 -48t-105.5 -13.5q-93 0 -160 20v475h-85v65h85v150h90v-150h155v-45q-24 -8 -58 -14t-62 -6h-35v-180q60 10 100 10q78 0 116.5 -35zM326.5 71.5q23.5 21.5 23.5 78.5t-23.5 78.5t-71.5 21.5h-70v-200h70
q48 0 71.5 21.5z" />
    <glyph glyph-name="uni046B" unicode="&#x46b;" horiz-adv-x="632" 
d="M627 40v-40q-4 -2 -20 -6t-35 -4q-40 0 -64 21.5t-36 63.5l-25 95q-8 30 -25 45t-41 15h-20v-230h-90v230h-20q-24 0 -41 -15t-25 -45l-25 -95q-12 -42 -36 -63.5t-64 -21.5q-19 0 -35 4t-20 6v40q51 0 60 35l25 95q12 47 37 75.5t69 40.5l-162 177v37h564v-37l-162 -177
q44 -12 69 -40t37 -76l25 -95q9 -35 60 -35zM347 295l124 140h-307l124 -140h59z" />
    <glyph glyph-name="uni0473" unicode="&#x473;" horiz-adv-x="460" 
d="M369.5 450.5q45.5 -59.5 45.5 -200.5t-45.5 -200.5t-139.5 -59.5t-139.5 59.5t-45.5 200.5t45.5 200.5t139.5 59.5t139.5 -59.5zM165 415q-26 -40 -29 -133h188q-3 93 -29 133t-65 40t-65 -40zM296 86q26 41 29 138q-40 -7 -70 -7h-119q4 -93 29.5 -132.5t64.5 -39.5
q40 0 66 41z" />
    <glyph glyph-name="uni0475" unicode="&#x475;" horiz-adv-x="440" 
d="M15 500h85l113 -415h4l89 327q14 50 41 74t63 24q19 0 35 -4t20 -6v-40q-60 0 -80 -70l-105 -390h-130z" />
    <glyph glyph-name="uni0493" unicode="&#x493;" horiz-adv-x="365" 
d="M155 435v-153h142v-45q-24 -8 -58 -14t-62 -6h-22v-217h-90v217h-58v65h58v218h290v-65h-200z" />
    <glyph glyph-name="uni0495" unicode="&#x495;" horiz-adv-x="440" 
d="M352.5 247q37.5 -33 37.5 -117v-60q0 -88 -29.5 -124t-95.5 -36q-38 0 -65 20v40h40q32 0 46 21.5t14 78.5v60q0 49 -23.5 72.5t-77.5 23.5q-20 0 -44 -3v-223h-90v500h290v-65h-200v-165q42 10 90 10q70 0 107.5 -33z" />
    <glyph glyph-name="uni0497" unicode="&#x497;" horiz-adv-x="652" 
d="M642 65v-210h-55q-21 54 -30 145q-32 3 -51 21.5t-29 53.5l-25 95q-8 30 -25 45t-41 15h-20v-230h-90v230h-20q-24 0 -41 -15t-25 -45l-25 -95q-12 -42 -36 -63.5t-64 -21.5q-19 0 -35 4t-20 6v40q51 0 60 35l25 95q12 46 31.5 66t49.5 27v4q-24 6 -40 25.5t-31 62.5
l-25 70q-6 17 -19 26t-41 9v40q5 2 22 6t33 4q40 0 62 -20t38 -65l25 -70q21 -60 56 -60h20v205h90v-205h20q35 0 56 60l25 70q16 45 38 65t62 20q16 0 33 -4t22 -6v-40q-28 0 -41 -9t-19 -26l-25 -70q-15 -43 -31 -62.5t-40 -25.5v-4q30 -7 49.5 -27t31.5 -66l19 -72
q4 -18 20 -25.5t46 -7.5h10z" />
    <glyph glyph-name="uni0499" unicode="&#x499;" horiz-adv-x="380" 
d="M308.5 34.5q-31.5 -33.5 -103.5 -41.5v-138h-55q-20 54 -29 135q-55 3 -106 20v40h120q59 0 87 20t28 70q0 90 -85 90h-85v60h75q38 0 61.5 19t23.5 61q0 44 -28 62t-87 18h-100v40q24 8 58 14t62 6q98 0 141.5 -30t43.5 -110q0 -44 -22 -67.5t-58 -35.5v-4
q39 -11 64.5 -41t25.5 -82q0 -72 -31.5 -105.5z" />
    <glyph glyph-name="uni049B" unicode="&#x49b;" horiz-adv-x="455" 
d="M445 65v-210h-55q-21 54 -30 145q-32 3 -51.5 21.5t-28.5 53.5l-25 95q-8 30 -25 45t-41 15h-34v-230h-90v500h90v-205h34q35 0 56 60l25 70q16 45 38 65t62 20q16 0 33 -4t22 -6v-40q-28 0 -41 -9t-19 -26l-25 -70q-15 -43 -31 -62.5t-40 -25.5v-4q30 -7 49.5 -27
t31.5 -66l19 -72q5 -18 20 -25.5t46 -7.5h10z" />
    <glyph glyph-name="uni049D" unicode="&#x49d;" horiz-adv-x="445" 
d="M455 40v-40q-4 -2 -20 -6t-35 -4q-40 0 -64 21.5t-36 63.5l-25 95q-12 41 -40 55v-91h-44v96h-36v-230h-90v500h90v-205h36v109h44v-99q18 14 30 50l25 70q16 45 38 65t62 20q16 0 33 -4t22 -6v-40q-28 0 -41 -9t-19 -26l-25 -70q-15 -43 -31 -62.5t-40 -25.5v-4
q30 -7 49.5 -27t31.5 -66l25 -95q9 -35 60 -35z" />
    <glyph glyph-name="uni04A1" unicode="&#x4a1;" horiz-adv-x="500" 
d="M490 40v-40q-4 -2 -20 -6t-35 -4q-40 0 -64 21.5t-36 63.5l-25 95q-8 30 -25 45t-41 15h-34v-230h-90v435h-100v65h190v-205h34q35 0 56 60l25 70q16 45 38 65t62 20q16 0 33 -4t22 -6v-40q-28 0 -41 -9t-19 -26l-25 -70q-15 -43 -31 -62.5t-40 -25.5v-4q30 -7 49.5 -27
t31.5 -66l25 -95q9 -35 60 -35z" />
    <glyph glyph-name="uni04A3" unicode="&#x4a3;" horiz-adv-x="475" 
d="M470 65v-210h-55q-21 56 -30 145h-65v220h-165v-220h-90v500h90v-215h165v215h90v-435h60z" />
    <glyph glyph-name="uni0525" unicode="&#x525;" horiz-adv-x="475" 
d="M470 65v-210h-55q-21 56 -30 145h-65v435h-165v-435h-90v500h345v-435h60z" />
    <glyph glyph-name="uni04AB" unicode="&#x4ab;" horiz-adv-x="375" 
d="M360 10q-37 -12 -85 -18v-137h-55q-20 55 -29 138q-77 11 -111.5 70t-34.5 187q0 99 20 155.5t60 80.5t105 24q28 0 62 -6t58 -14v-40h-100q-40 0 -64.5 -17.5t-37.5 -61t-13 -121.5q0 -79 13.5 -122.5t40 -60.5t71.5 -17h100v-40z" />
    <glyph glyph-name="uni04AF" unicode="&#x4af;" horiz-adv-x="430" 
d="M171 -200v176l-156 524h85l113 -385h4l113 385h85l-157 -526l3 -174h-90z" />
    <glyph glyph-name="uni04B1" unicode="&#x4b1;" horiz-adv-x="430" 
d="M272 22h88v-45q-46 -16 -102 -19l3 -158h-90v157h-101v65h87l-142 478h85l113 -385h4l113 385h85z" />
    <glyph glyph-name="uni04B7" unicode="&#x4b7;" horiz-adv-x="455" 
d="M450 65v-210h-55q-21 56 -30 145h-65v190q-50 -10 -115 -10q-66 0 -103 32t-37 113v175h90v-175q0 -46 26 -65.5t74 -19.5h65v260h90v-435h60z" />
    <glyph glyph-name="uni04B9" unicode="&#x4b9;" horiz-adv-x="455" 
d="M390 500v-500h-90v190q-23 -5 -58 -8v-107h-44v105h-13q-66 0 -103 32t-37 113v175h90v-175q0 -69 63 -82v102h44v-105h58v260h90z" />
    <glyph glyph-name="uni04BB" unicode="&#x4bb;" horiz-adv-x="480" 
d="M70 700h90v-215q50 25 110 25q70 0 107.5 -33t37.5 -117v-360h-90v360q0 49 -25 69.5t-70 20.5q-18 0 -38 -6t-32 -14v-430h-90v700z" />
    <glyph glyph-name="uni04CF" unicode="&#x4cf;" horiz-adv-x="230" 
d="M70 0v700h90v-700h-90z" />
    <glyph glyph-name="uni04C2" unicode="&#x4c2;" horiz-adv-x="642" 
d="M30 -6q-16 4 -20 6v40q51 0 60 35l25 95q12 46 31.5 66t49.5 27v4q-24 6 -40 25.5t-31 62.5l-25 70q-6 17 -19 26t-41 9v40q5 2 22 6t33 4q40 0 62 -20t38 -65l25 -70q21 -60 56 -60h20v205h90v-205h20q35 0 56 60l25 70q16 45 38 65t62 20q16 0 33 -4t22 -6v-40
q-28 0 -41 -9t-19 -26l-25 -70q-15 -43 -31 -62.5t-40 -25.5v-4q30 -7 49.5 -27t31.5 -66l25 -95q9 -35 60 -35v-40q-4 -2 -20 -6t-35 -4q-40 0 -64 21.5t-36 63.5l-25 95q-8 30 -25 45t-41 15h-20v-230h-90v230h-20q-24 0 -41 -15t-25 -45l-25 -95q-12 -42 -36 -63.5
t-64 -21.5q-19 0 -35 4zM240 579q-34 19 -54 51l40 40q17 -17 42 -28.5t53 -11.5t53 11.5t42 28.5l40 -40q-20 -32 -54.5 -51t-80.5 -19q-47 0 -81 19z" />
    <glyph glyph-name="uni04CC" unicode="&#x4cc;" horiz-adv-x="455" 
d="M390 500v-500h-65q-9 -89 -30 -145h-55v210h60v125q-50 -10 -115 -10q-66 0 -103 32t-37 113v175h90v-175q0 -46 26 -65.5t74 -19.5h65v260h90z" />
    <glyph glyph-name="uni04D1" unicode="&#x4d1;" 
d="M83 24.5q-38 34.5 -38 125.5q0 88 38 121.5t112 33.5q40 0 100 -10v45q0 64 -26.5 87t-83.5 23h-100v40q24 8 58 14t62 6q64 0 102.5 -14t58 -50.5t19.5 -105.5v-340h-75l-5 30h-5q-19 -19 -47 -29.5t-58 -10.5q-74 0 -112 34.5zM263 56q20 6 32 14v175h-70
q-42 0 -66 -21.5t-24 -73.5q0 -56 24 -78t66 -22q18 0 38 6zM144 579q-34 19 -54 51l40 40q17 -17 42 -28.5t53 -11.5t53 11.5t42 28.5l40 -40q-20 -32 -54.5 -51t-80.5 -19q-47 0 -81 19z" />
    <glyph glyph-name="uni04D3" unicode="&#x4d3;" 
d="M83 24.5q-38 34.5 -38 125.5q0 88 38 121.5t112 33.5q40 0 100 -10v45q0 64 -26.5 87t-83.5 23h-100v40q24 8 58 14t62 6q64 0 102.5 -14t58 -50.5t19.5 -105.5v-340h-75l-5 30h-5q-19 -19 -47 -29.5t-58 -10.5q-74 0 -112 34.5zM263 56q20 6 32 14v175h-70
q-42 0 -66 -21.5t-24 -73.5q0 -56 24 -78t66 -22q18 0 38 6zM100 580v110h90v-110h-90zM260 580v110h90v-110h-90z" />
    <glyph glyph-name="uni04D7" unicode="&#x4d7;" horiz-adv-x="440" 
d="M132.5 13.5q-45.5 23.5 -66.5 80t-21 156.5q0 98 19.5 155t57.5 81t98 24t98 -24t57.5 -81t19.5 -155v-30h-260q0 -65 14 -102t44.5 -52.5t81.5 -15.5h100v-40q-24 -8 -58 -14t-62 -6q-77 0 -122.5 23.5zM305 280q0 94 -23.5 134.5t-61.5 40.5t-61.5 -40.5t-23.5 -134.5
h170zM139 579q-34 19 -54 51l40 40q17 -17 42 -28.5t53 -11.5t53 11.5t42 28.5l40 -40q-20 -32 -54.5 -51t-80.5 -19q-47 0 -81 19z" />
    <glyph glyph-name="uni04D9" unicode="&#x4d9;" horiz-adv-x="440" 
d="M307.5 486.5q45.5 -23.5 66.5 -80t21 -156.5q0 -98 -19.5 -155t-57.5 -81t-98 -24t-98 24t-57.5 81t-19.5 155v30h260q0 65 -14 102t-44.5 52.5t-81.5 15.5h-100v40q24 8 58 14t62 6q77 0 122.5 -23.5zM135 220q0 -94 23.5 -134.5t61.5 -40.5t61.5 40.5t23.5 134.5h-170z
" />
    <glyph glyph-name="uni04DD" unicode="&#x4dd;" horiz-adv-x="642" 
d="M30 -6q-16 4 -20 6v40q51 0 60 35l25 95q12 46 31.5 66t49.5 27v4q-24 6 -40 25.5t-31 62.5l-25 70q-6 17 -19 26t-41 9v40q5 2 22 6t33 4q40 0 62 -20t38 -65l25 -70q21 -60 56 -60h20v205h90v-205h20q35 0 56 60l25 70q16 45 38 65t62 20q16 0 33 -4t22 -6v-40
q-28 0 -41 -9t-19 -26l-25 -70q-15 -43 -31 -62.5t-40 -25.5v-4q30 -7 49.5 -27t31.5 -66l25 -95q9 -35 60 -35v-40q-4 -2 -20 -6t-35 -4q-40 0 -64 21.5t-36 63.5l-25 95q-8 30 -25 45t-41 15h-20v-230h-90v230h-20q-24 0 -41 -15t-25 -45l-25 -95q-12 -42 -36 -63.5
t-64 -21.5q-19 0 -35 4zM196 580v110h90v-110h-90zM356 580v110h90v-110h-90z" />
    <glyph glyph-name="uni04DF" unicode="&#x4df;" horiz-adv-x="380" 
d="M73 -4q-34 6 -58 14v40h120q59 0 87 20t28 70q0 90 -85 90h-85v60h75q38 0 61.5 19t23.5 61q0 44 -28 62t-87 18h-100v40q24 8 58 14t62 6q98 0 141.5 -30t43.5 -110q0 -44 -22 -67.5t-58 -35.5v-4q39 -11 64.5 -41t25.5 -82q0 -60 -21 -92t-64.5 -45t-119.5 -13
q-28 0 -62 6zM30 580v110h90v-110h-90zM190 580v110h90v-110h-90z" />
    <glyph glyph-name="uni04E3" unicode="&#x4e3;" horiz-adv-x="480" 
d="M65 0v500h90v-340h5l150 340h105v-500h-90v350h-5l-160 -350h-95zM125 610v60h230v-60h-230z" />
    <glyph glyph-name="uni04E5" unicode="&#x4e5;" horiz-adv-x="480" 
d="M65 0v500h90v-340h5l150 340h105v-500h-90v350h-5l-160 -350h-95zM115 580v110h90v-110h-90zM275 580v110h90v-110h-90z" />
    <glyph glyph-name="uni04E7" unicode="&#x4e7;" horiz-adv-x="460" 
d="M90.5 49.5q-45.5 59.5 -45.5 200.5t45.5 200.5t139.5 59.5t139.5 -59.5t45.5 -200.5t-45.5 -200.5t-139.5 -59.5t-139.5 59.5zM298.5 92q26.5 47 26.5 158t-26.5 158t-68.5 47t-68.5 -47t-26.5 -158t26.5 -158t68.5 -47t68.5 47zM105 580v110h90v-110h-90zM265 580v110
h90v-110h-90z" />
    <glyph glyph-name="uni04E9" unicode="&#x4e9;" horiz-adv-x="460" 
d="M369.5 450.5q45.5 -59.5 45.5 -200.5t-45.5 -200.5t-139.5 -59.5t-139.5 59.5t-45.5 200.5t45.5 200.5t139.5 59.5t139.5 -59.5zM165 415q-26 -40 -29 -133h188q-3 93 -29 133t-65 40t-65 -40zM296 86q26 41 29 138q-40 -7 -70 -7h-119q4 -93 29.5 -132.5t64.5 -39.5
q40 0 66 41z" />
    <glyph glyph-name="uni04EF" unicode="&#x4ef;" horiz-adv-x="445" 
d="M65 -190v40h70q26 0 43 11.5t29.5 41.5t22.5 87q-93 0 -120 120l-90 390h90l90 -390q12 -55 42 -55l83 445h90l-95 -510q-20 -105 -59 -152.5t-106 -47.5q-40 0 -90 20zM108 610v60h230v-60h-230z" />
    <glyph glyph-name="uni04F1" unicode="&#x4f1;" horiz-adv-x="445" 
d="M65 -190v40h70q26 0 43 11.5t29.5 41.5t22.5 87q-93 0 -120 120l-90 390h90l90 -390q12 -55 42 -55l83 445h90l-95 -510q-20 -105 -59 -152.5t-106 -47.5q-40 0 -90 20zM98 580v110h90v-110h-90zM258 580v110h90v-110h-90z" />
    <glyph glyph-name="uni04F3" unicode="&#x4f3;" horiz-adv-x="445" 
d="M65 -190v40h70q26 0 43 11.5t29.5 41.5t22.5 87q-93 0 -120 120l-90 390h90l90 -390q12 -55 42 -55l83 445h90l-95 -510q-20 -105 -59 -152.5t-106 -47.5q-40 0 -90 20zM140 560l55 126h90l-90 -126h-55zM255 560l55 126h90l-90 -126h-55z" />
    <glyph glyph-name="uni04F5" unicode="&#x4f5;" horiz-adv-x="455" 
d="M300 190q-50 -10 -115 -10q-66 0 -103 32t-37 113v175h90v-175q0 -46 26 -65.5t74 -19.5h65v260h90v-500h-90v190zM83 580v110h90v-110h-90zM243 580v110h90v-110h-90z" />
    <glyph glyph-name="uni04F7" unicode="&#x4f7;" horiz-adv-x="365" 
d="M155 435v-370h60v-210h-55q-21 56 -30 145h-65v500h290v-65h-200z" />
    <glyph glyph-name="uni04F9" unicode="&#x4f9;" horiz-adv-x="630" 
d="M65 10v490h90v-195q60 10 100 10q74 0 112 -35t38 -130q0 -64 -19.5 -98.5t-58 -48t-102.5 -13.5q-93 0 -160 20zM475 0v500h90v-500h-90zM225 50q45 0 67.5 21.5t22.5 78.5t-22.5 78.5t-67.5 21.5h-70v-200h70zM190 580v110h90v-110h-90zM350 580v110h90v-110h-90z" />
    <glyph glyph-name="uni051B" unicode="&#x51b;" horiz-adv-x="465" 
d="M310 15q-50 -25 -100 -25q-83 0 -124 58t-41 202q0 99 20.5 155.5t62.5 80.5t112 24q85 0 160 -30v-680h-90v215zM278 56q20 6 32 14v380h-70q-53 0 -79 -43.5t-26 -156.5t26 -156.5t79 -43.5q18 0 38 6z" />
    <glyph glyph-name="uni051D" unicode="&#x51d;" horiz-adv-x="610" 
d="M105 0l-90 500h85l69 -380h5l91 280h80l91 -280h5l69 380h85l-90 -500h-110l-88 270h-4l-88 -270h-110z" />
    <glyph glyph-name="uni04A4" unicode="&#x4a4;" horiz-adv-x="690" 
d="M70 0v700h90v-310h210v310h300v-70h-210v-630h-90v320h-210v-320h-90z" />
    <glyph glyph-name="uni04A5" unicode="&#x4a5;" horiz-adv-x="600" 
d="M65 0v500h90v-215h165v215h270v-65h-180v-435h-90v220h-165v-220h-90z" />
    <glyph glyph-name="uni04D4" unicode="&#x4d4;" horiz-adv-x="731" 
d="M0 0l240 700h451v-70h-250v-230h220v-70h-220v-260h250v-70h-340v180h-199l-62 -180h-90zM176 250h175v380h-45z" />
    <glyph glyph-name="uni04D5" unicode="&#x4d5;" horiz-adv-x="690" 
d="M83 22.5q-38 32.5 -38 117.5q0 81 38.5 113t111.5 32q40 0 100 -10v65q0 64 -26.5 87t-83.5 23h-100v40q24 8 58 14t62 6q46 0 84 -18.5t56 -51.5q19 34 51.5 52t73.5 18q60 0 98 -23.5t57.5 -79.5t19.5 -152v-30h-260v-15q1 -61 15.5 -95.5t44.5 -49.5t80 -15h100v-40
q-24 -8 -58 -14t-62 -6q-60 0 -97 16t-63 54q-47 -70 -150 -70q-74 0 -112 32.5zM555 285q0 91 -23.5 130.5t-61.5 39.5q-37 0 -60.5 -38t-24.5 -127v-5h170zM255 56.5q18 6.5 28 14t12 9.5v145h-70q-90 0 -90 -85q0 -48 22.5 -69t57.5 -21q22 0 40 6.5z" />
    <glyph glyph-name="zero" unicode="0" horiz-adv-x="510" 
d="M144 23q-45 33 -69.5 112t-24.5 215t24.5 215t69.5 112t111 33t111 -33t69.5 -112t24.5 -215t-24.5 -215t-69.5 -112t-111 -33t-111 33zM337 118q33 68 33 232t-33 232t-82 68t-82 -68t-33 -232t33 -232t82 -68t82 68z" />
    <glyph glyph-name="one" unicode="1" horiz-adv-x="280" 
d="M120 630h-110v50q24 8 66 14t84 6h50v-700h-90v630z" />
    <glyph glyph-name="two" unicode="2" horiz-adv-x="390" 
d="M10 80q14 17 30 37t34 43q88 110 124.5 159.5t54 91t17.5 89.5q0 76 -28 110.5t-82 34.5h-140v45q24 8 65.5 14t84.5 6q99 0 144.5 -49.5t45.5 -160.5q0 -55 -20 -103.5t-56.5 -99t-115.5 -148.5q-23 -31 -63 -79h255v-70h-350v80z" />
    <glyph glyph-name="three" unicode="3" horiz-adv-x="415" 
d="M81 -4q-42 6 -66 14v45h130q75 0 107.5 31.5t32.5 103.5q0 75 -32.5 107.5t-107.5 32.5h-70v70h60q67 0 98.5 30.5t31.5 94.5q0 59 -28.5 89.5t-81.5 30.5h-130v45q24 8 66 14t84 6q90 0 135 -46t45 -139q0 -56 -22.5 -93t-67.5 -60v-4q56 -14 83 -63t27 -115
q0 -106 -49 -153t-161 -47q-42 0 -84 6z" />
    <glyph glyph-name="four" unicode="4" horiz-adv-x="470" 
d="M290 0v180h-260v80l250 440h100v-450h60v-70h-60v-180h-90zM115 250h175v305h-4z" />
    <glyph glyph-name="five" unicode="5" horiz-adv-x="445" 
d="M111 -4q-42 6 -66 14v45h130q75 0 107.5 33.5t32.5 111.5t-32.5 111.5t-107.5 33.5h-115v355h325v-65h-235v-225h45q113 0 161.5 -48.5t48.5 -161.5q0 -112 -48.5 -161t-161.5 -49q-42 0 -84 6z" />
    <glyph glyph-name="six" unicode="6" horiz-adv-x="455" 
d="M95 39.5q-45 49.5 -45 160.5v220q0 153 49 221.5t146 68.5q42 0 84 -6t66 -14v-45h-130q-60 0 -92.5 -56.5t-32.5 -188.5q24 8 58 14t62 6q78 0 119 -52t41 -168q0 -111 -45 -160.5t-140 -49.5t-140 49.5zM304.5 86q25.5 36 25.5 114q0 88 -29.5 124t-95.5 36h-65v-160
q0 -78 25.5 -114t69.5 -36t69.5 36z" />
    <glyph glyph-name="seven" unicode="7" horiz-adv-x="410" 
d="M290 630h-270v70h360v-80q-134 -327 -180 -620h-90q45 285 180 630z" />
    <glyph glyph-name="eight" unicode="8" horiz-adv-x="480" 
d="M88 36q-48 46 -48 144q0 67 35 114t85 69v4q-42 15 -73.5 59.5t-31.5 108.5q0 175 185 175t185 -175q0 -64 -31.5 -108.5t-73.5 -59.5v-4q50 -22 85 -69t35 -114q0 -98 -48 -144t-152 -46t-152 46zM335 535q0 55 -26 85t-69 30t-69 -30t-26 -85q0 -95 95 -130
q95 35 95 130zM350 180q0 53 -28.5 86.5t-81.5 58.5q-53 -25 -81.5 -58.5t-28.5 -86.5q0 -130 110 -130t110 130z" />
    <glyph glyph-name="nine" unicode="9" horiz-adv-x="455" 
d="M126 -4q-42 6 -66 14v45h130q60 0 92.5 56.5t32.5 188.5q-24 -8 -58 -14t-62 -6q-78 0 -119 52t-41 168q0 111 45 160.5t140 49.5t140 -49.5t45 -160.5v-220q0 -153 -49 -221.5t-146 -68.5q-42 0 -84 6zM315 340v160q0 78 -25.5 114t-69.5 36t-69.5 -36t-25.5 -114
q0 -88 30 -124t95 -36h65z" />
    <glyph glyph-name="uni00B9" unicode="&#xb9;" horiz-adv-x="185" 
d="M90 650h-60v38q15 5 42 8.5t53 3.5h30v-300h-65v250z" />
    <glyph glyph-name="uni00B2" unicode="&#xb2;" horiz-adv-x="255" 
d="M30 455q65 51 97.5 86t32.5 69q0 19 -15 32t-40 13h-65v39q37 11 80 11q52 0 78.5 -24.5t26.5 -70.5q0 -40 -28.5 -76.5t-91.5 -83.5h120v-50h-195v55z" />
    <glyph glyph-name="uni00B3" unicode="&#xb3;" horiz-adv-x="255" 
d="M30 406v39h75q26 0 40.5 10.5t14.5 29.5q0 22 -13.5 33.5t-36.5 11.5h-45v50h40q24 0 34.5 11.5t10.5 28.5q0 16 -12.5 25.5t-38.5 9.5h-69v39q35 11 80 11q52 0 78.5 -19t26.5 -66q0 -21 -13.5 -38.5t-27.5 -21.5q21 -4 36 -23.5t15 -51.5q0 -50 -30 -70t-90 -20
q-38 0 -75 11z" />
    <glyph glyph-name="uni2074" unicode="&#x2074;" horiz-adv-x="310" 
d="M175 400v65h-145v50l140 185h70v-185h30v-50h-30v-65h-65zM100 515h75v98z" />
    <glyph glyph-name="fraction" unicode="&#x2044;" horiz-adv-x="370" 
d="M-50 0l390 700h80l-390 -700h-80z" />
    <glyph glyph-name="onehalf" unicode="&#xbd;" horiz-adv-x="590" 
d="M50 0l390 700h80l-390 -700h-80zM115 650h-60v38q15 5 42 8.5t53 3.5h35v-300h-70v250zM335 55q65 51 97.5 86t32.5 69q0 19 -15 32t-40 13h-65v39q37 11 80 11q52 0 78.5 -24.5t26.5 -70.5q0 -40 -28.5 -76.5t-91.5 -83.5h120v-50h-195v55z" />
    <glyph glyph-name="onequarter" unicode="&#xbc;" horiz-adv-x="560" 
d="M40 0l390 700h80l-390 -700h-80zM105 650h-60v38q15 5 42 8.5t53 3.5h35v-300h-70v250zM410 0v65h-145v50l140 185h70v-185h30v-50h-30v-65h-65zM335 115h75v98z" />
    <glyph glyph-name="threequarters" unicode="&#xbe;" horiz-adv-x="565" 
d="M40 406v39h75q26 0 40.5 10.5t14.5 29.5q0 22 -13.5 33.5t-36.5 11.5h-45v50h40q24 0 34.5 11.5t10.5 28.5q0 16 -12.5 25.5t-38.5 9.5h-69v39q35 11 80 11q52 0 78.5 -19t26.5 -66q0 -21 -13.5 -38.5t-27.5 -21.5q21 -4 36 -23.5t15 -51.5q0 -50 -30 -70t-90 -20
q-38 0 -75 11zM45 0l390 700h80l-390 -700h-80zM415 0v65h-145v50l140 185h70v-185h30v-50h-30v-65h-65zM340 115h75v98z" />
    <glyph glyph-name="asterisk" unicode="*" horiz-adv-x="430" 
d="M145 325l-65 35l70 130l-130 25l16 70l139 -30v145h80v-145l139 30l16 -70l-130 -25l70 -130l-65 -35l-70 130z" />
    <glyph glyph-name="backslash" unicode="\" horiz-adv-x="390" 
d="M300 0l-300 700h90l300 -700h-90z" />
    <glyph glyph-name="periodcentered" unicode="&#xb7;" horiz-adv-x="250" 
d="M80 295v110h90v-110h-90z" />
    <glyph glyph-name="bullet" unicode="&#x2022;" horiz-adv-x="250" 
d="M45 270v159h160v-159h-160z" />
    <glyph glyph-name="colon" unicode=":" horiz-adv-x="170" 
d="M40 390v110h90v-110h-90zM40 -5v110h90v-110h-90z" />
    <glyph glyph-name="comma" unicode="," horiz-adv-x="170" 
d="M40 -115v220h95l-30 -220h-65z" />
    <glyph glyph-name="ellipsis" unicode="&#x2026;" horiz-adv-x="510" 
d="M40 -5v110h90v-110h-90zM210 -5v110h90v-110h-90zM380 -5v110h90v-110h-90z" />
    <glyph glyph-name="exclam" unicode="!" horiz-adv-x="230" 
d="M73 185l-13 515h110l-17 -515h-80zM68 -5v110h90v-110h-90z" />
    <glyph glyph-name="exclamdown" unicode="&#xa1;" horiz-adv-x="230" 
d="M68 595v110h90v-110h-90zM60 0l13 515h80l17 -515h-110z" />
    <glyph glyph-name="numbersign" unicode="#" horiz-adv-x="570" 
d="M85 0l30 200h-95v70h105l25 160h-100v70h115l30 200h90l-30 -200h110l30 200h90l-30 -200h95v-70h-110l-25 -160h105v-70h-115l-30 -200h-90l30 200h-110l-30 -200h-90zM210 270h120l25 160h-120z" />
    <glyph glyph-name="period" unicode="." horiz-adv-x="170" 
d="M40 -5v110h90v-110h-90z" />
    <glyph glyph-name="question" unicode="?" horiz-adv-x="370" 
d="M125.5 287.5q20.5 40.5 58.5 85.5q34 42 50 72.5t16 74.5q0 63 -28.5 94t-81.5 31h-130v45q24 8 66 14t84 6q91 0 135.5 -46.5t44.5 -143.5q0 -41 -11.5 -73t-27.5 -55t-43 -54q-38 -44 -55.5 -75t-17.5 -78h-80q0 62 20.5 102.5zM100 -5v110h90v-110h-90z" />
    <glyph glyph-name="questiondown" unicode="&#xbf;" horiz-adv-x="370" 
d="M180 595v110h90v-110h-90zM74.5 36.5q-44.5 46.5 -44.5 143.5q0 41 11.5 73t27.5 55t43 54q38 44 55.5 75t17.5 78h80q0 -61 -20.5 -102t-58.5 -86q-34 -42 -50 -72.5t-16 -74.5q0 -63 28.5 -94t81.5 -31h130v-45q-24 -8 -65.5 -14t-84.5 -6q-91 0 -135.5 46.5z" />
    <glyph glyph-name="quotedbl" unicode="&#x22;" horiz-adv-x="330" 
d="M65 465l-25 235h100l-25 -235h-50zM215 465l-25 235h100l-25 -235h-50z" />
    <glyph glyph-name="quotesingle" unicode="'" horiz-adv-x="180" 
d="M65 465l-25 235h100l-25 -235h-50z" />
    <glyph glyph-name="semicolon" unicode=";" horiz-adv-x="165" 
d="M40 390v110h90v-110h-90zM40 -115v220h95l-30 -220h-65z" />
    <glyph glyph-name="slash" unicode="/" horiz-adv-x="390" 
d="M0 0l300 700h90l-300 -700h-90z" />
    <glyph glyph-name="underscore" unicode="_" horiz-adv-x="300" 
d="M0 -70v70h300v-70h-300z" />
    <glyph glyph-name="braceleft" unicode="{" horiz-adv-x="290" 
d="M180.5 -166q-40.5 14 -60.5 50.5t-20 105.5v130q0 60 -20 89t-60 41v60q40 12 60 41t20 89v130q0 69 20 105.5t60.5 50.5t109.5 14v-60q-50 0 -75 -23.5t-25 -86.5v-110q0 -53 -9 -85t-25.5 -51.5t-45.5 -41.5v-4q29 -22 45.5 -41.5t25.5 -51.5t9 -85v-110
q0 -63 25 -86.5t75 -23.5v-60q-69 0 -109.5 14z" />
    <glyph glyph-name="braceright" unicode="}" horiz-adv-x="290" 
d="M0 -120q50 0 75 23.5t25 86.5v110q0 53 9 85t25.5 51.5t45.5 41.5v4q-29 22 -45.5 41.5t-25.5 51.5t-9 85v110q0 63 -25 86.5t-75 23.5v60q69 0 109.5 -14t60.5 -50.5t20 -105.5v-130q0 -60 20 -89t60 -41v-60q-40 -12 -60 -41t-20 -89v-130q0 -69 -20 -105.5
t-60.5 -50.5t-109.5 -14v60z" />
    <glyph glyph-name="bracketleft" unicode="[" horiz-adv-x="260" 
d="M70 -180v920h190v-60h-100v-800h100v-60h-190z" />
    <glyph glyph-name="bracketright" unicode="]" horiz-adv-x="260" 
d="M0 -180v60h100v800h-100v60h190v-920h-190z" />
    <glyph glyph-name="parenleft" unicode="(" horiz-adv-x="246" 
d="M50 280q0 241 140 470l56 -30q-50 -106 -73 -210t-23 -230t23 -230t73 -210l-56 -30q-140 229 -140 470z" />
    <glyph glyph-name="parenright" unicode=")" horiz-adv-x="246" 
d="M0 -160q50 106 73 210t23 230t-23 230t-73 210l56 30q140 -229 140 -470t-140 -470z" />
    <glyph glyph-name="emdash" unicode="&#x2014;" horiz-adv-x="640" 
d="M30 245v70h580v-70h-580z" />
    <glyph glyph-name="endash" unicode="&#x2013;" horiz-adv-x="460" 
d="M30 245v70h400v-70h-400z" />
    <glyph glyph-name="hyphen" unicode="-" horiz-adv-x="360" 
d="M30 265v70h300v-70h-300z" />
    <glyph glyph-name="uni00AD" unicode="&#xad;" horiz-adv-x="360" 
d="M30 260v80h300v-80h-300z" />
    <glyph glyph-name="guillemotleft" unicode="&#xab;" horiz-adv-x="435" 
d="M175 45l-155 205l155 205l65 -40l-120 -163v-4l120 -163zM340 45l-155 205l155 205l65 -40l-120 -163v-4l120 -163z" />
    <glyph glyph-name="guillemotright" unicode="&#xbb;" horiz-adv-x="435" 
d="M95 45l-65 40l120 163v4l-120 163l65 40l155 -205zM260 45l-65 40l120 163v4l-120 163l65 40l155 -205z" />
    <glyph glyph-name="guilsinglleft" unicode="&#x2039;" horiz-adv-x="295" 
d="M200 10l-180 240l180 240l65 -40l-145 -198v-4l145 -198z" />
    <glyph glyph-name="guilsinglright" unicode="&#x203a;" horiz-adv-x="295" 
d="M95 10l-65 40l145 198v4l-145 198l65 40l180 -240z" />
    <glyph glyph-name="quotedblbase" unicode="&#x201e;" horiz-adv-x="320" 
d="M40 -115v220h95l-30 -220h-65zM190 -115v220h95l-30 -220h-65z" />
    <glyph glyph-name="quotedblleft" unicode="&#x201c;" horiz-adv-x="320" 
d="M35 480l30 220h65v-220h-95zM185 480l30 220h65v-220h-95z" />
    <glyph glyph-name="quotedblright" unicode="&#x201d;" horiz-adv-x="320" 
d="M40 480v220h95l-30 -220h-65zM190 480v220h95l-30 -220h-65z" />
    <glyph glyph-name="quoteleft" unicode="&#x2018;" horiz-adv-x="170" 
d="M40 480l30 220h65v-220h-95z" />
    <glyph glyph-name="quoteright" unicode="&#x2019;" horiz-adv-x="170" 
d="M40 480v220h95l-30 -220h-65z" />
    <glyph glyph-name="quotesinglbase" unicode="&#x201a;" horiz-adv-x="170" 
d="M40 -115v220h95l-30 -220h-65z" />
    <glyph glyph-name="uni00A0" unicode="&#xa0;" horiz-adv-x="250" 
 />
    <glyph glyph-name="cent" unicode="&#xa2;" horiz-adv-x="375" 
d="M205 -8q-57 5 -92 31.5t-51.5 81t-16.5 145.5q0 92 17.5 147.5t52 81.5t90.5 30v61h60v-62q48 -6 85 -18v-40h-85v-400h95v-40q-43 -14 -95 -19v-51h-60v52zM205 443q-36 -13 -53 -58t-17 -135q0 -89 16.5 -133t53.5 -59v385z" />
    <glyph glyph-name="currency" unicode="&#xa4;" horiz-adv-x="520" 
d="M30 185l70 70q-12 19 -18.5 44t-6.5 51t6.5 51t18.5 44l-70 70l50 50l70 -65q18 18 48.5 29t60.5 11q31 0 62 -11t49 -29l70 65l50 -50l-70 -70q12 -19 18.5 -44t6.5 -51t-6.5 -51t-18.5 -44l70 -70l-50 -50l-70 65q-18 -18 -49 -29t-62 -11q-30 0 -60.5 11t-48.5 29
l-70 -65zM325 257q25 32 25 93t-25 93t-65 32t-65 -32t-25 -93t25 -93t65 -32t65 32z" />
    <glyph glyph-name="dollar" unicode="$" horiz-adv-x="445" 
d="M190 -10h-5q-42 0 -84 6t-66 14v45h155v264q-49 23 -80.5 45t-53 62.5t-21.5 103.5q0 82 38 126t117 52v82h60v-81q36 -1 69.5 -6.5t55.5 -12.5v-45h-125v-260q52 -24 83.5 -45t54 -60t22.5 -100q0 -86 -37 -130.5t-123 -55.5v-84h-60v80zM190 636q-65 -22 -65 -106
q0 -41 16.5 -67t48.5 -46v219zM303.5 107q16.5 28 16.5 73q0 39 -18 64.5t-52 44.5v-223q37 13 53.5 41z" />
    <glyph glyph-name="Euro" unicode="&#x20ac;" horiz-adv-x="465" 
d="M152 48q-53 58 -67 202h-75l10 65h60v70h-70l10 65h65q14 143 65.5 201.5t139.5 58.5q43 0 84.5 -6t65.5 -14v-45h-130q-54 0 -89.5 -43.5t-45.5 -151.5h205l-10 -65h-200v-70h185l-10 -65h-170q11 -109 47.5 -152t97.5 -43h130v-45q-24 -8 -65.5 -14t-84.5 -6
q-95 0 -148 58z" />
    <glyph glyph-name="florin" unicode="&#x192;" horiz-adv-x="330" 
d="M-16.5 -204q-34.5 6 -53.5 14v40h90q28 0 49 24.5t21 85.5v465h-60v65h60v40q0 98 36.5 134t103.5 36q22 0 56.5 -6t53.5 -14v-40h-90q-28 0 -49 -24.5t-21 -85.5v-40h140v-45q-24 -8 -58 -14t-62 -6h-20v-465q0 -98 -36 -134t-104 -36q-22 0 -56.5 6z" />
    <glyph glyph-name="uni20B4" unicode="&#x20b4;" horiz-adv-x="481" 
d="M491 447l-17 -57h-451l17 57h249q42 39 42 93q0 51 -30 78t-90 27h-130v45q24 8 66 14t84 6q95 0 142.5 -41.5t47.5 -118.5q0 -59 -36 -103h106zM12 350h451l-17 -57h-225q-41 -24 -63 -53t-22 -70q0 -60 35.5 -87.5t119.5 -27.5h130v-45q-24 -8 -65.5 -14t-84.5 -6
q-120 0 -172.5 42.5t-52.5 127.5q0 80 60 133h-111z" />
    <glyph glyph-name="uni20BD" unicode="&#x20bd;" horiz-adv-x="540" 
d="M210 226h150v-65h-150v-161h-90v161h-90v65h90v63h-90v65h90v336q67 20 160 20q82 0 129.5 -19.5t69 -65t21.5 -125.5q0 -81 -20 -128t-61.5 -67t-108.5 -20q-22 0 -51 3t-49 7v-69zM210 355h70q47 0 75 13t41.5 44.5t13.5 87.5t-13.5 87.5t-41.5 44.5t-75 13h-70v-290z
" />
    <glyph glyph-name="sterling" unicode="&#xa3;" horiz-adv-x="415" 
d="M45 50q24 16 37 52.5t13 107.5v110h-60v70h60v110q0 89 20.5 134t62 60.5t117.5 15.5q40 0 90 -20v-45h-90q-39 0 -62 -11t-35.5 -42.5t-12.5 -91.5v-110h150v-70h-150v-86q0 -71 -13 -107.5t-37 -52.5v-4h260v-70h-350v50z" />
    <glyph glyph-name="uni20B8" unicode="&#x20b8;" horiz-adv-x="430" 
d="M10 635v65h410v-65h-410zM170 0v510h-160v65h410v-65h-160v-510h-90z" />
    <glyph glyph-name="uni20AE" unicode="&#x20ae;" horiz-adv-x="430" 
d="M420 630h-160v-193l122 51v-69l-122 -51v-58l122 51v-69l-122 -51v-241h-90v203l-122 -51v69l122 51v58l-122 -51v69l122 51v231h-160v70h410v-70z" />
    <glyph glyph-name="yen" unicode="&#xa5;" 
d="M180 0v205h-120v70h100l-21 60h-79v70h54l-104 295h90l125 -355l125 355h90l-105 -295h55v-70h-80l-21 -60h101v-70h-120v-205h-90z" />
    <glyph glyph-name="uni2215" unicode="&#x2215;" horiz-adv-x="390" 
d="M0 0l300 700h90l-300 -700h-90z" />
    <glyph glyph-name="plus" unicode="+" horiz-adv-x="430" 
d="M175 100v165h-145v70h145v165h80v-165h145v-70h-145v-165h-80z" />
    <glyph glyph-name="multiply" unicode="&#xd7;" horiz-adv-x="400" 
d="M95 170l-55 55l105 105l-105 105l55 55l105 -105l105 105l55 -55l-105 -105l105 -105l-55 -55l-105 105z" />
    <glyph glyph-name="divide" unicode="&#xf7;" horiz-adv-x="430" 
d="M175 415v90h80v-90h-80zM30 260v80h370v-80h-370zM175 95v90h80v-90h-80z" />
    <glyph glyph-name="equal" unicode="=" horiz-adv-x="430" 
d="M30 350v75h370v-75h-370zM30 175v75h370v-75h-370z" />
    <glyph glyph-name="greater" unicode="&#x3e;" horiz-adv-x="400" 
d="M40 10v95l230 144v7l-230 144v95l320 -200v-85z" />
    <glyph glyph-name="less" unicode="&#x3c;" horiz-adv-x="400" 
d="M360 10l-320 200v85l320 200v-95l-230 -144v-7l230 -144v-95z" />
    <glyph glyph-name="plusminus" unicode="&#xb1;" horiz-adv-x="430" 
d="M175 150v155h-145v70h145v155h80v-155h145v-70h-145v-155h-80zM30 50v70h370v-70h-370z" />
    <glyph glyph-name="asciitilde" unicode="~" 
d="M57.5 236.5q-27.5 41.5 -27.5 123.5h70q0 -35 12.5 -55t37.5 -20q13 0 22.5 7t25.5 23q23 24 45 37t57 13q65 0 92.5 -41t27.5 -124h-70q0 35 -12.5 55t-37.5 20q-13 0 -22.5 -7t-25.5 -23q-23 -24 -45 -37t-57 -13q-65 0 -92.5 41.5z" />
    <glyph glyph-name="logicalnot" unicode="&#xac;" horiz-adv-x="420" 
d="M325 240l-8 100h-287v70h360v-170h-65z" />
    <glyph glyph-name="uni00B5" unicode="&#xb5;" horiz-adv-x="475" 
d="M65 500h90v-340q0 -51 26.5 -80.5t68.5 -29.5q18 0 38 6t32 14v430h90v-500h-75l-5 30h-5q-40 -40 -95 -40q-27 0 -47 11t-28 19v-220h-90v700z" />
    <glyph glyph-name="percent" unicode="%" horiz-adv-x="680" 
d="M66 448q-36 38 -36 112t36 112t104 38t104 -38t36 -112t-36 -112t-104 -38t-104 38zM100 0l390 700h90l-390 -700h-90zM235 560q0 90 -65 90t-65 -90t65 -90t65 90zM406 28q-36 38 -36 112t36 112t104 38t104 -38t36 -112t-36 -112t-104 -38t-104 38zM575 140
q0 90 -65 90t-65 -90t65 -90t65 90z" />
    <glyph glyph-name="perthousand" unicode="&#x2030;" horiz-adv-x="990" 
d="M66 448q-36 38 -36 112t36 112t104 38t104 -38t36 -112t-36 -112t-104 -38t-104 38zM100 0l390 700h90l-390 -700h-90zM235 560q0 90 -65 90t-65 -90t65 -90t65 90zM406 28q-36 38 -36 112t36 112t104 38t104 -38t36 -112t-36 -112t-104 -38t-104 38zM716 28
q-36 38 -36 112t36 112t104 38t104 -38t36 -112t-36 -112t-104 -38t-104 38zM575 140q0 90 -65 90t-65 -90t65 -90t65 90zM885 140q0 90 -65 90t-65 -90t65 -90t65 90z" />
    <glyph glyph-name="at" unicode="@" horiz-adv-x="830" 
d="M50 310q0 200 92.5 300t267.5 100q178 0 274 -91t96 -254q0 -105 -25 -164t-84.5 -85t-165.5 -26l-5 30h-5q-19 -19 -47 -29.5t-58 -10.5q-65 0 -107.5 52t-42.5 158q0 95 21 149.5t66.5 77.5t122.5 23q29 0 68 -6t62 -14v-365q37 0 61 18t36.5 63.5t12.5 128.5
q0 138 -72.5 211.5t-207.5 73.5q-133 0 -201.5 -79.5t-68.5 -260.5q0 -122 33.5 -195.5t101.5 -106.5t175 -33h130v-45q-24 -8 -65.5 -14t-84.5 -6q-380 0 -380 400zM458 146q20 6 32 14v320h-40q-42 0 -68 -16.5t-39 -58t-13 -115.5q0 -78 24.5 -114t65.5 -36q18 0 38 6z
" />
    <glyph glyph-name="ampersand" unicode="&#x26;" horiz-adv-x="515" 
d="M76.5 37.5q-41.5 47.5 -41.5 142.5q0 43 6 84.5t14 65.5h70v-150q0 -71 20.5 -98t49.5 -27q21 0 35.5 8.5t29.5 31t35 65.5q-72 102 -109.5 166.5t-51.5 110.5t-14 93q0 89 43.5 134.5t126.5 45.5q43 0 84.5 -6t65.5 -14v-45h-130q-46 0 -73 -30t-27 -85q0 -38 8 -71.5
t34 -83t78 -120.5l55 135h90l-90 -220l120 -170h-100l-55 80q-19 -33 -37.5 -52t-46 -28.5t-71.5 -9.5q-77 0 -118.5 47.5z" />
    <glyph glyph-name="paragraph" unicode="&#xb6;" horiz-adv-x="530" 
d="M210 330q-83 0 -131.5 49.5t-48.5 135.5q0 48 22.5 90.5t63.5 68.5t94 26h300v-70h-70v-830h-80v830h-70v-830h-80v530z" />
    <glyph glyph-name="section" unicode="&#xa7;" horiz-adv-x="435" 
d="M107 -204q-38 6 -62 14v40h115q145 0 145 100q0 30 -15 51t-37.5 35t-62.5 33q-48 23 -78 43t-51 53.5t-21 84.5q0 54 27.5 92t70.5 60q-41 24 -64.5 58.5t-23.5 89.5q0 77 48 118.5t147 41.5q35 0 73 -6t62 -14v-40h-115q-62 0 -93.5 -26.5t-31.5 -73.5q0 -30 14.5 -51
t36 -35t60.5 -33q46 -23 74.5 -43t49 -53.5t20.5 -84.5q0 -53 -26.5 -91t-68.5 -59q45 -25 70 -59.5t25 -90.5q0 -78 -51 -119t-164 -41q-35 0 -73 6zM305 250q0 32 -14.5 54t-37 36.5t-58.5 31.5q-65 -34 -65 -122q0 -31 14.5 -53t37 -36.5t59.5 -32.5q64 36 64 122z" />
    <glyph glyph-name="copyright" unicode="&#xa9;" horiz-adv-x="810" 
d="M214.5 24.5q-81.5 44.5 -125.5 128t-44 197.5t44 197.5t125.5 128t190.5 44.5t190.5 -44.5t125.5 -128t44 -197.5t-44 -197.5t-125.5 -128t-190.5 -44.5t-190.5 44.5zM546 76q61 36 95 106t34 168t-34 168t-95 106t-141 36t-141 -36t-95 -106t-34 -168t34 -168t95 -106
t141 -36t141 36zM319 146.5q-36 16.5 -55 64t-19 139.5t19 139.5t55 64t96 16.5q55 0 115 -20v-40h-95q-39 0 -62 -11.5t-35.5 -46t-12.5 -102.5t12.5 -102.5t35.5 -46t62 -11.5h105v-40q-25 -8 -59 -14t-66 -6q-60 0 -96 16.5z" />
    <glyph glyph-name="registered" unicode="&#xae;" horiz-adv-x="810" 
d="M214.5 24.5q-81.5 44.5 -125.5 128t-44 197.5t44 197.5t125.5 128t190.5 44.5t190.5 -44.5t125.5 -128t44 -197.5t-44 -197.5t-125.5 -128t-190.5 -44.5t-190.5 44.5zM546 76q61 36 95 106t34 168t-34 168t-95 106t-141 36t-141 -36t-95 -106t-34 -168t34 -168t95 -106
t141 -36t141 36zM265 550q33 9 64 14.5t71 5.5q80 0 120 -31t40 -109q0 -53 -19.5 -79t-50.5 -41l80 -170h-85l-70 150h-70v-150h-80v410zM400 350q34 0 57 19t23 61t-23 61t-57 19h-55v-160h55z" />
    <glyph glyph-name="trademark" unicode="&#x2122;" horiz-adv-x="665" 
d="M100 400v250h-90v50h245v-50h-90v-250h-65zM275 400l20 300h77l83 -185l83 185h77l20 -300h-64l-14 205l-72 -160h-60l-72 160l-14 -205h-64z" />
    <glyph glyph-name="degree" unicode="&#xb0;" horiz-adv-x="380" 
d="M81 433q-41 43 -41 117t41 117t109 43t109 -43t41 -117t-41 -117t-109 -43t-109 43zM241 475q19 25 19 75t-19 75t-51 25t-51 -25t-19 -75t19 -75t51 -25t51 25z" />
    <glyph glyph-name="bar" unicode="|" horiz-adv-x="230" 
d="M70 -200v900h90v-900h-90z" />
    <glyph glyph-name="brokenbar" unicode="&#xa6;" horiz-adv-x="230" 
d="M70 320v360h90v-360h-90zM70 -200v360h90v-360h-90z" />
    <glyph glyph-name="dagger" unicode="&#x2020;" 
d="M180 -200v590h-160v70h160v240h90v-240h160v-70h-160v-590h-90z" />
    <glyph glyph-name="daggerdbl" unicode="&#x2021;" 
d="M180 -200v240h-160v70h160v280h-160v70h160v240h90v-240h160v-70h-160v-280h160v-70h-160v-240h-90z" />
    <glyph glyph-name="uni2116" unicode="&#x2116;" horiz-adv-x="850" 
d="M576 448q-36 38 -36 112t36 112t104 38t104 -38t36 -112t-36 -112t-104 -38t-104 38zM70 0v700h100l205 -495h5v495h90v-700h-100l-205 495h-5v-495h-90zM745 560q0 90 -65 90t-65 -90t65 -90t65 90zM560 290v70h240v-70h-240z" />
    <glyph glyph-name="asciicircum" unicode="^" horiz-adv-x="445" 
d="M95 410l-65 40l150 250h85l150 -250l-65 -40l-125 200h-5z" />
    <glyph glyph-name="uni0308" unicode="&#x308;" horiz-adv-x="0" 
d="M-270 580v110h90v-110h-90zM-110 580v110h90v-110h-90z" />
    <glyph glyph-name="uni0307" unicode="&#x307;" horiz-adv-x="0" 
d="M-110 570v110h90v-110h-90z" />
    <glyph glyph-name="gravecomb" unicode="&#x300;" horiz-adv-x="0" 
d="M-85 560l-63 130h95l28 -130h-60z" />
    <glyph glyph-name="acutecomb" unicode="&#x301;" horiz-adv-x="0" 
d="M-150 560l35 130h95l-70 -130h-60z" />
    <glyph glyph-name="uni030B" unicode="&#x30b;" horiz-adv-x="0" 
d="M-273 560l55 126h90l-90 -126h-55zM-158 560l55 126h90l-90 -126h-55z" />
    <glyph glyph-name="uni0302" unicode="&#x302;" horiz-adv-x="0" 
d="M-265 550l75 130h95l75 -130h-60l-63 74l-62 -74h-60z" />
    <glyph glyph-name="uni030C" unicode="&#x30c;" horiz-adv-x="0" 
d="M-190 560l-75 130h60l62 -74l63 74h60l-75 -130h-95z" />
    <glyph glyph-name="uni0306" unicode="&#x306;" horiz-adv-x="0" 
d="M-316 589q-34 19 -54 51l40 40q17 -17 42 -28.5t53 -11.5t53 11.5t42 28.5l40 -40q-20 -32 -54 -51t-81 -19t-81 19z" />
    <glyph glyph-name="tildecomb" unicode="&#x303;" horiz-adv-x="0" 
d="M-131.5 575q-12.5 10 -26.5 28q-8 11 -14 16.5t-13 5.5q-12 0 -18.5 -11.5t-6.5 -33.5h-50q0 56 19 80.5t61 24.5q19 0 31.5 -10t26.5 -28q8 -11 14 -16.5t13 -5.5q12 0 18.5 11.5t6.5 33.5h50q0 -56 -19 -80.5t-61 -24.5q-19 0 -31.5 10z" />
    <glyph glyph-name="uni0304" unicode="&#x304;" horiz-adv-x="0" 
d="M-250 610v60h230v-60h-230z" />
    <glyph glyph-name="hookabovecomb" unicode="&#x309;" horiz-adv-x="0" 
d="M-196.5 575q6.5 10 19.5 23q7 7 12.5 15t5.5 15q0 37 -42 37h-50v47q22 8 57 8q40 0 67 -20t27 -68q0 -13 -7.5 -23.5t-20.5 -21.5q-13 -13 -18.5 -20.5t-5.5 -17.5h-51q0 16 6.5 26z" />
    <glyph glyph-name="uni031B" unicode="&#x31b;" horiz-adv-x="0" 
d="M-253 500q38 0 58.5 16.5t20.5 57.5h74q0 -124 -153 -124v50z" />
    <glyph glyph-name="dotbelowcomb" unicode="&#x323;" horiz-adv-x="0" 
d="M-122 -156v91h74v-91h-74z" />
    <glyph glyph-name="uni0326" unicode="&#x326;" horiz-adv-x="0" 
d="M-130 -285v220h95l-30 -220h-65z" />
    <glyph glyph-name="uni0327" unicode="&#x327;" horiz-adv-x="0" 
d="M-141.5 -161.5q-16.5 3.5 -26.5 7t-12 4.5v30h65q15 0 22.5 6.5t7.5 18.5t-7.5 18.5t-22.5 6.5h-55v85h50v-40h15q40 0 62.5 -19.5t22.5 -50.5t-22.5 -50.5t-62.5 -19.5q-20 0 -36.5 3.5z" />
    <glyph glyph-name="uni0328" unicode="&#x328;" horiz-adv-x="0" 
d="M-158 -139q-22 21 -22 59q0 20 5.5 38t11.5 28.5t8 13.5h40v-45q0 -34 13 -46.5t47 -12.5h35v-41q-2 -1 -12 -4.5t-26.5 -7t-36.5 -3.5q-41 0 -63 21z" />
    <glyph glyph-name="uni0335" unicode="&#x335;" horiz-adv-x="0" 
d="M-310 610h290v-45q-24 -8 -58 -14t-62 -6h-170v65z" />
    <glyph glyph-name="uni02BC" unicode="&#x2bc;" horiz-adv-x="130" 
d="M0 425v220h95l-30 -220h-65z" />
    <glyph glyph-name="acute" unicode="&#xb4;" horiz-adv-x="170" 
d="M20 560l35 130h95l-70 -130h-60z" />
    <glyph glyph-name="caron" unicode="&#x2c7;" horiz-adv-x="285" 
d="M95 560l-75 130h60l62 -74l63 74h60l-75 -130h-95z" />
    <glyph glyph-name="cedilla" unicode="&#xb8;" horiz-adv-x="200" 
d="M58.5 -161.5q-16.5 3.5 -26.5 7t-12 4.5v30h65q15 0 22.5 6.5t7.5 18.5t-7.5 18.5t-22.5 6.5h-55v85h50v-40h15q40 0 62.5 -19.5t22.5 -50.5t-22.5 -50.5t-62.5 -19.5q-20 0 -36.5 3.5z" />
    <glyph glyph-name="circumflex" unicode="&#x2c6;" horiz-adv-x="285" 
d="M20 550l75 130h95l75 -130h-60l-63 74l-62 -74h-60z" />
    <glyph glyph-name="dieresis" unicode="&#xa8;" horiz-adv-x="290" 
d="M20 580v110h90v-110h-90zM180 580v110h90v-110h-90z" />
    <glyph glyph-name="dotaccent" unicode="&#x2d9;" horiz-adv-x="130" 
d="M20 570v110h90v-110h-90z" />
    <glyph glyph-name="grave" unicode="`" horiz-adv-x="170" 
d="M85 560l-63 130h95l28 -130h-60z" />
    <glyph glyph-name="macron" unicode="&#xaf;" horiz-adv-x="270" 
d="M20 640v60h230v-60h-230z" />
    <glyph glyph-name="ogonek" unicode="&#x2db;" horiz-adv-x="200" 
d="M42 -139q-22 21 -22 59q0 20 5.5 38t11.5 28.5t8 13.5h40v-45q0 -34 13 -46.5t47 -12.5h35v-41q-2 -1 -12 -4.5t-26.5 -7t-36.5 -3.5q-41 0 -63 21z" />
    <glyph glyph-name="ring" unicode="&#x2da;" horiz-adv-x="270" 
d="M73.5 561.5q-23.5 21.5 -23.5 58.5t23.5 58.5t61.5 21.5t61.5 -21.5t23.5 -58.5t-23.5 -58.5t-61.5 -21.5t-61.5 21.5zM160.5 593.5q9.5 8.5 9.5 26.5t-9.5 26.5t-25.5 8.5t-25.5 -8.5t-9.5 -26.5t9.5 -26.5t25.5 -8.5t25.5 8.5z" />
    <glyph glyph-name="tilde" unicode="&#x2dc;" horiz-adv-x="280" 
d="M148.5 575q-12.5 10 -26.5 28q-8 11 -14 16.5t-13 5.5q-12 0 -18.5 -11.5t-6.5 -33.5h-50q0 56 19 80.5t61 24.5q19 0 31.5 -10t26.5 -28q8 -11 14 -16.5t13 -5.5q12 0 18.5 11.5t6.5 33.5h50q0 -56 -19 -80.5t-61 -24.5q-19 0 -31.5 10z" />
    <glyph glyph-name="brevecombcy" horiz-adv-x="0" 
d="M-326 579q-34 19 -54 51l40 40q17 -17 42 -28.5t53 -11.5t53 11.5t42 28.5l40 -40q-20 -32 -54.5 -51t-80.5 -19q-47 0 -81 19z" />
    <glyph glyph-name="brevecombcy.case" horiz-adv-x="0" 
d="M-354.5 780q-36.5 20 -55.5 55l40 40q19 -19 44.5 -32t55.5 -13t55.5 13t44.5 32l40 -40q-19 -35 -55.5 -55t-84.5 -20t-84.5 20z" />
    </font>
</defs>
</svg>
