<?xml version="1.0" standalone="no"?>
<!DOCTYPE svg PUBLIC "-//W3C//DTD SVG 1.1//EN" "http://www.w3.org/Graphics/SVG/1.1/DTD/svg11.dtd" >
<svg>
<metadata>
Created by FontForge 20120731 at Mon Jul 22 00:29:47 2019
 By www-data
2006 H. A. Simon published by FontShop International GmbH
</metadata>
<defs>
<font id="MovistarMarket" horiz-adv-x="364" >
  <font-face 
    font-family="Movistar Market"
    font-weight="400"
    font-stretch="normal"
    units-per-em="1000"
    panose-1="3 1 5 4 2 1 1 1 1 1"
    ascent="800"
    descent="-200"
    x-height="448"
    cap-height="638"
    bbox="-643 -438 1721 918"
    underline-thickness="64"
    underline-position="-64"
    unicode-range="U+000D-FEFF"
  />
<missing-glyph horiz-adv-x="420" 
d="M30 0v700h360v-700h-360zM94 64h232v572h-232v-572z" />
    <glyph glyph-name="f_i" unicode="fi" horiz-adv-x="488" 
d="M224 277q-6 -6 -11 -18q-5 -15 -22 -64t-23.5 -69t-19.5 -62.5t-19.5 -71t-13.5 -67t-10 -74.5q-2 -20 -28 -29q-5 -2 -12 -4.5t-12 -4.5t-7 -2q-7 0 -25 12q-7 5 -7 39q0 17 4 34.5t12 40.5t11 32q8 29 10 40q5 26 42 139.5t37 125.5q0 4 -2 7q-5 9 -23.5 27t-22.5 31
q-6 16 -6 24q0 7 4.5 13.5t9.5 6.5q7 0 27 -7t30 -7q17 0 23 14q38 90 56 132t46.5 99.5t57.5 104.5q6 9 22.5 15.5t28.5 6.5q21 0 34 -17q8 -11 8 -20q0 -11 -14.5 -30t-15.5 -28t-4 -16q-9 -20 -53.5 -77t-54.5 -94q-4 -15 -11 -30q-23 -51 -23 -59q0 -5 7 -5q31 0 97 26
q49 20 69.5 31.5t28.5 29.5q11 22 22 28.5t32 6.5q18 0 29 -8q8 -6 8 -16q0 -23 -10.5 -43t-28 -43t-25.5 -41q-21 -45 -59 -142q-24 -64 -24 -98q0 -32 18 -32q16 0 29 6t44 28t47 22q17 0 25 -7q6 -5 6 -14q0 -11 -16 -27l-41 -38q-50 -48 -103 -48q-22 0 -44 25t-31 54
q-5 16 -5 42q0 36 16 81q23 69 51 131q7 15 7 20q0 3 -3 3t-21 -8q-34 -14 -87 -30q-48 -14 -61 -27zM632 691q12 -13 12 -33q0 -12 -5 -18q-40 -49 -64 -49q-29 0 -40 20q-7 14 -7 34q0 26 13 42q14 17 49 17q31 0 42 -13z" />
    <glyph glyph-name="f_l" unicode="fl" horiz-adv-x="500" 
d="M410 -18q-7 0 -27.5 7t-45 26t-28.5 44q-3 16 -3 34q0 11 2 23.5t4 22t7.5 25.5t8.5 23.5t10.5 27.5t10.5 27q11 28 27 64q12 27 12 29q0 3 -3 3t-17 -6q-20 -9 -63 -22q-67 -21 -82 -33q-6 -4 -9 -13q-4 -11 -22 -64t-24 -70.5t-20 -63t-20 -73t-13 -67t-10 -75.5
q-1 -9 -9 -17.5t-19 -11.5q-5 -1 -12 -4t-12 -5t-7 -2q-7 0 -25 12q-7 5 -7 39q0 17 4 34.5t12 40.5t11 32q8 29 10 40q5 26 42 139.5t37 125.5q0 4 -2 7q-5 9 -23.5 27t-22.5 31q-6 16 -6 24q0 7 4.5 13.5t9.5 6.5q7 0 27 -7t30 -7q17 0 23 14q38 90 56 132t46.5 99.5
t57.5 104.5q12 20 51 20q19 0 30.5 -11.5t11.5 -23.5q0 -41 -45 -95q-28 -34 -56.5 -78t-36.5 -67q-4 -12 -15 -35q-23 -51 -23 -59q0 -5 5 -5q36 0 102 27q51 21 83 59.5t114 180.5q3 5 14.5 34t24 46t29.5 17q7 0 17.5 1t15.5 1q18 0 26 -11q8 -12 8 -28q0 -18 -10 -35
q-21 -35 -86 -132.5t-103.5 -166t-65.5 -138.5q-4 -9 -12.5 -29.5t-13 -32t-8.5 -29t-4 -32.5q0 -21 5 -37q4 -12 19 -12q11 0 19 5q14 9 62.5 60t75.5 51q9 0 21.5 -6t12.5 -17q0 -6 -2.5 -10t-8.5 -9.5t-9 -8.5q-11 -11 -36 -42t-39.5 -45.5t-40 -29t-52.5 -14.5z" />
    <glyph glyph-name="f_r" unicode="fr" horiz-adv-x="556" 
d="M308 358q-3 -1 -11 -3t-17.5 -4t-19.5 -3q-16 -2 -25 -26q-66 -179 -102 -310q-34 -121 -45 -142q-18 -32 -26 -32q-33 0 -38 13q-2 5 -10 13q-10 10 -10 38q0 12 6 25t19.5 42t25.5 69q4 14 13.5 40.5t12.5 37.5q10 30 28.5 83t29 84.5t10.5 39.5q0 12 -34.5 21.5
t-40.5 22.5q-2 4 -5.5 7.5t-5 8t-1.5 15.5q0 13 6.5 17.5t24.5 4.5q1 0 21 -0.5t33 -0.5q27 0 34.5 3t11.5 13q41 107 68.5 163.5t75.5 130.5q6 10 22 17t30 7q23 0 35 -13q7 -8 7 -19q0 -15 -5 -26.5t-12.5 -22t-9.5 -16.5q-12 -31 -50 -80t-46 -65q-36 -76 -36 -82
q0 -5 6 -5q4 0 43 5.5t49 5.5q33 0 59 -15q45 -26 45 -74q0 -6 3 -6t17 15q30 32 71.5 58t72.5 36q12 4 22 4q39 0 67 -23q6 -5 6 -16q0 -21 -11.5 -34.5t-20.5 -13.5q-8 0 -22 4.5t-24 4.5q-8 0 -22 -7q-77 -38 -143 -117t-102 -199q-11 -37 -23 -52q-17 -21 -39 -21
q-10 0 -21.5 6.5t-12.5 7.5q-13 4 -13 24q0 16 27 66q23 42 36 80q46 131 46 166q0 21 -6.5 29t-25.5 8q-9 0 -48 -8z" />
    <glyph glyph-name="f_r_period" unicode="fr&#x2e;" horiz-adv-x="730" 
d="M308 358q-3 -1 -11 -3t-17.5 -4t-19.5 -3q-16 -2 -25 -26q-66 -179 -102 -310q-34 -121 -45 -142q-18 -32 -26 -32q-33 0 -38 13q-2 5 -10 13q-10 10 -10 38q0 12 6 25t19.5 42t25.5 69q4 14 13.5 40.5t12.5 37.5q10 30 28.5 83t29 84.5t10.5 39.5q0 12 -34.5 21.5
t-40.5 22.5q-2 4 -5.5 7.5t-5 8t-1.5 15.5q0 13 6.5 17.5t24.5 4.5q1 0 21 -0.5t33 -0.5q27 0 34.5 3t11.5 13q41 107 68.5 163.5t75.5 130.5q6 10 22 17t30 7q23 0 35 -13q7 -8 7 -19q0 -15 -5 -26.5t-12.5 -22t-9.5 -16.5q-12 -31 -50 -80t-46 -65q-36 -76 -36 -82
q0 -5 6 -5q4 0 43 5.5t49 5.5q33 0 59 -15q45 -26 45 -74q0 -6 3 -6t17 15q30 32 71.5 58t72.5 36q12 4 22 4q39 0 67 -23q6 -5 6 -16q0 -21 -11.5 -34.5t-20.5 -13.5q-8 0 -22 4.5t-24 4.5q-8 0 -22 -7q-77 -38 -143 -117t-102 -199q-11 -37 -23 -52q-17 -21 -39 -21
q-10 0 -21.5 6.5t-12.5 7.5q-13 4 -13 24q0 16 27 66q23 42 36 80q46 131 46 166q0 21 -6.5 29t-25.5 8q-9 0 -48 -8zM664 73q0 -3 -3.5 -17t-4.5 -22q-1 -13 -16 -27t-42 -14q-5 0 -42 16q-16 7 -16 33q0 9 3.5 19t9.5 21t8 16q12 33 43 33q16 0 31 -9.5t21 -21.5
q8 -15 8 -27z" />
    <glyph glyph-name="f_r_period_b_period" unicode="fr&#x2e;b&#x2e;" horiz-adv-x="1374" 
d="M308 358q-3 -1 -11 -3t-17.5 -4t-19.5 -3q-16 -2 -25 -26q-66 -179 -102 -310q-34 -121 -45 -142q-18 -32 -26 -32q-33 0 -38 13q-2 5 -10 13q-10 10 -10 38q0 12 6 25t19.5 42t25.5 69q4 14 13.5 40.5t12.5 37.5q10 30 28.5 83t29 84.5t10.5 39.5q0 12 -34.5 21.5
t-40.5 22.5q-2 4 -5.5 7.5t-5 8t-1.5 15.5q0 13 6.5 17.5t24.5 4.5q1 0 21 -0.5t33 -0.5q27 0 34.5 3t11.5 13q41 107 68.5 163.5t75.5 130.5q6 10 22 17t30 7q23 0 35 -13q7 -8 7 -19q0 -15 -5 -26.5t-12.5 -22t-9.5 -16.5q-12 -31 -50 -80t-46 -65q-36 -76 -36 -82
q0 -5 6 -5q4 0 43 5.5t49 5.5q33 0 59 -15q45 -26 45 -74q0 -6 3 -6t17 15q30 32 71.5 58t72.5 36q12 4 22 4q39 0 67 -23q6 -5 6 -16q0 -21 -11.5 -34.5t-20.5 -13.5q-8 0 -22 4.5t-24 4.5q-8 0 -22 -7q-77 -38 -143 -117t-102 -199q-11 -37 -23 -52q-17 -21 -39 -21
q-10 0 -21.5 6.5t-12.5 7.5q-13 4 -13 24q0 16 27 66q23 42 36 80q46 131 46 166q0 21 -6.5 29t-25.5 8q-9 0 -48 -8zM883 334l166 386q24 53 51 53q8 0 15.5 -2t15 -5t10.5 -4q12 -3 16 -8t4 -18q0 -11 -12.5 -27.5t-14.5 -23.5q-1 -4 -18.5 -29.5t-19.5 -29.5
q-26 -51 -69 -149q-11 -25 -11 -29q0 -5 4 -5q1 0 10 3.5t22.5 7t24.5 3.5q47 0 67 -36q2 -4 10.5 -16t12 -21.5t3.5 -19.5q0 -75 -57 -193.5t-133 -174.5q-25 -18 -59 -18q-32 0 -62 41q-5 6 -11 6q-2 0 -12 -1.5t-13 -1.5q-12 0 -17.5 2.5t-10 11.5t-7.5 12q-4 5 -4 19
q0 8 7 28q62 169 92 239zM953 74q61 72 97 149.5t36 128.5q0 40 -16 40q-18 0 -44 -22q-55 -47 -77 -99l-25 -58q-19 -44 -19 -67q0 -3 2.5 -6.5t2.5 -6.5q0 -1 -3 -16t-3 -21q0 -44 16 -44q14 0 33 22zM664 73q0 -3 -3.5 -17t-4.5 -22q-1 -13 -16 -27t-42 -14q-5 0 -42 16
q-16 7 -16 33q0 9 3.5 19t9.5 21t8 16q12 33 43 33q16 0 31 -9.5t21 -21.5q8 -15 8 -27zM1308 73q0 -3 -3.5 -17t-4.5 -22q-1 -13 -16 -27t-42 -14q-5 0 -42 16q-16 7 -16 33q0 9 3.5 19t9.5 21t8 16q12 33 43 33q16 0 31 -9.5t21 -21.5q8 -15 8 -27z" />
    <glyph glyph-name=".notdef" horiz-adv-x="420" 
d="M30 0v700h360v-700h-360zM94 64h232v572h-232v-572z" />
    <glyph glyph-name=".null" horiz-adv-x="0" 
 />
    <glyph glyph-name=".null" horiz-adv-x="0" 
 />
    <glyph glyph-name="nonmarkingreturn" horiz-adv-x="333" 
 />
    <glyph glyph-name="CR" unicode="&#xd;" horiz-adv-x="246" 
 />
    <glyph glyph-name="space" unicode=" " horiz-adv-x="246" 
 />
    <glyph glyph-name="exclam" unicode="!" horiz-adv-x="320" 
d="M344 626q10 -3 18 -10.5t8 -14.5q0 -22 -15 -57t-16 -37q-11 -36 -29.5 -101.5t-35 -116.5t-36.5 -96q-5 -12 -13 -12q-19 0 -21 12q-3 14 -15.5 25.5t-12.5 17.5q0 10 3 18q2 6 11 43q5 21 31.5 117.5t35.5 154.5q4 23 7 36.5t12.5 28.5t23.5 15q4 0 11 -4t11 -5
q7 -2 13 -7.5t9 -6.5zM201 82q14 -1 14 -15q0 -19 -7 -38q-15 -39 -32 -39q-1 0 -13 -0.5t-26 -0.5q-11 0 -21 23t-10 39q0 13 9 28q1 1 3 8.5t6 11.5t12 4q15 0 33.5 -10t31.5 -11z" />
    <glyph glyph-name="quotedbl" unicode="&#x22;" horiz-adv-x="350" 
d="M351 557q19 74 19 96q0 18 24 18q27 0 36 -11q4 -5 11 -11.5t9.5 -10.5t2.5 -11q0 -14 -26 -101l-36 -141q-1 -6 -9 -11.5t-12 -5.5q-18 0 -34 6q-13 4 -21 20q-2 4 -2 8q0 1 3 12.5t6.5 26.5t4.5 20zM203 576q11 47 14 83q2 20 25 20q5 0 14 -6t18 -8q28 -4 28 -29
q0 -6 -3.5 -20.5t-10.5 -38.5t-11 -42l-32 -137q-1 -7 -11.5 -13.5t-17.5 -6.5q-6 0 -17 3.5t-16 3.5t-14 9t-9 15q0 7 3.5 14.5t4.5 11.5z" />
    <glyph glyph-name="numbersign" unicode="#" horiz-adv-x="650" 
d="M496 252h82q40 0 42 -7q2 -8 6.5 -11.5t4.5 -5.5q0 -8 -4 -17t-4 -14q-1 -7 -6.5 -12.5t-11.5 -5.5q-21 0 -50.5 1.5t-33.5 1.5q-8 0 -27 -0.5t-22 -0.5q-14 0 -21 -18q-10 -27 -58 -137q-29 -66 -39 -66q-26 0 -32 5q-3 2 -7.5 5.5t-6.5 5t-4 4.5t-2 6q0 11 8 33
q4 10 10.5 21t7.5 15l38 97q5 12 5 16q0 6 -9 6q-3 0 -36.5 -2t-36.5 -2q-14 0 -20 -15q-39 -96 -55 -129q-28 -60 -34 -64q-3 -2 -5 -2q-11 0 -18 2.5t-14 2.5q-20 0 -20 21q0 13 8 33q1 4 12.5 27.5t21.5 49.5l21 53q5 12 5 16q0 6 -9 6q-34 0 -64.5 -3t-36.5 -3
q-15 0 -15 15q0 9 2 13t2 6t-1.5 5t-1.5 5q0 8 7 17q10 13 24 14q9 1 103 1q13 0 18.5 4.5t10.5 16.5l26 62q5 13 5 16q0 6 -9 6q-29 0 -52 -1.5t-33 -1.5q-26 0 -33.5 3t-7.5 13q0 3 5 16t6 19q3 25 28 25q22 0 47 -1.5t60 -1.5q14 0 18.5 4t10.5 18l54 137q20 52 28 60
q11 11 30 11q3 0 11 -3t14 -3q11 0 17.5 -8.5t6.5 -16.5q0 -16 -5 -22q-23 -31 -26 -38q-21 -43 -51 -115q-5 -12 -5 -16q0 -6 9 -6q3 0 35.5 1.5t36.5 1.5q11 0 15 3.5t9 17.5l53 133q5 12 15.5 32t12.5 30q1 9 23 9q23 0 38 -11q19 -12 19 -20q0 -16 -5 -22
q-23 -31 -33 -52q-34 -68 -43 -95q-5 -13 -5 -17q0 -5 9 -5q2 0 35.5 2t48.5 2q37 0 38 -4q7 -21 7 -26q0 -8 -7 -13.5t-9 -9.5q-7 -20 -18 -20h-33q-13 0 -47.5 -1t-42.5 -1q-12 0 -18 -15q-14 -32 -26 -64q-5 -12 -5 -16q0 -6 9 -6zM316 243q5 0 38 2.5t35 2.5
q9 0 12.5 3.5t8.5 15.5l24 60q5 12 5 16q0 6 -9 6q-1 0 -34 -1.5t-39 -1.5q-10 0 -13.5 -2.5t-7.5 -14.5l-24 -63q-5 -12 -5 -16q0 -7 9 -7z" />
    <glyph glyph-name="dollar" unicode="$" horiz-adv-x="462" 
d="M439 513q-8 8 -10 11t-3.5 7.5t-7.5 13.5t-11 9q-3 0 -6 -8l-18 -55q-5 -16 -17.5 -50.5t-18.5 -54.5t-6 -27q0 -5 6 -17l26 -57q34 -74 46.5 -112.5t12.5 -87.5q0 -57 -61 -93q-17 -10 -69 -10q-18 0 -34 2t-25 4.5t-10 2.5q-5 0 -6 -7q-3 -18 -3 -42q0 -17 -13 -25.5
t-24 -8.5q-9 0 -19 2.5t-18 2.5q-15 0 -15 24q0 14 19 69q2 6 2 8q0 6 -8 10q-41 22 -70 58q-1 2 -22 21.5t-28.5 38.5t-7.5 52q0 7 7.5 18.5t15.5 12.5q16 2 22 2q3 0 29 -7q14 -4 26.5 -12.5t12.5 -18.5q0 -7 -2 -14t-2 -18q0 -13 13 -32q11 -15 28 -28q7 -5 12 -5
q2 0 5 10q8 31 31 101.5t32 100.5q4 14 4 19q0 8 -8 26q-24 53 -33.5 75.5t-18.5 52t-9 50.5q0 30 9.5 52.5t20 34t30.5 27.5q25 21 68 21q15 0 31 -3l15 -3q9 0 12 11q15 42 16 52q3 17 51 17q9 0 21 -4.5t12 -13.5q0 -7 -5 -19t-5 -18q0 -8 -13.5 -28.5t-13.5 -23.5
q0 -5 7 -9q54 -32 90 -85q3 -5 3 -11q0 -11 -10 -21q-5 -5 -14.5 -11t-12.5 -8q-2 -2 -6 -2q-3 0 -9 2.5t-9 2.5q-9 0 -14.5 4t-11.5 12t-8 10zM296 214q-11 -31 -26.5 -81.5t-17.5 -55.5q-4 -14 -4 -19q0 -3 4.5 -6t16 -5.5t26.5 -2.5q49 0 49 39q0 64 -33 140q-3 8 -7 8
q-2 0 -8 -17zM265 535q0 -18 20 -71q5 -14 10 -14q2 0 6 14q10 33 37 109q3 8 3 14q0 4 -10.5 8t-23.5 4q-42 0 -42 -64z" />
    <glyph glyph-name="percent" unicode="%" horiz-adv-x="780" 
d="M445 561q-3 0 -3 -2v-8q0 -101 -65 -180q-43 -52 -91 -52q-64 0 -107 59q-27 37 -27 73q0 42 39 119q19 38 53.5 65t76.5 27q31 0 42 -11q9 -9 27 -14q66 -18 93 -18q106 0 130 30q10 12 17 12q25 0 37 -9q16 -11 16 -26q0 -22 -3 -29t-14 -16q-23 -20 -51 -63l-280 -443
l-58 -88q-10 -14 -32 -14q-19 0 -33 12q-9 8 -9 29q0 27 9 30q10 3 19 17q12 18 21.5 24.5t30.5 40.5q193 315 262 422q4 5 4 9t-3 4q-4 0 -21 -3q-9 -2 -36 -2q-7 0 -17 1t-18 2.5t-9 1.5zM741 213q0 -86 -57 -175q-33 -51 -104 -51q-63 0 -92 32q-37 42 -37 76
q0 67 40 135q31 52 55.5 71.5t63.5 19.5q36 0 87 -28q44 -23 44 -80zM356 578q-12 4 -14 16t-16 12q-17 0 -28 -15q-67 -90 -67 -153q0 -66 43 -66q11 0 18.5 6.5t18.5 24.5q34 56 44.5 87t10.5 62q0 23 -10 26zM652 247q-5 2 -11.5 12t-15.5 10q-16 0 -28 -18
q-66 -97 -66 -166q0 -52 34 -52q27 0 41 27q34 69 46.5 100.5t12.5 58.5q0 22 -13 28z" />
    <glyph glyph-name="ampersand" unicode="&#x26;" horiz-adv-x="528" 
d="M247 357q-13 61 -13 99q0 14 5 46q13 61 47.5 93.5t75.5 32.5q37 0 52 -8q8 -3 15.5 -11.5t9.5 -10.5q31 -26 31 -54q0 -21 -17 -74q-10 -29 -107 -126q-9 -9 -9 -16q0 -3 4 -16q8 -27 46 -144q3 -9 7 -9q3 0 11 7q8 6 17 14.5t13 11.5q14 12 33 23q16 11 28 11
q11 0 14 -9q4 -12 4 -32q0 -22 -6 -33.5t-22 -19.5q-6 -4 -18.5 -13.5t-34.5 -23.5q-13 -8 -13 -14q0 -7 2 -12q3 -8 9.5 -25.5t10.5 -28.5q7 -17 7 -23q0 -8 -7 -8q-5 0 -14.5 3t-13.5 3q-2 0 -5 -2t-9 -2q-11 0 -22 7t-12 13q-2 6 -6 14t-5 13q-5 12 -9 12q-5 0 -14 -5
q-38 -20 -61 -26q-59 -14 -87 -14q-32 0 -53 7q-13 4 -22.5 13.5t-17.5 22.5t-12 17q-17 19 -17 45q0 25 9 43q18 38 41 66t61 65q9 9 25.5 24.5t29.5 27t15 13.5q4 5 4 13zM235 234q-14 -14 -57 -70q-32 -38 -32 -69q0 -24 36 -24q45 0 127 37q13 5 13 11q0 1 -0.5 3
t-2 6.5t-2.5 8.5l-39 120q-3 9 -6 9q-4 0 -37 -32zM324 418q41 41 57 72q5 9 8.5 21t4.5 14q8 18 8 27q0 20 -17 20q-9 0 -24.5 -6.5t-25.5 -21.5l-9 -14q-9 -15 -11 -19.5t-5.5 -18t-3.5 -27.5q0 -17 3 -41q1 -13 5 -13q3 0 10 7z" />
    <glyph glyph-name="quotesingle" unicode="'" horiz-adv-x="232" 
d="M212 561q13 56 16 96q1 12 6 17.5t20 5.5q9 0 19.5 -8t14.5 -9q28 -5 28 -33q0 -11 -12.5 -51t-17.5 -66l-24 -114q-1 -8 -12.5 -15.5t-18.5 -7.5q-3 0 -15 4t-19 4q-5 0 -14 10.5t-9 17.5q0 8 4 16t5 14z" />
    <glyph glyph-name="parenleft" unicode="(" horiz-adv-x="330" 
d="M353 694q7 9 17 14t20 15t27 10q16 0 25 -15t9 -28q0 -22 -14 -66q-5 -16 -26 -16q-14 0 -20.5 -3.5t-18.5 -17.5q-40 -50 -78 -119.5t-58 -118.5q-56 -135 -56 -269q0 -46 4 -63q3 -13 16.5 -33.5t13.5 -34.5q0 -45 -35 -45q-4 0 -13.5 6t-13.5 6q-20 3 -31.5 50
t-11.5 91q0 111 24 208q22 89 77.5 206.5t142.5 222.5z" />
    <glyph glyph-name="parenright" unicode=")" horiz-adv-x="330" 
d="M263 632q-3 13 -14 28t-11 31q0 21 10 23q5 1 15 10t24 9q22 0 43 -23q12 -14 18 -70q5 -45 5 -100q0 -263 -118 -444q-71 -109 -161 -178q-14 -11 -30 -11q-11 0 -21 7t-10 14q0 9 -7 20t-7 16q0 6 5.5 10.5t14 9t11.5 7.5q30 30 41 30q8 0 26 17q31 30 50.5 57t52.5 89
q71 133 71 311q0 105 -8 137z" />
    <glyph glyph-name="asterisk" unicode="*" horiz-adv-x="414" 
d="M274 540q-13 37 -20 51q-14 27 -14 40q0 7 4 12t14 11t11 7q10 10 21 10q9 0 17 -22q6 -15 13 -45q1 -5 4 -13.5t4 -12.5q5 -17 7 -17q4 0 12 13q4 7 21.5 28.5t19.5 24.5q20 31 35 31h20q11 0 19 -3q1 0 5.5 -2t6.5 -3t4 -3t2 -5q0 -9 -11 -24q-9 -11 -17.5 -19.5
l-9.5 -9.5q-22 -24 -39 -46q-10 -12 -10 -14t2 -2q5 0 13 2q53 12 78 12q31 0 31 -13q0 -7 1.5 -10t1.5 -8q0 -1 -8 -22q-6 -13 -17 -13q-9 0 -17.5 -0.5t-9.5 -0.5q-13 0 -30 -2t-31 -5t-17 -3q-13 -1 -13 -4t6 -11q2 -3 18 -31.5t21 -31.5q10 -8 10 -23q0 -5 -4 -10
t-10 -9.5t-7 -6.5q-8 -10 -18 -10q-8 0 -14 8q-30 42 -48 76q-9 17 -11 17t-14 -20q-25 -42 -29 -51q-6 -13 -23 -23q-7 -4 -29 -4q-8 0 -19 7.5t-11 15.5q0 2 7 14l58 86q5 7 5 9q0 3 -27 4q-55 2 -70 4q-10 1 -14 4q-8 5 -8 18q0 10 2 17t2 11q0 2 7 11q5 8 16 8
q5 0 7.5 -1.5t4.5 -1.5q8 -1 21 -2t27.5 -2t18.5 -1q3 0 6.5 -0.5t6 -0.5t4.5 -0.5t3 -0.5h2q2 0 2 3q0 2 -2 8z" />
    <glyph glyph-name="plus" unicode="+" horiz-adv-x="590" 
d="M381 304q4 0 11.5 0.5t10.5 0.5q10 0 58 5.5t55 5.5q23 0 37 -14q4 -4 4 -12q0 -6 -13 -40q-4 -10 -10 -10q-2 0 -7 1t-8 1q-13 0 -29 -2q-26 -3 -74 -7.5t-57 -5.5t-11 -8q-20 -59 -34 -147q-2 -12 -4 -17.5t-9 -9.5t-21 -4q-3 0 -9.5 -3t-8.5 -3q-10 0 -17 3t-9 5.5
t-2 5.5q0 24 4 43.5t12 45t12 44.5l6 27q1 2 1 5q0 5 -5 5h-38q-66 0 -94 10q-18 7 -18 57q0 6 9 13q8 7 18 7q7 0 14 -2q20 -6 90 -6h27q22 0 24 7q23 70 30 99q12 52 23 55q9 3 18.5 6.5t14.5 5t9 1.5q21 0 27 -6q5 -5 5 -10q0 -2 -2 -7t-2 -6q-12 -40 -21.5 -70
t-13.5 -43t-5 -16q-2 -5 -2 -7q0 -3 4 -3z" />
    <glyph glyph-name="comma" unicode="," horiz-adv-x="260" 
d="M61 9q20 35 50 95q7 13 13.5 17t19.5 4q19 0 33 -20q4 -5 8.5 -10.5t7 -8.5t4 -7t1.5 -10q0 -5 -3 -9l-130 -198q-3 -5 -8.5 -10t-10 -7.5t-5.5 -2.5q-10 0 -19 3q-12 4 -19 4q-6 0 -11.5 8.5t-5.5 14.5q0 8 7 20z" />
    <glyph glyph-name="hyphen" unicode="-" horiz-adv-x="456" 
d="M423 243q-3 -3 -11 -4t-21 -3t-23 -5t-70 -3q-36 0 -91 4t-60 4q-11 0 -23 28q-6 16 -6 26q0 7 3 13q7 12 36 12q30 0 84.5 -2t83.5 -2q11 0 38.5 2t36.5 2q37 0 37 -18q0 -40 -14 -54z" />
    <glyph glyph-name="period" unicode="." horiz-adv-x="284" 
d="M218 74q0 -15 -8 -39q-8 -22 -21 -32q-11 -9 -37 -9q-27 0 -50 35q-8 12 -8 23q0 12 8 20q11 11 13 27q1 15 10 25q7 8 33 8q16 0 31 -9.5t21 -21.5q8 -15 8 -27z" />
    <glyph glyph-name="slash" unicode="/" horiz-adv-x="400" 
d="M523 653q0 -17 -13 -31q-11 -12 -24 -22.5t-17 -16.5q-46 -66 -102 -161t-132.5 -232t-99.5 -177t-42.5 -65.5t-25.5 -25.5q-21 0 -32 7q-22 14 -22 28q0 15 18 46q3 6 16 24t18 26l316 547q13 22 35 50t27 32q16 13 31 13q12 0 30.5 -15t18.5 -27z" />
    <glyph glyph-name="zero" unicode="0" horiz-adv-x="440" 
d="M386 577q9 0 37.5 -14t35.5 -28q24 -47 24 -112q0 -76 -46 -193l-5 -12q-4 -12 -8 -22t-13 -28t-24 -44t-35 -57q-29 -45 -70 -72t-76 -27q-24 0 -68.5 27t-62.5 64q-15 30 -15 82q0 37 15.5 98.5t39.5 113.5q45 97 162 232q7 8 41 8q10 0 31 -13q13 -8 20 -8
q3 0 6.5 2.5t10.5 2.5zM403 452q0 27 -17 51t-38 24q-11 0 -21 -11q-110 -124 -165 -269q-4 -10 -13 -51q-14 -61 -14 -80q0 -7 3.5 -28t6.5 -26q1 -1 3.5 -5.5t5 -7.5t6 -6.5t7.5 -5.5t9 -2q55 0 125 119q2 4 8 13t11 17t8 16q26 53 50.5 121.5t24.5 130.5z" />
    <glyph glyph-name="one" unicode="1" horiz-adv-x="440" 
d="M340 416q-55 -68 -99.5 -119t-68.5 -76t-40 -40.5t-22 -21.5t-8 -9q-5 -8 -27 -8q-7 0 -18 7q-19 13 -20 14q-15 17 -15 25q0 4 21 24q32 30 58 48t45 39q125 139 197 228q16 20 43.5 59t31.5 47t7 10t13 2q48 0 63 -30q2 -4 2 -9q0 -6 -3 -13q-22 -57 -44 -127.5
t-34 -118t-33.5 -137t-30.5 -124.5q-11 -44 -11 -62q0 -13 -5.5 -28.5t-19.5 -15.5q-7 0 -14.5 -1.5t-11.5 -1.5q-29 0 -45 14q-4 4 -4 16q0 13 5 38q3 15 10.5 31.5t9.5 24.5q2 9 32 124t44 173q4 14 4 20q0 5 -3 5t-9 -7z" />
    <glyph glyph-name="two" unicode="2" horiz-adv-x="440" 
d="M164 223q236 224 236 341q0 15 -25 15q-33 0 -76.5 -34t-43.5 -49q0 -2 -5.5 -7.5t-12.5 -13.5t-10 -14q-9 -20 -30 -20q-6 0 -13.5 -2t-9.5 -2q-3 0 -10 4t-14.5 15t-7.5 25q0 17 3.5 25t21.5 32q12 16 27.5 29t26.5 20.5t36 22.5q33 20 57 25.5t67 5.5q25 0 62 -31
t37 -53q0 -56 -25.5 -113t-67.5 -107t-84 -92.5t-88 -87.5t-68 -74q-10 -13 -10 -17q0 -5 13 -11t70 -6q49 0 72 5t39 21q12 12 21 33.5t16 30.5q10 14 43 14q11 0 30 -18q5 -5 5 -16q0 -14 -12.5 -54.5t-23.5 -54.5q-14 -17 -51.5 -23.5t-126.5 -6.5q-148 0 -172 19
q-38 31 -38 64q0 25 142 160z" />
    <glyph glyph-name="three" unicode="3" horiz-adv-x="440" 
d="M461 588q6 -13 6 -18q0 -13 -11 -38q-1 -3 -4 -11.5t-5 -12.5q-53 -94 -114 -152q63 0 91 -49q14 -24 14 -65q0 -51 -37 -127q-34 -69 -75 -109.5t-105 -40.5q-79 0 -175 114q-5 6 -6.5 8.5t-2 5t-1.5 5.5q-4 8 -4 14q0 20 24 20q4 0 13 -0.5t15 -0.5q1 0 5 1t6 1
q9 0 16 -7q4 -4 13.5 -12.5t14.5 -14.5t5 -12q0 -12 25 -32t50 -20q13 0 21 5q58 36 92 115q27 63 27 83q0 22 -12 40q-11 16 -31 16q-14 0 -31 -7q-1 0 -10 -2t-20 -8q-3 -2 -19.5 -11t-23 -12t-19.5 -7t-24 -4q-18 0 -23 5q-17 17 -17 38q0 6 46 34q8 5 13.5 9.5t8.5 7.5
l4 4q50 32 89.5 79t56 77.5t24.5 55.5q3 9 3 13q0 3 -3 3q-12 0 -26 -7q-32 -16 -66.5 -40t-34.5 -37q0 -8 -4 -12.5t-11.5 -9t-11.5 -8.5q-6 -6 -38 -6q-7 0 -17.5 18t-10.5 23q0 14 7 26.5t15 20t22 18.5t20 16q3 3 13 5q9 2 16 5.5t15.5 8.5t13.5 8q66 33 98 33
q28 0 42 -10q11 -8 20 -10q19 -5 28 -23z" />
    <glyph glyph-name="four" unicode="4" horiz-adv-x="440" 
d="M420 184q-55 -9 -74 -13q-11 -23 -18.5 -70.5t-7.5 -71.5q0 -3 -2 -9.5t-2 -8.5q-3 -18 -12 -18t-18.5 3t-14.5 6t-14.5 9t-13.5 8q-9 5 -9 21q0 3 9 59q2 11 4.5 23t4 19t1.5 8q0 8 -8 8q-13 1 -40 1.5t-41.5 1t-37 5t-42.5 12.5q-5 2 -12 9q-15 15 -27.5 35t-12.5 30
l1 5q1 5 1 10q0 6 9 16q17 19 61.5 70t73.5 83.5t74.5 78.5t87.5 81q18 15 22 22q13 21 29 21q11 0 23 -4q8 -2 18.5 -9.5t10.5 -14.5q0 -24 -8 -47t-8 -28q0 -24 -32 -129.5t-38 -144.5q-1 -7 -1 -14q0 -3 5 -3q7 0 33.5 5t63.5 5q14 0 22.5 -8.5t16.5 -29.5q2 -6 2 -9
q0 -18 -23 -18q-18 0 -56 -5zM339 496q-3 0 -11 -8q-65 -64 -201 -232q-4 -5 -4 -9q0 -9 5 -11q24 -14 80 -14q24 0 54 5q6 1 8 3t3 9q18 104 63 237q5 15 5 17q0 3 -2 3z" />
    <glyph glyph-name="five" unicode="5" horiz-adv-x="440" 
d="M456 540q-11 0 -25 -1q-92 -6 -172 -26q-7 -2 -9 -10q-3 -11 -14 -45t-15 -50q-3 -11 -3 -16q0 -3 6 -3l5 3q5 2 13 5t17.5 6t22.5 5.5t25 2.5q78 0 113 -51q21 -30 21 -85q0 -62 -55 -164q-38 -71 -84.5 -107t-82.5 -36q-88 0 -177 95q-18 19 -21.5 24.5t-3.5 13.5
q0 5 7 9q3 2 10 9t15.5 12.5t16.5 5.5q16 0 31 -10q15 -9 27 -29.5t20 -29.5q36 -37 67 -37q9 0 27 16q53 47 88 138q3 8 7 23t9 31q12 38 12 54q0 45 -19 55q-5 3 -19 3q-22 0 -57 -19t-73 -58q-11 -11 -19 -11q-20 0 -50 16q-13 7 -13 13q0 2 2 8q11 36 28 93t30 99t24 72
q4 12 25 21.5t33 9.5q6 0 12.5 -3.5t8.5 -3.5q3 0 110 15q74 10 103 10q13 0 32.5 -10.5t30.5 -24.5q6 -8 6 -17q0 -11 -9.5 -19t-23.5 -8l-23 3q-23 3 -37 3z" />
    <glyph glyph-name="six" unicode="6" horiz-adv-x="440" 
d="M464 583q4 -15 4 -23q0 -15 -21 -15q-11 0 -17 1.5t-13 1.5q-5 0 -19 -11q-67 -53 -121.5 -124.5t-76.5 -124.5q-9 -22 -9 -27q0 -4 3 -4q5 0 12 5q52 34 60 36q14 4 35 11.5t35 11.5t29 4q35 0 49 -17q29 -35 36 -49q2 -4 2 -7l-2 -10q-45 -152 -193 -251
q-25 -17 -70 -17q-15 0 -27.5 2.5t-22 6.5t-15 7.5t-11.5 8.5t-7 5q-19 13 -28.5 20.5t-20.5 24t-11 35.5q0 33 9 58q88 266 219 379q6 5 25.5 24t33.5 31.5t35.5 24t39.5 11.5t37 -11t21 -18zM354 221q6 11 6 23q0 5 -8 5t-43.5 -15.5t-65.5 -33.5q-22 -13 -48 -34t-33 -32
q-3 -5 -13.5 -18.5t-15 -23t-4.5 -21.5q0 -10 13 -23t23 -13q14 0 43.5 16.5t54.5 42.5q43 45 91 127z" />
    <glyph glyph-name="seven" unicode="7" horiz-adv-x="440" 
d="M202 246q7 10 7 12q0 5 -9 5q-60 0 -71 11q-5 5 -11 23q-2 6 -2 16q0 1 -1 5t-1 6q0 17 16 17q13 0 22 -4q4 -1 24.5 -4.5t25.5 -3.5q56 0 61 8q23 33 55.5 76t47.5 67t29 58q3 8 3 13q0 10 -38 10q-87 0 -125 -17t-38 -56q0 -7 -8.5 -11t-15.5 -4q-25 0 -37 15
q-5 7 -8.5 27.5t-6.5 28.5q-4 8 -4 27q0 28 152 45q43 5 96 5q65 0 84 -9q11 -6 31.5 -23.5t20.5 -32.5q0 -18 -5.5 -29.5t-36.5 -57.5q-11 -16 -30.5 -42.5t-36.5 -48t-18 -22.5q-2 -3 -2 -6q0 -4 11 -4q4 0 12.5 1t11.5 1q39 0 59 -21q9 -9 9 -15q0 -29 -9 -29
q-3 0 -10.5 1.5t-19.5 1.5q-31 0 -48.5 -3t-37.5 -8.5t-42 -8.5q-139 -199 -139 -268q0 -12 -8 -12q-5 0 -12 -8.5t-16 -8.5q-21 0 -36 19q-3 4 -9 10t-9 10t-3 7q0 42 126 231z" />
    <glyph glyph-name="eight" unicode="8" horiz-adv-x="440" 
d="M202 354q0 7 -0.5 16t-0.5 13q0 217 111 257q11 4 27 4q22 0 53 -11q9 -3 15.5 -12.5t14.5 -12.5q31 -13 57.5 -48.5t42.5 -76.5q5 -12 5 -30q0 -40 -37 -59q-118 -61 -205 -100q-2 -5 -2 -23t1 -31q6 -81 6 -137q0 -125 -40 -130q-1 0 -11 -3t-18 -3q-36 0 -58 13
q-51 31 -92 80t-41 101q0 26 10 47.5t30 38.5t36.5 27.5t45 25.5t38.5 21q9 5 10.5 9.5t1.5 23.5zM393 543q-10 0 -16 26q-2 8 -4 8q-4 0 -9 -2q-34 -14 -57 -51q-8 -13 -15.5 -49t-7.5 -75q0 -18 6 -18q9 0 46 20q3 1 41 18t59 33q14 11 14 25q0 34 -18 51q-19 18 -30 18
q-2 0 -4 -2t-5 -2zM196 52q11 34 11 80q0 23 -1.5 47t-2.5 39t-1 17q0 8 -5 8q-3 0 -10 -3q-34 -14 -55.5 -38.5t-21.5 -52.5q0 -32 16 -54q41 -55 60 -55q7 0 10 12z" />
    <glyph glyph-name="nine" unicode="9" horiz-adv-x="440" 
d="M530 555q0 -25 -22 -56q-8 -11 -13 -24q-14 -38 -55.5 -116.5t-59.5 -135.5q-7 -21 -24.5 -69t-28 -83.5t-14.5 -69.5q-1 -8 -14 -16q-12 -7 -20 -7q-11 0 -19 5q-37 24 -37 37q0 4 8 25q42 112 87 242q7 20 7 24q0 3 -3 3t-25 -12q-31 -17 -41 -20q-13 -4 -24 -5t-16 -3
q-24 -8 -43 -8q-23 0 -38 11q-4 3 -13 8t-16 11.5t-15 19.5q-2 3 -8 10.5t-9 14t-3 15.5q0 17 6 29q21 39 58 73.5t63.5 51t82.5 46.5t73 40q11 6 36.5 14.5t41.5 8.5q22 0 29 -6q5 -4 17 -11.5t22 -15.5q30 -24 30 -31zM437 552q-3 0 -10 -3q-5 -2 -48 -22.5t-54.5 -26.5
t-46.5 -25.5t-51.5 -33t-40 -36t-40.5 -47.5q-8 -11 -8 -14q0 -13 17 -13q13 0 31 6q89 30 161.5 92.5t90.5 109.5q2 6 2 10q0 3 -3 3z" />
    <glyph glyph-name="colon" unicode=":" horiz-adv-x="290" 
d="M258 105q6 -4 11 -20t5 -32q0 -33 -10 -38q-30 -14 -43 -14q-5 0 -9 0.5t-7.5 2t-5.5 2.5t-4.5 3.5t-3 3.5t-3 4.5t-3.5 4.5q-4 5 -9 10l-8 8t-5.5 7t-2.5 9q0 2 1 5.5t2.5 11.5t3.5 17q3 17 13.5 31t24.5 14q10 0 19 -5t19 -13.5t15 -11.5zM315 335q-5 -17 -13 -28.5
t-14 -15.5t-9 -4q-4 0 -32 7q-40 10 -40 39q0 18 3 29.5t9.5 22t7.5 11.5q8 18 12.5 21t20.5 3t38 -18q22 -17 22 -30q0 -17 -5 -37z" />
    <glyph glyph-name="semicolon" unicode=";" horiz-adv-x="280" 
d="M179 107q17 -5 17 -28v-13q0 -10 -3.5 -16t-9 -11t-6.5 -7q-20 -32 -64 -107t-74 -120q-8 -12 -26 -12q-7 0 -17.5 2.5t-15.5 2.5q-20 1 -20 33q0 1 12 20q41 64 85 147.5t58 107.5q8 14 13 16q2 1 4.5 3t4.5 2q10 0 25.5 -10t16.5 -10zM290 354q0 -22 -3 -31
q-12 -35 -26 -35q-5 0 -24 -0.5t-27 -0.5q-20 0 -31 9.5t-11 19.5q0 39 20 68q17 26 32 26q22 0 38 -19q7 -8 14 -14t10.5 -8.5t5.5 -6t2 -8.5z" />
    <glyph glyph-name="less" unicode="&#x3c;" horiz-adv-x="590" 
d="M451 115q10 0 19 -8t9 -17q0 -6 -2 -9t-9.5 -10.5t-13.5 -15.5q-13 -16 -34 -16t-82 34q-13 7 -190 118q-18 11 -18 28q0 7 7 25q2 5 6 8.5t8 13.5q3 8 13.5 16t47.5 29q157 90 164 94q85 52 104 57q3 1 12 5t16 4q10 0 19 -9t9 -18q0 -4 4.5 -13t4.5 -12
q0 -4 -3.5 -13.5t-6.5 -9.5q-10 0 -51 -25q-5 -3 -18 -7t-34 -15q-31 -17 -153 -87q-43 -25 -43 -29t13 -12q1 -1 47 -30t67 -40q67 -36 88 -36z" />
    <glyph glyph-name="equal" unicode="=" horiz-adv-x="590" 
d="M398 370q4 0 66.5 6.5t71.5 6.5q24 0 34 -10q4 -4 4 -17q0 -20 -9 -40q-4 -8 -16 -8q-30 0 -64 -3l-157 -14q-10 -1 -32 -1q-33 0 -81 4t-59 7q-17 5 -17 56q0 4 9 15q5 6 15 6q8 0 16 -2q47 -11 105 -11q22 0 36 1zM358 239q42 0 101 9q34 5 60 5q20 0 29 -8
q11 -9 11 -16q0 -5 -11 -45q-2 -7 -9 -7q-4 0 -12 1t-12 1q-14 0 -20 -1q-83 -14 -189 -14h-28q-118 0 -127 6q-29 20 -29 57q0 2 1.5 4l3 4t2.5 5q3 8 18 8q4 0 22.5 -3t51 -5.5t69.5 -2.5q6 0 30 1t38 1z" />
    <glyph glyph-name="greater" unicode="&#x3e;" horiz-adv-x="590" 
d="M296 373q-24 12 -38.5 22t-26.5 15q-18 7 -18 32q0 10 5 19q3 6 6.5 13.5t5 11t4 6.5t5.5 4t7 1q5 0 12 -6.5t19 -12.5q20 -10 26 -17t21 -15q71 -40 208 -126q18 -11 18 -28q0 -14 -7 -25q-5 -7 -9 -11.5t-5.5 -6t-2.5 -3.5q-5 -10 -14.5 -18t-41.5 -26
q-154 -87 -188 -109q-49 -31 -63 -36.5t-41 -5.5q-32 0 -36 16q-2 7 -6 15t-4 11q0 11 11 19q6 4 13 7t26.5 11.5t48.5 24.5q85 47 171 96q31 18 37 22t6 9q0 3 -18 14q-108 65 -131 77z" />
    <glyph glyph-name="question" unicode="?" horiz-adv-x="360" 
d="M440 572q0 -41 -15.5 -66.5t-93.5 -101.5q-27 -26 -50.5 -53.5t-35.5 -44.5t-12 -21q0 -7 12.5 -12t26.5 -5q6 0 17.5 1t17.5 1q17 0 29.5 -4t18 -8t6.5 -4q9 0 14 -13q6 -15 6 -21q0 -13 -17 -15l-12 -3q-12 -3 -18 -3q-92 0 -140 20q-14 6 -19.5 11t-13.5 19
q-9 16 -9 23q0 2 -1 5t-1 5q0 11 6 17q2 2 3.5 6t2.5 5q28 51 128 156q74 78 74 96q0 14 -15.5 24.5t-28.5 10.5q-20 0 -42 -22q-8 -8 -8 -24q0 -2 1 -11t1 -12q0 -21 -24 -21t-40 22q-7 9 -7 37q0 42 22 62q34 31 84 31q48 0 84 -21q49 -28 49 -66zM256 45q0 -27 -9 -36
q-26 -26 -50 -26q-26 0 -37 15q-2 3 -7.5 9t-9 11t-3.5 9q0 13 5 28q7 27 17 35t23 8q11 0 41 -20.5t30 -32.5z" />
    <glyph glyph-name="at" unicode="@" horiz-adv-x="700" 
d="M482 603q-21 0 -44 -6t-55 -21t-67 -49.5t-65 -84.5q-68 -111 -68 -228q0 -76 43.5 -122.5t116.5 -46.5q82 0 153 51q14 10 26 10q13 0 27.5 -7.5t20.5 -22.5q2 -4 5.5 -7t5 -8t1.5 -16q0 -4 -7.5 -7.5t-17.5 -6.5t-13 -5q-85 -58 -188 -58q-34 0 -76.5 14t-67.5 34
q-57 45 -80.5 94.5t-23.5 117.5q0 143 87 280q55 86 128 125t135 39q66 0 110.5 -17t88.5 -61q39 -39 57.5 -78.5t18.5 -108.5q0 -112 -77 -213q-40 -53 -95 -53q-28 0 -64 22q-20 12 -27 41q-2 10 -5 10q-4 0 -11 -11q-15 -21 -39.5 -39t-47.5 -18q-8 0 -17.5 3.5t-16 7.5
t-14 9.5t-8.5 6.5q-17 10 -27.5 32t-10.5 46q0 43 22 98.5t52 89.5q67 76 119 76q20 0 46 -18t35 -32q8 -12 8 -22q0 -7 16 -16q9 -5 9 -13q0 -12 -4 -21q-34 -76 -42.5 -102.5t-8.5 -55.5q0 -7 5.5 -15.5t12.5 -8.5q35 0 75 68t40 151q0 52 -16 88t-43.5 53.5t-55.5 24.5
t-61 7zM512 439q0 4 -8 11t-11 7q-32 0 -73 -51t-52 -84q-3 -9 -12 -27t-11 -29q-3 -13 -3 -35q0 -14 11 -14q13 0 26 12q39 36 70 76t31 50q0 2 -3 6t-3 7q0 12 9 21q29 31 29 50z" />
    <glyph glyph-name="A" unicode="A" horiz-adv-x="510" 
d="M460 -73q0 -10 -20 -25q-5 -4 -11 -4q-33 0 -51 18q-19 19 -19 127q0 22 2 66.5t2 67.5q0 4 -6 4q-139 -51 -203 -61q-9 -1 -15 -14q-16 -36 -16 -70q0 -15 0.5 -26t1 -15.5t1 -8.5t0.5 -6q0 -3 -5 -6q-3 -2 -11.5 -9t-14.5 -10t-12 -3q-5 0 -19 9q-17 11 -22.5 24
t-5.5 44q0 17 3 38t7 35l3 14q0 4 -6 7q-20 11 -26 16.5t-6 14.5q0 15 6 34t9 21q5 4 11 4q8 0 22.5 -8.5t20.5 -8.5q4 0 12 14q120 223 272 451q17 25 22 25q4 0 27.5 6t36.5 6q30 0 34 -9q1 -5 4.5 -8.5t3.5 -7.5q0 -5 -7.5 -48.5t-7.5 -46.5q0 -14 -3 -33
q-5 -34 -10.5 -95t-8.5 -103.5t-3 -46.5q0 -6 6 -6q1 0 18 2t34 2q45 0 61 -19q6 -7 6 -11q0 -6 -4 -13q-16 -26 -72 -26q-28 0 -44 -10q-10 -7 -11 -20l-5 -100q-1 -13 -1 -63q0 -23 2 -42t5 -30.5t6 -19.5t5 -12t2 -5zM365 267q24 188 24 268q0 16 -3 16q-4 0 -9 -8
q-112 -180 -180 -309q-12 -23 -12 -26q0 -4 6 -4q25 0 100 28q16 6 32 11.5t24.5 8.5t10.5 4q6 2 7 11z" />
    <glyph glyph-name="B" unicode="B" horiz-adv-x="574" 
d="M389 665q27 15 69 15q59 0 97 -33q21 -18 21 -36q0 -47 -87 -148q-12 -14 -25.5 -31.5t-21.5 -28.5t-8 -12q0 -2 4 -4q10 -5 32.5 -6.5t31.5 -4.5q52 -20 76 -67q7 -13 7 -34t-4.5 -42.5t-9 -36.5t-17 -39t-19 -35t-25 -39.5t-25.5 -39.5q-47 -76 -161 -76q-72 0 -105 18
q-3 1 -13 5.5t-19.5 10t-17.5 13.5q-4 -2 -15 -2q-5 0 -11 2t-10 4t-10.5 6.5t-9.5 7t-10 9t-8 7.5q-6 5 -6 12q0 8 -21 31t-21 27q-1 9 -9 21.5t-8 23.5q0 10 11.5 13.5t44.5 3.5q3 0 10 -2t9 -2q8 0 11 13q43 185 93 316q0 3 -3 7q-9 14 -9 33q0 11 6 13q20 8 31.5 25
t23.5 53q16 47 37 47q11 0 34 -13t36 -13q10 0 24 8zM440 330q-45 0 -129 -55q-49 -33 -82 -33q-9 0 -11 -10q-1 -6 -10 -40.5t-15 -61t-6 -38.5q0 -8 7 -15q63 -63 132 -63q38 0 67 39t72 127q25 52 25 106q0 20 -10 32t-40 12zM478 612q0 6 -5 6q-70 0 -143 -52
q-9 -6 -12 -14q-2 -6 -9 -21t-10 -23q-4 -12 -21 -57t-28.5 -80t-11.5 -47q0 -4 4 -4q6 0 23.5 12.5t29.5 27.5q2 2 10.5 14t12.5 16q3 3 46 50.5t62 73.5q17 24 30 47t17.5 35t4.5 16z" />
    <glyph glyph-name="C" unicode="C" horiz-adv-x="472" 
d="M520 656q0 -1 21.5 -23t25.5 -39q1 -5 1 -11q0 -8 -8 -28q-35 -86 -35 -88q-5 -19 -31 -19q-5 0 -16.5 2t-12.5 2q-7 1 -20 11.5t-13 18.5q0 21 16.5 45t18.5 36q0 2 6 12.5t6 17.5q0 15 -9 15q-18 0 -44 -13t-41 -27q-40 -36 -112 -135q-76 -103 -127 -271
q-5 -16 -5 -58q0 -7 4.5 -19t8.5 -16q5 -4 11.5 -10.5t10.5 -9.5t9.5 -6t11.5 -3q72 0 198 126q13 13 19 16.5t19 3.5h16q23 0 34 -19q6 -10 6 -16q0 -2 -13 -15l-42 -42t-49 -46.5t-44 -33t-57 -29.5t-58 -8q-48 0 -78 14q-26 12 -52 35t-29 42q-5 38 -5 61q0 25 5 58.5
t8 41.5q112 316 305 428q9 6 36.5 11.5t46.5 5.5q24 0 43 -9q12 -6 14 -9z" />
    <glyph glyph-name="D" unicode="D" horiz-adv-x="554" 
d="M602 547q20 -26 20 -82q0 -44 -27 -95q-4 -7 -8.5 -19.5t-9.5 -22.5q-32 -66 -58 -112.5t-63 -97.5t-81.5 -86.5t-96.5 -54.5q-11 -4 -32 -4q-25 0 -75 13q-1 -9 -27 -9q-13 0 -30 11.5t-25 25.5q-85 35 -85 71q0 17 20 17q4 0 16 -1.5t21 -1.5q7 0 15 -5.5t12 -5.5
q5 0 6 3q42 171 122 365q0 6 -4 6q-3 0 -20.5 -11.5t-27.5 -11.5q-7 0 -13.5 6.5t-6.5 15.5q0 36 10 50.5t61 49.5q109 74 211 74q63 0 96 -23l19.5 -13t21.5 -14.5t19 -15.5t20 -22zM523 540q-24 35 -67 35q-23 0 -64 -14t-42 -14q4 -4 4 -7q0 -10 -8 -17.5t-11 -14.5
q-7 -15 -28.5 -62.5t-30 -67.5t-26 -61.5t-26.5 -68t-21 -62.5t-19 -69t-12 -66q0 -7 6 -9q10 -3 31 -3q52 0 96 42q124 123 207 326q23 56 23 81q0 34 -12 52z" />
    <glyph glyph-name="E" unicode="E" horiz-adv-x="508" 
d="M679 608q0 -19 -15 -19q-4 0 -12 -3t-13 -3q-3 0 -14 5t-22 5q-113 0 -252 -47q-9 -3 -12 -12q-11 -29 -31 -79.5t-24 -61.5q0 -4 4 -4q7 2 27 9.5t30.5 11.5t28 9t32.5 7t29 2q38 0 75 -20q13 -7 13 -32q0 -8 -19 -14t-29 -6q-6 0 -17.5 1.5t-15.5 1.5q-27 0 -57 -8
t-63.5 -20.5t-50.5 -16.5q-26 -6 -30 -16q-28 -63 -40.5 -92t-24 -67t-11.5 -63q0 -12 8.5 -23t16.5 -11q37 0 81 19q17 7 39 16t29 12q18 8 49.5 27.5t58.5 32t54 12.5q8 0 10 -3q0 -1 15.5 -12.5t15.5 -18.5q0 -11 -6 -13q-11 -3 -22 -13q-16 -14 -27 -20q-61 -33 -97 -50
t-100 -34t-127 -17q-10 0 -37.5 11.5t-39.5 29.5q-8 11 -8 51q0 29 7 61.5t14 53.5t21.5 58t20.5 53q-13 13 -13 31q0 9 2 12q3 5 29 12q10 2 15 14q41 90 50 126q0 5 -4 5q-2 0 -15.5 -4t-21.5 -4q-11 0 -19 4q-10 5 -18 22.5t-8 27.5q0 6 6 7q45 11 181 62
q42 16 123.5 33.5t147.5 17.5q22 0 34 -6q49 -24 49 -50z" />
    <glyph glyph-name="F" unicode="F" horiz-adv-x="446" 
d="M639 615q4 -5 4 -21q0 -13 -6 -16q-20 -11 -42 -11q-1 0 -13.5 11t-33.5 11q-12 0 -35 -5.5t-31 -6.5q-24 -3 -65.5 -14.5t-52.5 -13.5t-11 -16q0 -11 -2 -15q-5 -9 -17.5 -33.5t-18.5 -36.5t-15.5 -31.5t-15.5 -37t-11 -35.5q0 -5 7 -5q27 7 169 34q15 3 19 3t18 -6
q26 -11 33 -18t7 -19t-11 -14q-207 -41 -260 -54q-9 -2 -12 -10q-11 -22 -23 -67.5t-20 -64.5q-6 -13 -7 -20q-9 -49 -9 -69q0 -11 1 -17.5t1 -9.5q0 -7 -5 -10.5t-9 -3.5q-35 0 -66 18q-7 4 -7 12q0 18 2 36.5t8 43.5t8.5 35.5t12 43t10.5 34.5q2 7 2 12q0 10 -15 10
q-13 0 -23 9t-10 21q0 1 -3 7.5t-3 9.5q0 4 6 6q15 6 37.5 10.5t28.5 6.5q7 1 10 9q13 30 37.5 93t36.5 90q0 5 -4 5t-45.5 -19t-49.5 -19q-12 0 -25.5 13.5t-13.5 20.5q0 8 6.5 19.5t7.5 13.5q2 6 7 7q53 12 155 53q20 8 29 10q15 4 56.5 15t64.5 16.5t57 11t60 5.5
q62 0 90 -37z" />
    <glyph glyph-name="G" unicode="G" horiz-adv-x="596" 
d="M616 627q30 -23 30 -54q0 -15 -2 -31t-5.5 -28.5t-6.5 -22t-6.5 -18t-4.5 -10.5q-3 -11 -17.5 -25t-25.5 -14q-5 0 -13 4.5t-9 4.5q-23 5 -28 15q-1 2 -3.5 6t-4.5 6.5t-2 4.5q0 9 11 21t14 21q3 10 9 18t9.5 18t3.5 33q0 25 -31 25q-11 0 -30 -4q-18 -4 -34 -11.5
t-33.5 -21t-26 -21t-27.5 -26.5l-22 -22l-27 -26q-66 -63 -113.5 -150.5t-67.5 -175.5q-6 -26 -6 -44q0 -20 1.5 -30.5t3 -13t5 -7t5.5 -10.5q5 -14 35 -14q17 0 48 13.5t60 38.5q45 39 79.5 67.5t48.5 40t24 21.5q42 46 42 57q0 5 -7 5q-9 0 -44.5 -11.5t-42.5 -11.5
q-30 0 -41 8q-15 11 -19.5 16.5t-4.5 14.5q0 15 3 20t16 7q10 2 24 3t21 3q56 16 62 18q33 11 64 11q10 0 33 -22t23 -36q0 -12 -16 -45q-37 -76 -52.5 -149.5t-15.5 -117.5q0 -6 -14.5 -14.5t-22.5 -8.5q-11 0 -17 3.5t-15 3.5q-10 0 -13 3.5t-3 12.5q0 16 5.5 43t10.5 48
t5 22q0 3 -3 3q-4 0 -34 -28q-53 -49 -83.5 -66t-78.5 -30q-23 -6 -40 -6q-55 0 -91 38q-46 47 -46 83q0 32 6.5 70.5t24.5 96t59.5 127t101.5 135.5q45 49 108.5 95t109.5 55q15 3 35 3q23 0 57.5 -12t51.5 -25z" />
    <glyph glyph-name="H" unicode="H" horiz-adv-x="562" 
d="M611 380q19 0 34 -7q6 -3 10 -3q17 0 30 -24l4 -6l3 -4.5t1.5 -5t0.5 -9.5q0 -14 -8 -14q-30 0 -58.5 -4t-67 -12.5t-51.5 -10.5q-11 -2 -16 -10q-8 -14 -14 -31t-12.5 -40.5t-10.5 -34.5q-22 -67 -38 -204q-2 -13 -23 -13q-19 0 -39 8q-13 6 -20 36q-2 10 -2 15
q0 15 4 28q8 26 22.5 90.5t24.5 93.5q4 12 4 23t-11 11l-140 -28q-11 -2 -15 -9q-13 -22 -24.5 -74t-13.5 -56q-4 -8 -4 -25q0 -10 2.5 -25t2.5 -19q0 -10 -1 -15.5t-5.5 -9.5t-13.5 -4q-20 0 -28 6q-6 5 -14.5 8.5t-13.5 7.5q-13 11 -14 11q-6 0 -6 10q0 22 4 37l3 16
q2 9 6.5 33t8.5 43.5t4 25.5q0 5 -4 5q-2 0 -20.5 -3t-30.5 -3q-42 0 -62 24q-4 5 -7.5 21.5t-3.5 22.5q0 14 16 14q6 0 21.5 -4.5t22.5 -4.5q34 0 88 15q7 2 10 8q9 19 20.5 59.5t19.5 59.5q77 182 129 276q7 12 30 12q5 0 16 -6t24 -10q15 -5 15 -17q0 -10 -3 -15
q-39 -55 -82.5 -162t-61.5 -143q-6 -12 -6 -23q0 -10 6 -10q84 13 153 33q9 3 14 13q27 58 85 233q2 7 7 10q2 1 5 4t5.5 4.5t6.5 3t9 1.5q4 0 15 -1.5t19 -1.5q11 0 20 -6.5t9 -16.5q0 -19 -10 -47q-10 -27 -33 -79.5t-33 -81.5q0 -8 7 -8t38.5 9.5t40.5 9.5z" />
    <glyph glyph-name="I" unicode="I" horiz-adv-x="254" 
d="M352 609q0 -25 -6 -38t-24 -31q-6 -6 -13 -24q-20 -51 -42 -114t-36.5 -105.5t-40.5 -121t-37 -112.5q-2 -6 -2 -10q0 -2 1 -7t1 -8q0 -23 -19 -61q-2 -4 -13 -4q-6 0 -12 -10q-5 -8 -9 -8t-8 5t-9 5q-7 0 -18 7.5t-13 7.5q-6 0 -6 6t6.5 35.5t12.5 39.5q5 9 9 24
q17 70 40 142.5t54 161.5t47 139q2 8 15 33.5t25 64.5q4 12 40 12q17 0 37 -9t20 -20z" />
    <glyph glyph-name="J" unicode="J" horiz-adv-x="400" 
d="M324 140q-22 -72 -57 -128q-26 -42 -60.5 -70.5t-64.5 -28.5q-16 0 -38.5 12.5t-29.5 14.5q-35 11 -53.5 54t-18.5 103q0 51 9 88q5 21 15.5 38t19.5 17t18.5 -2t12.5 -2q13 0 24 -11t11 -25q0 -9 -8 -23t-11 -26q-3 -11 -6.5 -18t-5 -16.5t-1.5 -36.5q0 -31 7.5 -53
t16 -30t14.5 -8q39 0 74 57q30 48 61 137q53 153 80 220.5t84 191.5q0 4 -6 4q-21 -4 -58.5 -14t-45.5 -12t-17 -8q-21 -13 -56 -13q-21 0 -36 3q-12 3 -15 14q-1 5 -6 8.5t-5 11.5q0 7 1 13.5t3 13.5t3 11q1 8 11 8q32 0 135.5 22.5t148.5 22.5q10 0 37 -18q22 -15 22 -26
q0 -18 -6.5 -30t-18.5 -25.5t-19 -27.5q-104 -218 -165 -413z" />
    <glyph glyph-name="K" unicode="K" horiz-adv-x="532" 
d="M382 627q7 -7 7 -21q0 -4 -7 -15q-66 -99 -111 -203q0 -5 7 -5t21 5q2 1 9 2.5t19 7.5q200 99 318 240q5 6 10 6q30 0 52 -19q3 -2 8 -3.5t6 -2.5q6 -6 6 -11q0 -4 -9 -15q-95 -116 -235 -199q-36 -21 -149 -79q-14 -7 -14 -18t8 -27q6 -12 9.5 -25.5t7.5 -21.5
q22 -46 70 -112t95 -113q19 -19 29 -24q42 -21 42 -42q0 -17 -15 -19q-8 -1 -12.5 -4t-14.5 -3q-58 0 -114 66q-9 11 -32.5 37t-34.5 39q-82 104 -121 232q-1 5 -4 5t-5 -4q-74 -146 -95 -270q-1 -10 -19 -21q-10 -6 -18 -6q-5 0 -11 6.5t-15 10.5q-29 11 -29 24t5 29
q86 275 233 553q7 14 14 19q3 2 10 9t13.5 11.5t14.5 4.5q7 0 11 -2q3 -2 6 -5.5t10 -6.5q2 -1 7.5 -2.5t9.5 -3t7 -4.5z" />
    <glyph glyph-name="L" unicode="L" horiz-adv-x="450" 
d="M405 628q0 -14 -7 -30t-7 -21q0 -4 -6 -9q-26 -21 -51 -85q-4 -11 -13 -28t-14 -28q-73 -159 -136 -342q-4 -10 -4 -21q0 -7 4.5 -13t10.5 -6q10 0 42 8q82 21 201 69q5 2 18 2q9 0 26 -7.5t28 -18.5q7 -7 7 -12q0 -1 3 -6t3 -11q0 -9 -3 -14q-7 -10 -42 -10
q-11 0 -19 -2q-36 -9 -92.5 -29.5t-105 -33.5t-96.5 -13q-40 0 -82 58q-4 5 -4 14q0 14 17 56q2 6 4 19t9 34q27 78 61.5 158t88 192.5t71.5 152.5q5 11 31 11q4 0 10.5 -5t17.5 -8q10 -2 19.5 -8.5t9.5 -12.5z" />
    <glyph glyph-name="M" unicode="M" horiz-adv-x="654" 
d="M396 657q0 -6 -25 -103q-9 -33 -9 -105q0 -1 0.5 -14t1 -44.5t0.5 -75.5q0 -12 6 -12q2 0 12 11q38 41 139 134.5t144 148.5q8 10 14 10q15 0 27.5 -4t16.5 -4q2 0 7.5 -5t11 -15.5t5.5 -20.5q0 -2 -5 -10q-81 -122 -125.5 -264t-63.5 -350q-2 -23 -7 -23q-3 0 -10.5 4
t-12.5 4q-3 0 -5.5 -2t-5.5 -2q-18 0 -40 19q-8 7 -8 12t17.5 112t22.5 130q9 46 51 173q0 4 -4 4q-2 0 -5 -3q-71 -71 -141 -151q-9 -10 -13 -10q-1 0 -5.5 1.5t-12.5 3.5t-18 4q-35 6 -46 23q-18 27 -21 91v97q0 5 -3 5t-12 -17q-35 -65 -76 -179q-62 -171 -62 -236
q0 -5 -7 -11t-12 -6q-8 0 -14 -5t-9 -5q-4 0 -19 8t-18 8q-6 0 -13 12.5t-7 24.5q0 22 16.5 54.5t17.5 37.5q30 116 126.5 321.5t108.5 236.5q8 19 11 19q5 0 11.5 -2t15.5 -3q34 -4 46 -16q6 -6 6 -11z" />
    <glyph glyph-name="N" unicode="N" horiz-adv-x="598" 
d="M426 -22q-13 0 -36 11q-26 13 -35.5 25t-16.5 34q-21 67 -42 212.5t-28 172.5q-4 14 -8 14t-8 -14q-3 -13 -30.5 -99.5t-47.5 -166t-26 -140.5q-3 -32 -3 -36q0 -8 -10.5 -13t-26.5 -5q-11 0 -17.5 1t-9 2.5t-6 4t-6.5 4.5q-15 7 -15 15q0 19 25.5 110.5t54.5 186.5
t30 100l9 34q33 128 41 162q2 9 11 11t9 7q0 2 -7.5 19.5t-7.5 37.5q0 7 10 11q22 9 60 9q9 0 14 -14q35 -104 57 -298t46 -282q4 -15 8 -15q2 0 9 15q15 34 29 68.5t28.5 78t22.5 69t24.5 80.5t22.5 73q3 9 9 25.5t9 29.5q4 17 8 53.5t9 54.5q4 14 7 17.5t14 3.5
q7 0 21.5 -3t19.5 -3q9 0 22.5 -14t13.5 -19q0 -18 -11 -38l-14 -40q-7 -21 -64.5 -200t-106.5 -300q-8 -20 -14 -26q-26 -26 -47 -26z" />
    <glyph glyph-name="O" unicode="O" horiz-adv-x="490" 
d="M448 601q71 -64 71 -175q0 -32 -10 -72q-53 -216 -133 -317q-49 -61 -139 -61q-30 0 -60 9q-31 10 -57 48q-32 47 -32 114q0 98 30.5 180.5t90.5 170.5q59 87 117 122q18 11 26 11t22 -6q35 -16 52 -16q13 0 22 -8zM381 546q0 10 -7 10q-12 0 -41 -30
q-103 -106 -147 -247q-12 -39 -12 -62q0 -2 -2.5 -29t-2.5 -40q0 -62 34 -96q9 -9 33 -9q19 0 39 10.5t30 26.5q67 102 96 208t29 153q0 25 -1 33q-9 53 -42 64q-6 2 -6 8z" />
    <glyph glyph-name="P" unicode="P" horiz-adv-x="490" 
d="M573 442q-62 -115 -175 -204q-10 -8 -42 -18.5t-59 -10.5q-17 0 -26.5 3t-22.5 14l-14 10q-6 4 -8 4q-4 0 -8 -13q-20 -61 -40.5 -144t-20.5 -96q0 -6 -7 -11q-11 -8 -23 -8q-10 0 -13 3q-8 8 -19 12.5t-18 11.5q-3 3 -3 6t4 19q30 120 34 130q6 15 6 19q0 13 17.5 63
t19.5 63q0 5 -4 8q-19 14 -19 25q0 10 6 11q1 0 6 3.5t11.5 6t14.5 2.5q3 0 4 4q33 100 33 101q0 5 -6 5q-5 0 -13 5t-12 9.5t-6.5 8.5t-4.5 6q-7 7 -7 11q0 20 35 42q53 34 77.5 48.5t71 38t88 33t85.5 9.5q18 0 26.5 -1t20 -5.5t23.5 -14.5q19 -16 26.5 -29.5t7.5 -41.5
q0 -25 -7.5 -51t-15 -41.5t-23.5 -45.5zM534 588q0 4 -1 5.5t-6.5 3t-17.5 1.5q-8 0 -18 -3q-12 -4 -42 -11t-46 -12t-38.5 -17t-38.5 -28q-6 -18 -25.5 -67.5t-31 -84.5t-18.5 -67q43 -37 58 -37q6 0 15 6q102 67 162 178q48 88 48 133z" />
    <glyph glyph-name="Q" unicode="Q" horiz-adv-x="554" 
d="M568 576q36 -31 36 -128q0 -54 -38 -135t-105 -170q-3 -4 -3 -10q31 -60 77 -121t81 -86q13 -9 13 -13q0 -17 -30 -17q-45 0 -69 20q-62 52 -122 139q-5 7 -8 7q-4 0 -7 -4q-32 -34 -75 -55.5t-69 -21.5q-37 0 -57 7q-7 2 -29.5 17.5t-26.5 17.5q-31 16 -44 70
q-10 41 -10 83q0 59 19 122q9 29 11 33q73 146 156 217q8 7 22 15.5t19 11.5q35 24 77.5 37t63.5 13q18 0 40 -11q6 -3 21 -8t29.5 -12t27.5 -18zM486 561q-35 0 -71 -18q-99 -48 -179 -168q-68 -101 -68 -205q0 -121 51 -121q47 0 131 84q5 5 5 13q-65 129 -68 143
q-5 23 -5 25q0 18 26 18q11 0 26 -6t25 -6q13 0 18 -15q20 -63 22 -67q9 -16 12 -16t12 11q39 50 69 119t30 124q0 46 -8 65.5t-28 19.5z" />
    <glyph glyph-name="R" unicode="R" horiz-adv-x="494" 
d="M532 576q15 -28 15 -71q0 -88 -78 -172q-27 -29 -61.5 -44t-100.5 -34q-9 -3 -9 -9q6 -15 17 -33.5t27 -43t24 -36.5q4 -7 10 -14q29 -34 56 -59q35 -31 74 -40q10 -2 20 -21t10 -34t-31 -15q-32 0 -85 33q-25 16 -47.5 36t-37.5 36.5t-33 43.5t-27.5 43t-28 49.5
t-26.5 47.5q-4 7 -8 7q-6 0 -9 -10q-19 -60 -31 -126.5t-12 -95.5q0 -18 -41 -18q-6 0 -8 0.5t-7 3.5l-10 6q-22 11 -22 22q22 164 102 393q6 18 13 27q5 7 13 30t11 29q0 4 -4 4q-7 0 -21.5 18t-14.5 26t7 13q97 71 209 71q48 0 81 -11q17 -6 28 -14q27 -20 36 -38z
M456 566q-14 14 -44 14q-29 0 -63 -12q-9 -3 -13 -9q-58 -97 -99 -225q0 -5 3 -7q10 -7 26 -7q14 0 34 7q6 2 13 3t14.5 3.5t19.5 10.5q50 32 83 82t33 112q0 21 -7 28z" />
    <glyph glyph-name="S" unicode="S" horiz-adv-x="432" 
d="M451 596q28 -30 36 -82q1 -5 2.5 -12t2.5 -12t1 -8q0 -13 -21 -13q-7 0 -17 3q-21 6 -44 35q-2 2 -11 33.5t-27 41.5q-10 6 -22 6q-4 0 -9.5 -9t-10 -28t-4.5 -42q0 -41 14 -99q3 -12 33 -123t38 -158q7 -43 7 -66q0 -30 -17 -54t-45 -35q-8 -3 -39 -3q-65 0 -128.5 35
t-111.5 96q-2 3 -13 15t-17.5 20.5t-14.5 25.5t-11 37q-2 11 -2 30q0 7 7.5 18t14.5 11q28 0 51 -14q13 -8 24 -19.5t11 -15.5q0 -7 -3.5 -17.5t-3.5 -22.5q0 -4 6 -16q20 -35 59.5 -67.5t81.5 -46.5q12 -4 26 -4q13 0 23.5 11t10.5 26q0 44 -5 77q-9 59 -38 160.5
t-39 153.5q-9 50 -9 77q0 17 1 22q0 1 3.5 17.5t4.5 21.5t6.5 18t11 18.5t15.5 10.5t22 5q97 0 150 -58z" />
    <glyph glyph-name="T" unicode="T" horiz-adv-x="388" 
d="M618 581q0 -26 -13 -30q-2 -1 -6.5 -4t-10.5 -5t-13 -2q-4 0 -8.5 5t-12.5 8q-28 11 -32 11q-70 0 -149 -15q7 -7 7 -12q0 -2 -2 -6q-131 -222 -175 -456q-5 -27 -5 -35q0 -4 0.5 -12t0.5 -12q0 -32 -27 -32q-17 0 -51 19q-4 2 -8.5 10.5t-4.5 13.5q0 17 5 42
q64 264 159 458q0 4 -6 4q-70 -5 -73 -5q-40 0 -56 16q-2 2 -2 29q0 16 7.5 25.5t14.5 9.5q2 0 8 -2t23 -3.5t46 -1.5q47 0 143.5 16t148.5 16q25 0 58.5 -20t33.5 -30z" />
    <glyph glyph-name="U" unicode="U" horiz-adv-x="600" 
d="M336 624q5 -10 5 -26q0 -4 -9 -25q-18 -45 -60 -137t-66.5 -159.5t-33.5 -132.5q-4 -28 -4 -55q0 -15 5 -15q19 0 39 20q220 220 343 420q5 7 9.5 18.5t14.5 27.5q5 8 15 18.5t14 10.5l11 -2q11 -2 22 -2q6 0 11 -9l14 -22q6 -10 6 -14q0 -5 -7 -22q-8 -21 -31 -61.5
t-31 -61.5q-72 -194 -72 -397q0 -10 0.5 -16.5t0.5 -9.5v-4q0 -10 -14 -10q-7 0 -10 1t-6 3t-7 3q-10 3 -35 19l-6 3t-6 3.5t-4 4.5t-2 8q0 12 5 21q4 6 5 16q3 22 6 64.5t7 74t11 57.5q3 12 3 16q0 5 -5 5q-3 0 -8 -5q-157 -182 -233 -248q-18 -16 -46 -16q-26 0 -41 15
q-8 8 -28 13t-27 19q-5 10 -5 63q0 72 27 158q21 67 69 186.5t62 159.5q2 5 4 9t4 7.5t3 5.5q15 27 30 27q2 0 4 -1t4.5 -2t7.5 -3.5t12 -5.5q19 -7 23 -15z" />
    <glyph glyph-name="V" unicode="V" horiz-adv-x="470" 
d="M273 625q6 -12 7 -28q0 -13 -1 -21q-6 -42 -31 -198t-34 -241q-1 -9 -1 -23q0 -17 5 -17q6 0 16 7t32 34.5t46 71.5q27 49 76 137.5t63 113.5q39 72 39 123q0 8 -1 15t-1 8q0 15 22 15q6 0 15 -0.5t13 -0.5q5 0 7 -2t5 -6.5t7 -7.5q22 -16 22 -31q0 -21 -14 -66.5
t-31 -72.5q-32 -51 -82.5 -147t-95 -169.5t-89.5 -118.5q-19 -19 -26 -19q-4 0 -12 3t-16 3q-7 0 -12 -3t-8 -3q-23 0 -54 31q-6 6 -6 15q0 4 -6.5 17t-6.5 21q0 2 1.5 7.5t1.5 9.5q0 11 2 23q7 64 32 224.5t28 232.5q0 10 3.5 20t3.5 34q0 26 22 26q2 0 13 -1t20 -1
q19 0 26 -15z" />
    <glyph glyph-name="W" unicode="W" horiz-adv-x="684" 
d="M713 639q11 -23 13 -54q2 -28 2 -40q0 -60 -20 -150q-51 -228 -169 -395q-23 -33 -51 -33q-1 0 -9.5 3t-19.5 4q-18 1 -31 14q-2 2 -19 8.5t-21 15.5q-16 33 -27 136q-2 18 -7 18q-4 0 -9 -8q-14 -22 -35 -42q-17 -16 -44.5 -50.5t-49 -54.5t-41.5 -20q-10 0 -36 23
q-4 4 -18.5 8t-16.5 11q-2 8 -2 34q0 21 10 86q1 8 2.5 22t5.5 32q18 83 64 242t51 176q2 7 3.5 9.5t8.5 5t19 2.5q1 0 31 -6q4 -1 14.5 -12.5t10.5 -13.5q0 -1 -3 -10q-74 -178 -134 -465q-5 -24 -5 -32q0 -5 3 -5q7 0 26 20q109 112 160 226q11 23 16 47q6 26 16 50
q3 8 8 8t14.5 -2.5t11.5 -2.5q12 -1 21 -12q17 -20 17 -37q0 -14 -3 -23q-29 -93 -29 -180q0 -61 13 -126q2 -9 7 -9t15 14q103 137 162 392q6 25 6 44q0 12 1 27t1 30q0 16 -10 34t-10 33q0 35 13 35q3 0 12.5 -1t17.5 -1q32 0 44 -25z" />
    <glyph glyph-name="X" unicode="X" horiz-adv-x="482" 
d="M660 646q8 -2 16 -11.5t8 -15.5q0 -9 -3 -13q-18 -24 -63 -56t-71 -56q-28 -26 -43 -39q-155 -133 -164 -141q-12 -11 -12 -20q8 -52 32 -143t29 -114q2 -8 15 -27.5t13 -29.5q0 -9 -8 -17q-6 -6 -23 -6q-19 0 -54 14q-9 3 -14 14q-16 32 -25.5 69.5t-17 91t-11.5 72.5
q-2 13 -7 13q-4 0 -21 -18q-46 -49 -68 -74.5t-48.5 -68t-35.5 -80.5q-2 -10 -15 -14q-8 -3 -13 -8t-7 -5q-32 0 -59 27q-6 6 -6 19q0 12 6 24.5t16.5 29t14.5 25.5q4 8 14 24q23 36 54.5 70.5t72.5 73t61 60.5q14 15 14 23q-28 157 -28 252q0 11 3.5 16.5t3.5 11.5
q0 2 -1.5 9.5t-1.5 10.5q0 10 9 16q7 5 27 5q29 0 35 -10q3 -6 9 -13.5t10 -13.5t4 -10q0 -3 -2.5 -12t-4.5 -25.5t-2 -37.5q0 -41 11 -114q3 -18 10 -18q10 0 22 12q30 30 119.5 107t132.5 126q9 10 16 10q10 0 29 -7t22 -8z" />
    <glyph glyph-name="Y" unicode="Y" horiz-adv-x="502" 
d="M257 668q4 -1 8.5 -11t4.5 -18q0 -15 -9.5 -34.5t-13.5 -37.5q-45 -217 -45 -320q0 -10 19 -10q17 0 30 8q67 42 113 88q49 49 109 165q41 80 64 110q7 10 11 10q38 0 60 -22q3 -3 7 -14t4 -15q0 -6 -6 -14q-204 -286 -282 -864q-2 -11 -4 -19t-2 -11q0 -8 -6 -8
q-3 0 -11.5 2t-14.5 3q-43 7 -47 26q-2 10 -2 30t3.5 39t10 44.5t8.5 34.5q0 2 11 60q22 117 92 352l-8 -9q-59 -65 -133 -65q-6 0 -28 12t-40 28q-40 35 -40 58q0 37 5 107q0 5 2.5 15t2.5 21q0 12 4 25.5t5 19.5q19 114 47 214q3 9 8 9q9 0 63 -9z" />
    <glyph glyph-name="Z" unicode="Z" horiz-adv-x="560" 
d="M659 555q0 -27 -8 -41.5t-40 -48.5q-45 -49 -100 -92q-5 -4 -5 -8q0 -5 9 -5q71 0 98 -34q5 -6 5 -17q0 -9 -5 -15.5t-11 -6.5q-1 0 -5.5 0.5t-16 1t-30.5 0.5q-48 0 -129.5 -17t-94.5 -19q-22 -18 -71.5 -52t-83.5 -64.5t-52 -66.5q-6 -12 -6 -18t19.5 -15.5t35.5 -9.5
q8 0 25.5 -4t30.5 -4q68 0 241 62q22 8 28 8q30 0 36 -10q4 -6 12.5 -17t14 -19.5t5.5 -16.5t-7 -8q-6 0 -9 2t-8 2q-4 0 -7 -3.5t-7 -5.5q-139 -62 -269 -62q-113 0 -200 55q-8 5 -25 31t-17 39q0 18 3 25q18 41 134 134q6 5 6 7q0 4 -7 5q-35 6 -45 17q-8 10 -8 20
q0 3 1.5 8.5t1.5 17.5q0 10 8.5 16.5t16.5 6.5q7 0 22 -5q45 -14 60 -14q11 0 40.5 5t36.5 9q208 127 271 220q7 9 7 14q0 14 -40.5 21t-82.5 7q-107 0 -136 -57q-3 -7 -23 -7q-13 0 -27 7t-20 19t-13 41q0 10 4 13q77 52 200 52q106 0 184 -45q9 -5 31 -26.5t22 -31.5z" />
    <glyph glyph-name="bracketleft" unicode="[" horiz-adv-x="326" 
d="M478 810q80 0 83 -15q0 -2 3.5 -7t3.5 -13q0 -7 -5 -17q-9 -18 -15 -22.5t-22 -4.5q-1 0 -14.5 1t-31.5 1h-11q-42 0 -54 -5.5t-22 -29.5q-44 -104 -135.5 -389.5t-115.5 -352.5q-14 -40 -14 -60q0 -6 2 -9t13 -5.5t33 -2.5q28 0 53 2t32 2q9 0 15.5 -10t6.5 -17
q0 -13 -3.5 -23t-7 -14t-9.5 -9l-6 -5q-5 -5 -54 -5h-19q-52 0 -94 3q-19 1 -39.5 26.5t-20.5 45.5q0 25 21 88l222 670q23 71 43 110.5t28 46.5t19 11q25 9 78 9h37z" />
    <glyph glyph-name="backslash" unicode="\" horiz-adv-x="374" 
d="M266 645q0 -3 -4.5 -20t-4.5 -33q0 -29 5 -69q8 -62 32.5 -211.5t39.5 -264.5q7 -53 7 -84t-5 -31q-3 0 -12 -5t-19 -5q-24 0 -32 15q-14 26 -14 49q0 37 -4 61l-77 517q-3 19 -3 60q0 36 2 42q5 20 16 27q5 3 17 3q3 0 8 -1t7 -1q20 0 30.5 -10.5t10.5 -38.5z" />
    <glyph glyph-name="bracketright" unicode="]" horiz-adv-x="326" 
d="M-30 -200q-80 0 -83 15q0 2 -3.5 7t-3.5 13q0 7 5 17q9 18 15 22.5t22 4.5q1 0 14.5 -1t31.5 -1h11q41 0 53.5 5.5t22.5 29.5q46 105 140.5 400.5t110.5 341.5q13 37 13 60q0 6 -2 9t-15 5.5t-40 2.5q-28 0 -48 -2t-27 -2q-9 0 -15.5 10t-6.5 17q0 38 29 51q11 5 60 5
q41 0 104 -3q16 -1 38 -27t22 -45q0 -26 -21 -88l-222 -670q-18 -55 -32.5 -89.5t-25.5 -50t-17 -20t-15 -8.5q-25 -9 -78 -9h-37z" />
    <glyph glyph-name="asciicircum" unicode="^" horiz-adv-x="550" 
d="M500 655l88 -189q8 -18 8 -26q0 -7 -1 -8.5t-4 -2t-5 -3.5q-9 -12 -13 -14.5t-13 -2.5q-4 0 -12 6t-13 15l-87 163q-6 10 -13 10q-5 0 -12 -4q-150 -88 -167 -105q-4 -4 -10 -4t-12 3t-9 6t-7 8l-4 5q-4 4 -4 32q0 5 4 14l4 8q1 5 51 30l173 85q10 5 17 5q20 0 26 -12
q2 -3 6.5 -7t8.5 -12z" />
    <glyph glyph-name="underscore" unicode="_" horiz-adv-x="626" 
d="M-119 -96h700v-64h-700v64z" />
    <glyph glyph-name="grave" unicode="`" horiz-adv-x="510" 
d="M363 743q-21 15 -66 33q-12 5 -12 33q0 15 11 26q12 12 24 12q3 0 7.5 -1.5t6.5 -1.5q1 0 3 -1t5.5 -3.5t8.5 -6t15.5 -11t22.5 -16.5l102 -70q26 -18 26 -25q0 -2 -5 -17q-1 -4 -2 -9.5t-1 -6.5q-3 -10 -13 -10q-18 0 -31 9z" />
    <glyph glyph-name="a" unicode="a" horiz-adv-x="468" 
d="M492 435q8 -19 24 -19q19 0 28 -13q2 -3 2 -6q0 -5 -4 -11q-96 -131 -116 -212q-14 -56 -14 -89q0 -43 21 -75q2 -4 2 -6t-1.5 -4.5t-6.5 -5.5t-13 -4q-2 0 -9 -2t-10 -2q-34 0 -43 20q-17 38 -17 86q0 13 1 25t2 19l1 6q0 5 -4 5q-6 0 -24 -18l-54 -50q-57 -54 -119 -75
q-12 -4 -16 -4q-14 0 -70 45q-22 18 -22 59q0 59 60 148q59 87 144 150q74 54 160 79q11 3 22 3q32 0 61 -29q13 -12 15 -20zM428 422q-12 0 -31 -10q-145 -77 -225 -174q-32 -39 -53.5 -78.5t-21.5 -60.5q0 -27 22 -27q19 0 49 28q26 24 88.5 76.5t100 91t60.5 81.5
q10 19 29 38q5 5 5 15q0 7 -6 13.5t-17 6.5z" />
    <glyph glyph-name="b" unicode="b" horiz-adv-x="386" 
d="M450 738q0 -15 -24.5 -38t-28.5 -30q-17 -27 -54 -83t-61.5 -97t-37.5 -71q-10 -25 -34 -74t-37 -79.5t-25 -75t-12 -84.5q0 -19 3 -27.5t14 -8.5q19 0 35 21q41 52 61 94.5t38 106.5q6 22 6 26q0 11 -5 33t-15 30q-5 4 -5 18t10 29.5t22 15.5q14 0 35 -25
q22 -26 28.5 -30.5t23.5 -4.5q49 0 155 29q22 6 23 6q2 0 5 -1t7 -1q13 0 20 -6q12 -9 12 -22q0 -15 -9 -17q-32 -5 -97.5 -28.5t-105.5 -23.5q-3 0 -14 3t-15 3t-4 -9q0 -3 1 -10t1 -11q0 -6 -2.5 -15.5t-4.5 -22.5q-3 -19 -10 -36.5t-18 -39.5t-15 -31q-15 -33 -28 -51
q-17 -23 -27.5 -36t-28 -30t-36.5 -25.5t-39 -8.5q-15 0 -27 4q-16 5 -37 19.5t-26 32.5q-7 30 -7 50q0 50 21 111q23 68 31 87q19 44 39.5 86t48 92.5t42 76.5t52 91t48.5 84q24 42 60 42q12 0 29 -6q19 -8 19 -32z" />
    <glyph glyph-name="c" unicode="c" horiz-adv-x="346" 
d="M272 123q91 68 122 68q9 0 21 -11t12 -15q0 -2 -2 -5t-2 -5q0 -9 -8 -12q-34 -14 -110 -76q-92 -74 -148 -74q-36 0 -65.5 18.5t-35.5 30.5q-12 24 -12 47q0 18 16 75q10 35 12 39q109 219 208 268q6 3 16 3q26 0 55.5 -11.5t48.5 -30.5q4 -4 4 -14q0 -6 1 -10t1 -5
q0 -3 -1 -7q-1 -3 -10 -20.5t-16.5 -38t-7.5 -35.5t-19 -15q-12 0 -20 7l-26 19q-11 8 -11 22q0 11 11 32t11 28q0 10 -8 10q-6 0 -16 -10q-71 -71 -122 -161q-25 -45 -41.5 -89t-16.5 -64q0 -21 17 -21q59 0 142 63z" />
    <glyph glyph-name="d" unicode="d" horiz-adv-x="496" 
d="M724 747q0 -24 -21 -55q-4 -6 -10.5 -20t-12.5 -23q-12 -19 -57 -87t-70 -112.5t-40 -85.5l-16 -44q-76 -213 -76 -277q0 -21 4 -38t4 -18q0 -3 -4 -7t-8 -9t-6 -7t-7.5 -3.5t-14.5 -1.5q-7 0 -21 7.5t-15 11.5q-6 35 -6 65q0 56 26 148q4 12 11.5 29.5t13.5 29.5t6 13
q0 2 -2 2t-10 -9q-5 -6 -33 -39t-36.5 -42t-33 -36.5t-38 -40t-35 -32.5t-41 -34t-39.5 -26q-12 -7 -30 -7q-14 0 -41 12.5t-30 18.5q-17 29 -17 57q0 40 35 107q69 130 211 225q28 19 72 19q16 0 28 -5q4 -2 22 -8t25 -11q7 0 8 1q58 63 128.5 186t104.5 167q9 12 23 12
q12 0 30.5 -10.5t18.5 -22.5zM378 369q0 10 -23 10q-15 0 -25 -5q-73 -37 -137.5 -110t-95.5 -155q-3 -9 -3 -13q0 -23 7 -23q5 0 10 4q3 2 9.5 5t11.5 7q102 80 225 244q3 4 10 11.5t9 12t2 12.5z" />
    <glyph glyph-name="e" unicode="e" horiz-adv-x="366" 
d="M253 -3q-18 -10 -36 -10q-19 0 -38 7q-41 15 -64 28q-33 18 -50 69q-12 34 -12 77q0 16 5 33q34 124 172 271q16 17 45 31t62 14q30 0 61 -11q11 -4 21.5 -19.5t10.5 -42.5q0 -26 -23 -72q-12 -24 -32 -47q-45 -51 -73.5 -81.5t-73.5 -69.5t-85 -61q-6 -4 -6 -8
q0 -11 8 -24.5t16 -17.5q15 -8 31 -8q24 0 77 28q38 20 92 66.5t79 62.5q11 7 20 7q5 0 12.5 -6.5t7.5 -13.5q0 -5 -0.5 -8.5t-0.5 -4.5q0 -10 -5 -14q-10 -9 -40 -41t-71.5 -64t-109.5 -70zM328 398q18 27 18 46q0 12 -6 12q-8 0 -21 -9q-19 -12 -20 -13
q-129 -115 -157 -229q0 -5 2 -5t7 3q68 52 153 154q8 10 13.5 21.5t10.5 19.5z" />
    <glyph glyph-name="f" unicode="f" horiz-adv-x="268" 
d="M415 724q8 -11 8 -20q0 -11 -14.5 -30t-15.5 -28t-4 -16q-9 -20 -53.5 -77t-54.5 -94q-4 -15 -11 -30q-23 -51 -23 -59q0 -5 5 -5q29 0 93.5 24t100.5 24q15 0 24 -6.5t9 -12.5q0 -4 -1.5 -7t-3 -5t-4.5 -4t-5 -3t-6.5 -2.5t-5.5 -2.5l-11 -6q-14 -5 -40 -17t-48 -20.5
t-42 -12.5l-6 -1.5t-3 -1.5t-5 -3t-10 -4q-7 -3 -21.5 -7t-25 -8.5t-18.5 -11.5q-6 -4 -9 -13q-4 -11 -22 -64t-24 -70.5t-20 -63t-20 -73t-13 -67t-10 -75.5q-2 -20 -28 -29q-30 -11 -31 -11q-7 0 -25 12q-7 5 -7 39q0 17 4 34.5t12 40.5t11 32q8 29 10 40q5 26 42 139.5
t37 125.5q0 4 -2 7q-5 9 -23.5 27t-22.5 31q-6 16 -6 24q0 7 4.5 13.5t9.5 6.5q7 0 27 -7t30 -7q17 0 23 14q38 90 56 132t46.5 99.5t57.5 104.5q6 9 22.5 15.5t28.5 6.5q21 0 34 -17z" />
    <glyph glyph-name="g" unicode="g" horiz-adv-x="422" 
d="M438 361q-125 -224 -125 -254q0 -4 4 -4q73 63 167 118q17 10 24 10q16 0 26 -10q6 -6 6 -15q0 -11 -8 -17q-148 -111 -223 -187.5t-111 -162.5q-65 -158 -83 -190q-15 -28 -28.5 -35t-43.5 -7q-16 0 -32.5 8t-19.5 21q-3 10 -3 22q0 30 68 135q20 31 56 77t64 98t78 167
v2q0 2 -2 2t-3 -1q-4 -4 -18.5 -18t-20 -19t-18.5 -16.5t-20.5 -16t-18.5 -10.5t-21.5 -8.5t-20.5 -2.5q-17 0 -30 6q-25 10 -60 46q-7 7 -7 29q0 15 3.5 30.5t7 23.5t10.5 22t8 17q20 43 98 130q47 53 95.5 84.5t68 37t27.5 5.5q71 0 103 -43q11 -15 11 -35q0 -24 -8 -39z
M374 391q3 5 3 7q0 1 -1 3t-1 3q0 6 -10 10q-7 3 -17 3q-19 0 -46 -21q-9 -8 -22 -15.5t-20 -14.5q-43 -40 -90.5 -99t-62.5 -94q-12 -28 -12 -38q0 -3 4.5 -5.5t7.5 -2.5q12 0 20 5q64 40 130.5 112t116.5 147z" />
    <glyph glyph-name="h" unicode="h" horiz-adv-x="418" 
d="M395 -26q-32 -8 -35 -8q-10 0 -29 7q-54 20 -54 95q0 48 19 112q14 47 37 103q4 9 4 12q0 2 -2 2q-3 0 -13 -11q-36 -41 -102 -136t-94 -127q-6 -7 -11 -10q-22 -13 -38 -13q-5 0 -23 8.5t-29 19.5q-4 4 -4 11q0 6 3.5 12.5t5.5 14.5q15 62 47.5 143t58.5 135.5t83 167.5
q20 40 71 131.5t76 142.5q7 14 26 14q6 0 12.5 -1t8.5 -1q13 0 28 -15q9 -9 9 -25q0 -9 -4.5 -18.5t-9 -15.5t-16 -19.5t-17.5 -20.5q-5 -6 -10.5 -14.5t-8.5 -12.5q-41 -56 -80 -131.5t-94.5 -200.5t-69.5 -155q-9 -19 -9 -20q0 -2 2 -2q1 0 7 8q103 144 227 278
q19 20 28 23q15 5 23 5q18 0 37 -7q15 -6 15 -19q0 -28 -30 -80q-6 -11 -10.5 -21t-8.5 -22t-7 -18q-52 -123 -52 -214q0 -33 6 -46t19 -20q3 -1 7 -2t9.5 -2t8.5 -2q7 -2 7 -8q0 -1 -5 -13q-4 -10 -19 -14z" />
    <glyph glyph-name="i" unicode="i" horiz-adv-x="220" 
d="M278 72l-41 -38q-53 -48 -103 -48q-22 0 -44 25t-31 54q-5 17 -5 42q0 36 16 81q3 8 8.5 25t8.5 25q74 173 97 222q13 27 50 27q21 0 30 -8q8 -6 8 -16q0 -23 -10.5 -43t-28 -43t-25.5 -41q-30 -65 -59 -142q-24 -64 -24 -98q0 -32 18 -32q16 0 29 6t44 28t47 22
q17 0 25 -7q6 -5 6 -14q0 -11 -16 -27zM364 691q12 -13 12 -33q0 -12 -5 -18q-40 -49 -64 -49q-29 0 -40 20q-7 14 -7 34q0 26 13 42q14 17 49 17q31 0 42 -13z" />
    <glyph glyph-name="j" unicode="j" horiz-adv-x="238" 
d="M249 448q8 -14 8 -20q0 -3 -8 -19q-27 -55 -86 -205q-4 -9 -4 -15q0 -3 2 -3q5 0 16 10q61 53 100 76q20 12 30 12q18 0 18 -13q0 -11 -3.5 -19.5t-7.5 -12t-16 -13.5t-19 -16q-88 -79 -183 -215q-24 -35 -34 -59q-18 -45 -36 -93.5t-38.5 -106.5t-33.5 -94
q-3 -7 -7.5 -14.5t-15 -15t-22.5 -7.5q-2 0 -4.5 1t-7.5 3.5t-12 4.5q-27 9 -27 44q0 10 5 25q20 55 82.5 177t83.5 192q5 18 23 66q12 34 36.5 96t43.5 113.5t33 98.5q4 14 17 23q9 7 16 7q5 0 12 0.5t11 0.5q22 0 28 -9zM369 646q0 -16 -15 -31.5t-17 -23.5
q-4 -17 -27 -17q-35 0 -56 32q-5 8 -5 24q0 4 -1 11.5t-1 9.5q0 4 6 11q22 27 52 27q24 0 47 -19q17 -15 17 -24z" />
    <glyph glyph-name="k" unicode="k" horiz-adv-x="376" 
d="M381 698q0 -29 -30 -70q-4 -6 -25 -39q-21 -34 -39 -73.5t-38.5 -92t-30.5 -76.5q-3 -6 -3 -9t3 -3q4 0 12 5q122 75 170 150q8 12 20 21q14 10 30 10q12 0 27 -9q18 -11 18 -18q0 -11 -14.5 -32.5t-30.5 -34.5q-8 -7 -15 -16t-13 -14q-51 -43 -160 -115q-7 -5 -7 -13
q0 -1 21 -69q5 -14 26.5 -59.5t28.5 -54.5q23 -32 37 -44t45 -25q4 -2 10.5 -2t8.5 -2t2 -11q0 -8 -10 -16l-11 -9q-7 -11 -24 -11q-48 0 -77 29q-14 14 -18 17q-14 12 -19 20q-25 46 -44 89.5t-30.5 78t-14.5 40.5q-3 8 -8 8q-3 0 -4 -4q-44 -105 -56 -175q-13 -69 -34 -69
q-4 0 -11.5 -1.5t-13.5 -1.5q-5 0 -11.5 1.5t-15 9.5t-8.5 21t7 30q1 3 2.5 8t1.5 6q30 93 68 188t100.5 238t80.5 186l11 26q7 19 16 19q1 0 33 -4q37 -5 37 -28z" />
    <glyph glyph-name="l" unicode="l" horiz-adv-x="232" 
d="M141 -18q-7 0 -27 7t-44.5 26t-28.5 44q-3 16 -3 34q0 11 2 23.5t4 22t7.5 25.5t8.5 23.5t10.5 27.5t10.5 27q52 135 208 402q4 7 13.5 32.5t20.5 39t28 13.5q7 0 17.5 1t15.5 1q18 0 26 -11q8 -12 8 -28q0 -18 -10 -35q-21 -35 -86 -132.5t-103.5 -166t-65.5 -138.5
q-4 -9 -12.5 -29.5t-13 -32t-8.5 -29t-4 -32.5q0 -21 5 -37q4 -12 20 -12q10 0 17 4q14 8 63.5 60t75.5 52q9 0 21.5 -6t12.5 -17q0 -6 -2.5 -10t-8.5 -9.5t-9 -8.5q-10 -11 -35.5 -42t-40 -45.5t-40.5 -29t-53 -14.5z" />
    <glyph glyph-name="m" unicode="m" horiz-adv-x="569" 
d="M315 26q-9 -26 -43 -26q-22 0 -29 6q-15 13 -15 29q0 7 3 17q3 11 14 42t15 44q8 29 17.5 51.5t22 46.5t15.5 30q4 9 31 69q4 10 4 17q0 12 -5 12q-6 0 -27.5 -17.5t-36.5 -34.5q-21 -23 -54.5 -57.5t-45.5 -52.5q-32 -49 -80 -176q-10 -26 -43 -26q-22 0 -29 6
q-11 10 -11 15q0 11 8 31q28 96 72.5 211t71.5 166q1 2 3 9.5t4 10.5q4 14 12.5 19.5t33.5 5.5q40 0 40 -23q0 -30 -17 -53q-18 -26 -29 -60q-3 -10 0 -10q1 0 31 36q59 73 98 73q30 -2 55 -17q17 -10 17 -33q0 -14 -2 -26q-3 -11 1 -11t7 6t9 15q17 29 41.5 50.5t40.5 21.5
q30 -2 55 -17q29 -17 29 -47q0 -87 -31 -140q-16 -27 -39 -92l-12 -34q-7 -18 -7 -48q0 -13 25 -29q14 -9 16 -13t2 -7q0 -4 -3 -13q-8 -19 -28 -19q-38 0 -55 15q-7 6 -13 12q-22 20 -22 52q0 26 13 72q8 30 19.5 57.5t25 55.5t16.5 34q15 35 15 68q0 18 -6 18
q-7 0 -34.5 -32.5t-55.5 -73.5q-69 -99 -86 -146q-3 -11 -11.5 -45.5t-12.5 -44.5z" />
    <glyph glyph-name="n" unicode="n" horiz-adv-x="404" 
d="M58 0q-22 0 -29 6q-11 10 -11 15q0 4 8 31q30 98 73.5 212.5t70.5 164.5q2 4 4.5 11.5t2.5 8.5q4 14 12.5 19.5t33.5 5.5q40 0 40 -23q0 -30 -17 -53q-18 -26 -29 -60q-3 -10 0 -10q2 0 4 2t7.5 9.5t10.5 13.5q45 58 96 83q11 7 25 7q30 0 55 -17q23 -12 29 -28
q3 -8 3 -31q0 -42 -48 -125q-17 -31 -39 -92l-12 -34q-7 -18 -7 -48q0 -13 25 -29q14 -9 16 -13t2 -7q0 -4 -3 -13q-8 -19 -28 -19q-38 0 -55 15q-7 6 -13 12q-22 20 -22 52q0 26 13 72q8 30 19.5 57.5t27 56.5t17.5 34q27 56 27 78q0 15 -4 15q-2 0 -10 -5q-28 -18 -47 -41
l-43 -46q-8 -9 -33 -34.5t-38 -40.5q-37 -42 -91 -186q-10 -26 -43 -26z" />
    <glyph glyph-name="o" unicode="o" horiz-adv-x="368" 
d="M344 460q20 -55 51 -55q22 0 49.5 1.5t36.5 1.5q25 0 43.5 -7t18.5 -19q0 -8 -13.5 -14t-14.5 -7q-2 -5 -11 -6t-35 -8t-40 -9q-20 -3 -39 -3q-10 0 -12 -8q-44 -181 -126 -268q-19 -20 -29 -30t-27.5 -19.5t-33.5 -9.5q-14 0 -24 5q-62 29 -75 63q-15 38 -15 83
q0 93 87 223q8 12 14 18t10 12q65 92 118 92q31 0 53 -19q11 -10 14 -17zM293 394q-6 6 -8 15q-5 17 -10 17q-7 0 -15 -10q-2 -2 -9 -7.5t-10 -9.5q-125 -157 -125 -280q0 -7 3 -14q9 -23 24 -33q3 -2 9 -2q3 0 19 8q7 3 17 18q40 60 57.5 88.5t36 79.5t18.5 98q0 16 -1 21
q-1 6 -6 11z" />
    <glyph glyph-name="p" unicode="p" horiz-adv-x="440" 
d="M240 472q0 -19 -4.5 -39.5t-14 -50.5t-13.5 -46q-1 -3 -1.5 -5t0.5 -2t8 7q77 89 133 119q12 6 16 6q31 0 84 -34q20 -13 20 -40q0 -39 -7 -70q0 -2 -0.5 -12t-4.5 -20q-40 -112 -68.5 -167.5t-74.5 -97.5q-8 -7 -28 -7q-16 0 -37.5 10t-30.5 19q-30 28 -52 73q-2 5 -6 5
q-3 0 -6 -5q-48 -90 -76.5 -166.5t-54.5 -184.5q-2 -7 -2 -18t-2 -16.5t-8 -7.5q-16 -6 -35 -6q-18 0 -31 14q-1 1 -5.5 5t-6.5 7.5t-2 10.5q0 6 5 22q8 28 104.5 294t117.5 392q3 17 12 20q33 11 38 11q12 0 22.5 -6t10.5 -14zM375 387q-88 -57 -160 -170q-7 -11 -7 -29
q0 -20 20 -63.5t37 -43.5q4 0 8 4q21 20 45 72t29 70q39 119 39 159q0 3 -4 3q-3 0 -7 -2z" />
    <glyph glyph-name="q" unicode="q" horiz-adv-x="386" 
d="M449 410q0 -15 -16 -39.5t-16 -29.5q0 -7 5.5 -13t5.5 -10q0 -3 -7 -12q-179 -239 -279 -598q-2 -7 -4 -32t-6 -37q-12 -32 -27 -32q-28 0 -54 21q-5 4 -5 8q0 5 1 10q15 76 65 222q11 31 14 43q8 31 24 64.5t24 62.5q0 6 -7 6q-33 -7 -48 -7q-26 0 -47 12l-14 9
q-34 22 -34 75q0 15 9 38q39 99 119 179.5t171 108.5q26 8 45 8q31 0 56 -15t25 -42zM366 392q0 7 -14 7q-9 0 -21 -7q-4 -2 -11.5 -4t-16.5 -8q-56 -35 -109 -88.5t-78 -103.5q-23 -46 -23 -80q0 -5 5.5 -8.5t10.5 -3.5l16 4q10 2 20 10q99 74 152 155q8 12 8 15q0 4 -3 7
t-3 7q0 5 22 30q2 3 10.5 11.5t11.5 12t8.5 10.5t8 11.5t4.5 10.5t2 12z" />
    <glyph glyph-name="r" unicode="r" horiz-adv-x="300" 
d="M200 438q15 -23 15 -56q0 -16 -6 -34l-4 -16q0 -4 3 -4q4 0 13 8q83 63 139 82q6 2 12 2q49 0 73 -28q7 -7 7 -17q0 -20 -13 -32t-22 -12q-8 0 -23 5t-22 5t-16 -4q-207 -97 -252 -287q-8 -36 -25 -48q-7 -9 -18 -9q-5 0 -8.5 1.5t-7 4.5t-5.5 4.5t-5 5.5t-4 5
q-17 17 -19 38q0 19 24.5 54t29.5 51q4 12 18.5 54.5t20.5 62t15 53t15 61.5q0 4 0.5 7.5t1 5.5t0.5 3q0 3 -4 10.5t-5 12.5q0 7 11.5 14.5t27.5 7.5q26 0 33 -11z" />
    <glyph glyph-name="s" unicode="s" horiz-adv-x="296" 
d="M347 464q19 -20 19 -65q0 -46 -29 -83q-9 -11 -14 -11q-20 0 -35 13q-15 12 -15 32q0 4 3 8q17 28 17 46q0 15 -7 27q-8 14 -22 14q-4 0 -17 -15.5t-26.5 -41t-17.5 -46.5q-2 -14 -2 -26q0 -18 7 -64q3 -27 17.5 -116t14.5 -112q0 -10 -8 -18q-36 -36 -63 -36
q-15 0 -25 4q-87 36 -146 134q-6 10 -6 15q0 12 10.5 24.5t25.5 12.5q28 0 38 -14q6 -9 27 -44.5t38 -51.5q12 -11 20 -11q10 0 10 8q0 6 -5 31q-10 45 -21 131.5t-11 104.5q0 23 9.5 59.5t26.5 62.5q20 31 46 47.5t43 16.5q64 0 98 -36z" />
    <glyph glyph-name="t" unicode="t" horiz-adv-x="262" 
d="M360 637q-6 -35 -20.5 -70t-39.5 -80.5t-33 -63.5q-23 -48 -23 -62q0 -3 4 -3q5 0 25 4q78 16 134 50q8 5 11 5q14 0 31.5 -8.5t17.5 -17.5q0 -25 -33 -38q-14 -6 -25.5 -12t-19.5 -9q-29 -11 -91 -27.5t-64 -17.5q-13 -4 -19 -15q-8 -14 -17 -48q-1 -5 -5.5 -15.5
t-5.5 -16.5q-2 -11 -22.5 -75.5t-23.5 -92.5q-1 -9 -8.5 -23t-16.5 -19q-6 -3 -15 -3q-21 0 -36 11q-11 8 -11 24q0 18 4 30q7 22 32 108t43 130q2 6 2 7q0 3 -5 6q-21 10 -40 34t-25 29q-5 4 -5 12q0 7 12 13q10 5 20 5q11 0 33.5 -8t31.5 -8q14 0 17 14q5 18 16 47
q6 15 23 61t32 82t30 69q6 13 11 13q9 0 16.5 2.5t11.5 2.5q19 0 38 -8q9 -4 9 -7q0 -5 -1 -11z" />
    <glyph glyph-name="u" unicode="u" horiz-adv-x="420" 
d="M237 451q1 -2 4 -6.5t5 -9t2 -9.5q0 -16 -20 -29t-29 -47q-8 -30 -38.5 -124t-36.5 -136q-2 -13 -2 -23q0 -4 4.5 -9t9.5 -5q10 0 22 10q21 19 36 37.5t17 20.5q107 116 149 224q6 15 18 22q11 6 23 6q5 0 13.5 -4.5t10.5 -5.5q20 -6 20 -18q0 -15 -6 -29
q-57 -123 -73 -226q-6 -42 -6 -74q0 -13 9 -34.5t9 -32.5q0 -13 -6 -18q-4 -3 -14 -3q-14 0 -38 15q-6 4 -11 6t-6.5 2.5t-3.5 3t-4 7.5q-10 25 -10 60q0 14 1.5 39.5t1.5 28.5q0 6 -4 6t-14 -12q-61 -71 -112 -97q-8 -4 -13 -4q-28 0 -60 19q-27 17 -30 31q-5 25 -5 43
q0 36 23 114q3 11 7.5 30t9.5 33q6 17 17.5 57t23.5 71t29 60q15 26 43 26q27 0 34 -16z" />
    <glyph glyph-name="v" unicode="v" horiz-adv-x="378" 
d="M198 329q-8 -40 -26.5 -120.5t-26.5 -120.5q-3 -14 -3 -19q0 -6 8 -6q15 0 26 13q59 70 105 182q4 10 7.5 23t6.5 20q8 20 8 53q0 17 -11 28q-14 12 -14 28q0 10 8.5 17t22.5 7q37 0 53 -27q20 -32 48 -32q22 0 63.5 16.5t63.5 16.5q25 0 47 -14q13 -8 13 -22q0 -4 -7 -8
q-32 -18 -80 -31t-52 -15q-16 -6 -23 -6t-22 3t-21 3q-9 0 -14 -4t-12 -32q-31 -117 -132 -244q-11 -14 -24 -26.5t-15 -14.5q-14 -16 -36 -16q-9 0 -15 2.5t-16 11t-15 11.5q-24 16 -30 22.5t-10 19.5q-3 10 -3 24q0 26 9 61q1 4 5 24t12 52q43 172 52 241q1 10 10 16t14 6
q3 0 11 -1t12 -1q20 0 29 -8q5 -4 5 -15q0 -36 -14 -69t-17 -49z" />
    <glyph glyph-name="w" unicode="w" horiz-adv-x="540" 
d="M257 462q0 -8 -8 -20q0 -1 -13 -30q-18 -43 -34 -88t-38 -113.5t-29 -90.5q-4 -12 -4 -16q0 -3 3 -3q7 0 38 36q105 123 150 233q6 14 26 14q5 0 12.5 -1t10.5 -1q11 0 21 -9.5t10 -20.5q0 -17 -33 -73q-8 -14 -15 -32l-6 -18q-37 -82 -37 -162q0 -9 5.5 -14t9.5 -5
q20 0 43 29q26 34 43.5 83.5t21.5 77.5t4 40q0 7 2.5 19t2.5 18q0 15 -10 43t-10 39q0 15 11 24q8 6 42 6q7 0 10 -2t10 -8.5t18 -14.5q22 -15 76 -15q20 0 63.5 6t70.5 6q7 0 10.5 -1t8 -7.5t4.5 -19.5q0 -20 -48 -31q-23 -6 -48 -13t-38 -10t-26 -3q-18 0 -32.5 2t-22 4
t-9.5 2q-9 0 -9 -13q0 -30 -1 -41q-4 -76 -34.5 -146.5t-82.5 -122.5q-17 -17 -44 -17q-36 0 -85 28q-28 16 -28 46q0 10 1.5 22t1.5 17q0 8 -3 8t-16 -13q-6 -6 -25 -29.5t-34 -33.5t-34 -10q-7 0 -12 2t-13 6.5t-17 7.5q-26 10 -31 20q-7 14 -7 29q0 13 4 27
q12 47 55.5 168.5t52.5 186.5q1 5 7.5 11t11.5 8q9 3 24 3q5 0 14 -0.5t14 -0.5q6 0 15 -7t9 -16z" />
    <glyph glyph-name="x" unicode="x" horiz-adv-x="334" 
d="M190 432q15 -15 22 -36t15 -78q2 -19 7 -19q2 0 15 10q40 32 155 118q9 7 23 7q20 0 28 -11q2 -3 6.5 -8.5t6.5 -8t4 -8t2 -11.5q0 -2 -15 -11q-97 -57 -203 -152q-15 -13 -17.5 -18.5t-2.5 -19.5q0 -40 6 -108.5t6 -100.5q0 -29 -6 -72q-2 -11 -22 -11q-4 0 -10.5 1
t-9.5 1t-5 1.5l-6 4.5t-8 5q-18 10 -20 21q-2 10 -2 18q0 22 9 40q4 8 4 10q0 1 -2 19q-2 16 -4.5 47.5t-4.5 47.5t-5 16t-10 -11q-1 -1 -29.5 -33.5t-32.5 -49.5q-2 -9 -18 -21q-14 -11 -32 -11q-6 0 -24 18q-15 15 -15 27q0 5 10 17q26 30 75.5 85.5t64.5 71.5q8 9 8 24
q0 103 -22 147q-5 11 -9.5 14t-5.5 4q-4 5 -4 18q0 11 12.5 16.5t26.5 5.5q23 0 39 -16z" />
    <glyph glyph-name="y" unicode="y" horiz-adv-x="436" 
d="M252 460q0 -24 -10 -42q-9 -16 -16 -24t-10 -14q-16 -34 -26.5 -64.5t-23 -73t-20.5 -66.5q-5 -14 -8 -32q-5 -27 -5 -32q0 -16 5 -16q10 0 22 6q37 19 79 66q1 1 14 14.5t23 25.5q6 7 25.5 28t32.5 37.5t33 51.5t37 80q3 8 11.5 19t14.5 11q5 0 13.5 -3.5t17.5 -3.5
q35 0 35 -36q0 -18 -23 -51l-19 -30q-35 -54 -61 -129q-3 -10 -27 -73.5t-28 -76.5q-12 -37 -12 -40q0 -2 4 -2q1 0 4 0.5t5 0.5q18 0 18 -11q0 -17 -6 -25q-85 -113 -121 -282q-1 -4 -4.5 -24.5t-6 -29t-9 -23t-17 -21.5t-25.5 -9q-1 0 -10.5 -2t-16.5 -2q-10 0 -17 1.5
t-14 10.5t-7 26q0 30 21 79q39 92 86 171q3 28 60 201q18 56 18 63q0 4 -3 4t-14 -11q-25 -25 -63.5 -51t-46.5 -26q-62 0 -95 40q-6 7 -6 24q0 62 16 119.5t45 130t42 114.5q4 13 16 21t19 8q2 0 12 -2.5t16 -2.5q8 0 17 -6.5t9 -15.5z" />
    <glyph glyph-name="z" unicode="z" horiz-adv-x="384" 
d="M428 410q4 -11 4 -21q0 -9 -2.5 -16t-10 -15.5t-13 -13t-21 -16.5t-24.5 -19q-6 -5 -6 -8t11 -3q55 0 79 -27q8 -9 8 -15q-6 -15 -23 -15q-76 0 -169 -28q-28 -8 -43 -22t-49.5 -52t-46.5 -49q-12 -10 -12 -27q0 -9 14 -15q17 -8 29 -8q10 0 32.5 6t33.5 6
q22 0 59.5 19.5t57.5 19.5q24 0 45 -18q7 -6 7 -19q0 -6 -10 -10q-4 -2 -37.5 -15.5t-45.5 -18t-39 -13t-48 -11.5t-43 -3q-61 0 -105 26q-30 18 -30 62q0 17 3 25q10 22 57 73q17 19 17 23q0 5 -13 9q-24 8 -31 21q-12 21 -12 33q0 7 8 13t18 6t33 -7t41 -7q30 0 53.5 16.5
t46.5 40.5t39 33q19 10 33 25.5t14 24.5q0 7 -16 7q-7 0 -20.5 -4t-29.5 -6q-55 -6 -93 -50q-2 -2 -9 -2q-6 0 -15.5 9t-13.5 20q-5 15 -5 24q0 25 20 30q8 2 46.5 13t64 15.5t49.5 4.5q28 0 54 -8t33 -16q0 -1 11.5 -10t14.5 -17z" />
    <glyph glyph-name="braceleft" unicode="{" horiz-adv-x="346" 
d="M519 733q-54 0 -77.5 -18t-38.5 -60q-28 -76 -76 -233q-17 -55 -38.5 -83t-56.5 -34q-3 0 -3 -2t3 -2q28 -16 28 -52t-10 -66l-68 -218q-8 -24 -8 -44q0 -42 52 -42h40q9 0 15.5 -8.5t6.5 -14.5q0 -14 -2.5 -22t-6 -10.5t-7 -6t-5.5 -8.5q-3 -9 -33 -9q-73 0 -113.5 27
t-40.5 74q0 31 10 62l65 206q18 54 18 69q0 27 -40 27q-26 0 -32 3t-6 13q0 1 -4.5 3t-4.5 8q0 10 6 26q6 17 13.5 21.5t25.5 4.5h12q43 0 63 22t43 90l59 177q33 101 74.5 138.5t109.5 37.5h20q54 0 54 -14q0 -3 3.5 -7.5t3.5 -12.5t-5 -17q-8 -17 -14 -21t-23 -4h-12z" />
    <glyph glyph-name="bar" unicode="|" horiz-adv-x="270" 
d="M417 768q0 -24 -5 -31q-8 -12 -18.5 -22.5t-13.5 -16.5q-45 -103 -147.5 -422.5t-124.5 -382.5q-32 -91 -46 -91q-21 0 -35 10q-6 4 -13.5 7t-10.5 6t-3 8q0 23 7 46q2 5 11 22.5t12 27.5l261 782q18 54 32 74.5t37 20.5q24 0 34 -12q3 -4 9.5 -8.5t10 -8.5t3.5 -9z" />
    <glyph glyph-name="braceright" unicode="}" horiz-adv-x="346" 
d="M-57 -122q58 0 74.5 12t30.5 54l80 242q18 55 39.5 84t57.5 36q3 0 3 2t-3 2q-29 13 -29 50q0 32 11 65l70 221q12 36 12 59q0 27 -57 27h-41q-23 0 -23 21q0 11 2 17.5t7 15t8 14.5q3 9 62 9h24q36 0 72 -24.5t36 -73.5q0 -35 -10 -65l-69 -206q-17 -53 -17 -69
q0 -27 40 -27h19q30 0 30 -14q0 -11 -2 -20.5t-4.5 -14t-6 -10.5t-4.5 -8q-6 -12 -42 -12q-33 0 -58.5 -22t-47.5 -90l-59 -177q-25 -74 -45.5 -109t-53 -51t-90.5 -16h-15q-38 0 -51 3.5t-13 14.5q0 16 8.5 30.5t8.5 15.5q4 14 31 14h15z" />
    <glyph glyph-name="asciitilde" unicode="~" horiz-adv-x="550" 
d="M115 270q-3 16 -9 19.5t-6 10.5q0 16 10 23q56 35 87.5 48.5t63.5 13.5q25 0 47.5 -15t36.5 -33t33.5 -33t39.5 -15q24 0 48 14.5t39.5 28.5t19.5 14q12 0 22 -7.5t11 -16.5q0 -4 4.5 -6t4.5 -11q0 -8 -11 -18q-86 -77 -135 -77q-35 0 -57 11t-53 42q-28 28 -38 34t-33 6
q-14 0 -63 -37q-15 -11 -38 -11t-24 15z" />
    <glyph glyph-name="uni00A0" unicode="&#xa0;" horiz-adv-x="246" 
 />
    <glyph glyph-name="exclamdown" unicode="&#xa1;" horiz-adv-x="320" 
d="M91 -80q5 15 11.5 19t9.5 16q15 62 44.5 155.5t48.5 159.5q5 19 17 19q20 0 28 -8q28 -28 28 -43q0 -11 -7 -30q-4 -9 -4.5 -19.5t-3.5 -19.5q-27 -79 -43 -134t-19.5 -74.5t-6.5 -36.5t-8 -30q-26 -70 -29 -87q-2 -9 -24 -9q-8 0 -11.5 2.5t-10 8.5t-17.5 11
q-15 7 -15 33q0 33 12 67zM322 468q8 -1 14.5 -8t6.5 -16q0 -6 -11 -37q-12 -32 -31 -32q-3 0 -12 -1t-17 -1q-33 0 -33 58q0 10 8 26q1 2 2 5.5t2.5 6l3 5t5 4t7.5 1.5q14 0 29.5 -5t25.5 -6z" />
    <glyph glyph-name="cent" unicode="&#xa2;" horiz-adv-x="434" 
d="M351 389q-13 -37 -59 -179.5t-46 -152.5q0 -3 5 -3q22 0 57 22q4 3 13 13t14 13q42 28 68 28q12 0 24 -9q13 -9 13 -18q0 -11 -19 -24q-115 -78 -172 -85q-21 -3 -23 -9q-1 -2 -5 -14t-8.5 -23.5t-6.5 -16.5q-13 -31 -29 -31q-5 0 -8.5 2t-11 7.5t-15.5 10.5
q-13 7 -13 19q0 8 9.5 24t15.5 37q0 4 -10 8q-38 16 -63 53t-25 73q0 60 18 102q57 133 132 188q33 24 51.5 31.5t44.5 7.5q5 0 8 8q14 42 23 56t24 14q3 0 11 -1t13 -1q7 0 17.5 -5t10.5 -10q0 -2 -2.5 -5.5t-8 -11.5t-10.5 -19q-14 -30 -14 -35q0 -4 6 -6q24 -11 35 -21
q40 -36 40 -67q0 -10 -17 -77q-2 -6 -3 -14.5t-2 -12.5t-3.5 -8.5t-7.5 -6t-14 -1.5q-17 0 -35.5 13.5t-18.5 20.5q0 9 2 19t7 24.5t7 21.5q6 22 6 34q0 24 -19 24q-4 0 -6 -7zM168 242q-4 -12 -11 -29t-9.5 -24.5t-4.5 -21.5t-2 -32q0 -27 6 -42q12 -29 23 -29q6 0 9 8
l11 35q20 64 54 164.5t42 126.5q0 5 -5 5q-12 0 -54.5 -57.5t-58.5 -103.5z" />
    <glyph glyph-name="sterling" unicode="&#xa3;" horiz-adv-x="490" 
d="M229 233q-65 -157 -69 -179q0 -5 11 -5q13 0 117 22t112 30q6 6 57 6q13 0 19.5 -2.5t16.5 -14.5q3 -4 6.5 -9t6.5 -8q10 -10 12 -13.5t2 -13.5q0 -21 -27 -21q-5 0 -13 0.5t-20 0.5q-9 0 -56 -10t-112 -23t-106 -19q-55 -8 -112 -8q-18 0 -25 1q-16 2 -21 9.5t-7 20.5
t-7 21q-4 5 -4 13t7 15q5 5 26 5q4 0 12.5 -1.5t16.5 -1.5t8 4q-4 8 -4 18q0 12 59 157q2 5 2 7q0 4 -14 5q-19 2 -26 8t-7 27q0 4 -4 14t-4 21q0 5 5.5 6t26.5 1q13 0 51 5q13 2 17 11l12 27q34 77 67 132t60 86t55.5 49t50 23t48.5 5q39 0 57 -21q6 -7 17 -19t15.5 -17.5
t8.5 -15.5t4 -20t-15.5 -54.5t-15.5 -51.5q0 -9 -8.5 -18t-20.5 -9q-5 0 -15 3.5t-16 4.5q-11 2 -15.5 4.5t-8 10t-3.5 21.5q0 8 11 29.5t12 32.5q0 6 5 18.5t5 23.5q0 18 -11 18q-36 0 -85.5 -50.5t-89.5 -136.5l-25 -54q-4 -8 -4 -11q0 -5 6 -5l38 8q39 8 50 8
q19 0 36 -17q16 -16 16 -31q0 -23 -9 -23q-6 0 -18 -3t-25 -4q-7 0 -109 -20q-19 -3 -23.5 -6t-9.5 -16z" />
    <glyph glyph-name="currency" unicode="&#xa4;" horiz-adv-x="508" 
d="M380 49q0 19 -28 85q-3 6 -6 6q-1 0 -11 -2q-31 -7 -52 -7q-33 0 -61 16q-3 2 -6 2t-6 -3q-3 -2 -14.5 -15t-20.5 -21q-87 -84 -101 -84q-18 0 -29 11t-11 20q0 7 7.5 25.5t15.5 19.5q14 2 68 56l36 36q4 4 4 8q0 2 -2 6q-14 23 -14 55q0 34 16 79.5t55 84.5q5 5 5 9
t-3 11q-32 76 -32 110q0 23 7 35q6 11 17 17t18 6t19 -7t15.5 -11t3.5 -11q0 -13 1 -18q3 -13 3 -29q0 -19 18 -63q2 -6 8 -6q22 6 42 6q29 0 65 -14q7 -3 10 -3q4 0 11 7q55 60 105 94q15 10 34 10q7 0 17 -7.5t10 -18.5q0 -4 -3 -17q-4 -18 -9 -25t-13.5 -10.5t-11.5 -5.5
q-3 -3 -10.5 -7.5t-23.5 -17t-42 -34.5q-10 -9 -10 -13t4 -10q13 -26 13 -45q0 -110 -66 -176q-5 -5 -5 -8t1 -5q10 -25 19 -52.5t13.5 -38.5t10.5 -16q8 -7 8 -19q0 -8 -5 -12.5t-27 -17.5q-7 -4 -13 -4q-8 0 -21 8q-9 5 -16 15t-7 16zM268 360q-40 -61 -40 -111
q0 -15 7 -16q8 -1 16 -20q3 -5 3.5 -9.5t0.5 -6.5t1.5 -5t6.5 -6q8 -6 22 -6q13 0 25 6q15 8 26.5 17.5t15.5 14t18 24.5t19 27q23 32 23 80q0 10 -2.5 14.5t-11 12t-15.5 15.5q-1 2 -2.5 11.5t-8.5 12.5q-10 5 -35 5q-29 0 -69 -60z" />
    <glyph glyph-name="yen" unicode="&#xa5;" horiz-adv-x="474" 
d="M179 144q1 2 3.5 9.5t4 13t1.5 7.5q0 5 -7 5q-5 0 -17.5 -0.5t-17.5 -0.5q-49 0 -58 3q-16 7 -16 52q0 3 3.5 6t4.5 5q5 8 18 8q3 0 32 -4t46 -4q22 0 26.5 3t4.5 12q0 20 -0.5 68.5t-0.5 55.5q0 33 1.5 74t1.5 50q0 14 -2 31t-2 21v27q0 2 -0.5 9t-0.5 11q0 11 6 18.5
t14 7.5q4 0 15 2t17 2q20 0 26 -7q8 -8 8 -18q0 -3 2.5 -10.5t2.5 -11.5q-1 -30 -3 -77.5t-3.5 -82t-1.5 -60.5q0 -18 5 -18q6 0 18 12q81 81 145 149q49 52 60 95q4 16 4 25q0 10 24 10q3 0 13.5 -2t14.5 -2t9.5 -4t11.5 -4q12 0 12 -25q0 -19 -21.5 -57.5t-51.5 -68.5
q-204 -204 -207 -206q-11 -7 -11 -14q0 -4 7 -4q2 0 40 5t43 5q21 0 30 -7q5 -4 5 -14q-1 -22 -9 -34q-1 -2 -3 -6.5t-3.5 -7.5t-4.5 -3t-12.5 1t-17.5 1q-2 0 -49.5 -3.5t-51.5 -3.5q-11 0 -12 -6q-12 -33 -12 -35q0 -5 6 -5q4 0 50.5 4.5t51.5 4.5q20 0 27 -5q8 -12 8 -13
q0 -14 -8 -40q-1 -2 -5 -6.5t-5 -4.5q-5 0 -17 2t-22 2q-67 -9 -101 -9q-8 0 -13 -14q-22 -66 -22 -84q0 -3 1 -6.5t1 -4.5q0 -4 -8 -21t-10 -33q-2 -19 -38 -19q-3 0 -8 3.5t-8 3.5q-7 0 -15 3.5t-13 7.5t-5 6q0 4 8 30t12 36q2 5 8.5 29t10.5 33q6 16 6 20t-5 4
q-1 0 -23 -1t-31 -1q-26 0 -32 3q-9 5 -18 19t-9 30q0 2 3 5.5t4 7.5q1 7 16 7q1 0 13 -1.5t29.5 -3t33.5 -1.5q27 0 34.5 1.5t8.5 7.5z" />
    <glyph glyph-name="brokenbar" unicode="&#xa6;" horiz-adv-x="292" 
d="M171 55l-93 -242q-5 -13 -13 -13q-11 0 -15 2.5t-6 7t-7 7.5q-23 13 -23 28q0 8 10 36q6 16 8.5 30.5t4.5 19.5l71 213q19 56 40 56q13 0 23.5 -4t16.5 -5q27 -5 27 -26q0 -41 -16 -60q-16 -18 -28 -50zM220 485l51 149q21 60 38 89q5 8 23 8q4 0 13.5 -4t19.5 -7
q10 -2 18.5 -8.5t8.5 -12.5q0 -15 -3 -26t-3 -16t-10 -18q-25 -31 -45 -85q-53 -142 -60 -167q-11 -34 -14.5 -40.5t-10.5 -6.5q-22 0 -27 11q-5 10 -11 17t-10 9t-7 4.5t-3 5.5q0 8 32 98z" />
    <glyph glyph-name="section" unicode="&#xa7;" horiz-adv-x="406" 
d="M234 29q-11 -2 -11 -10q0 -1 0.5 -6t1.5 -14.5t1 -21.5q0 -51 -15 -76q-25 -41 -68 -74q-25 -19 -71 -19q-49 0 -82.5 32.5t-33.5 89.5q0 30 13 36q5 3 19.5 13t20.5 10q23 0 23 -17q0 -5 3.5 -15.5t3.5 -20.5q0 -20 13 -42t40 -22q17 0 35 20q21 24 21 56q0 50 -33 143
q-28 80 -28 144q0 65 19 97q24 40 55.5 66t58.5 34q19 6 19 10q0 2 -2 14q-4 20 -4 46q0 74 65 134q40 36 113 36q27 0 44 -15q11 -9 21.5 -33t10.5 -48q0 -25 -11 -27q-5 -1 -19 -9t-28 -8q-6 0 -9 7q-5 13 -6 27l-2 13q-5 19 -12 26t-20 7q-23 0 -44.5 -21t-21.5 -61
q0 -53 43 -147q34 -74 34 -148q0 -56 -17 -90q-6 -13 -12.5 -22.5t-15.5 -19t-14 -15t-20 -18t-22 -19.5q-14 -13 -56 -22zM204 108q2 -6 11 -6t30.5 10t35.5 26q27 33 27 75q0 39 -40 146q-3 8 -9 8q-17 0 -42 -18.5t-36 -42.5q-12 -27 -12 -50q0 -12 4 -38t31 -110z" />
    <glyph glyph-name="dieresis" unicode="&#xa8;" horiz-adv-x="510" 
d="M358 822q11 -20 11 -32q0 -15 -11 -32l-12 -17q-1 -7 -14.5 -12t-24.5 -5q-12 0 -15 2q-7 5 -12.5 13t-7.5 10t-2 29q0 15 13 41q9 16 35 16q32 0 40 -13zM543 764q1 -3 6 -14.5t5 -17.5q0 -12 -2 -16q-16 -31 -25 -36q-8 -4 -29 -4q-17 0 -24 15q-1 2 -11 16.5t-10 26.5
q0 10 9 29.5t22 19.5q1 0 8.5 -0.5t11.5 -0.5q34 0 39 -18z" />
    <glyph glyph-name="copyright" unicode="&#xa9;" horiz-adv-x="796" 
d="M422 -20q-40 0 -93 13.5t-81 34.5q-27 20 -42 34t-39.5 44t-36.5 72.5t-12 95.5q0 96 43 185.5t126 150t185 60.5q77 0 125 -13t89 -54q4 -4 25 -23t35.5 -36t28.5 -40q36 -64 36 -134q0 -38 -8.5 -80t-27.5 -90t-57 -94t-90 -78q-47 -29 -94 -38.5t-112 -9.5zM498 603
q-71 0 -130.5 -31.5t-97 -83t-58.5 -114.5t-21 -128q0 -55 20 -96.5t53 -64t70.5 -33.5t79.5 -11q76 0 138.5 30.5t100 80t58 109t20.5 120.5q0 112 -63 167t-170 55zM564 258h23q26 0 26 -17q0 -1 2.5 -4t2.5 -6q0 -9 -6 -12q-9 -5 -23 -22q-43 -52 -76 -77.5t-72 -25.5
q-24 0 -45 4q-72 14 -105 64q-21 33 -21 77q0 103 79 209q28 38 70.5 67t94.5 29q22 0 41 -4q33 -7 71 -45q9 -9 9 -25q0 -13 -7.5 -36t-7.5 -35q0 -4 -8.5 -8t-21.5 -4q-18 0 -35 5q-20 6 -20 15q0 15 8.5 34.5t8.5 29.5q0 15 -30 15q-36 0 -72 -41.5t-57 -83.5
q-43 -83 -43 -156q0 -24 14 -40.5t45 -16.5q42 0 88 58q24 30 38.5 41t28.5 11z" />
    <glyph glyph-name="ordfeminine" unicode="&#xaa;" horiz-adv-x="442" 
d="M481 602q4 -4 17.5 -7t16.5 -6q11 -9 11 -17q0 -16 -12 -24q-3 -2 -15 -19q-26 -36 -46 -84.5t-20 -88.5t22 -66q0 -18 -12 -18q-22 -8 -37 -8q-19 0 -27 15q-5 9 -8.5 18.5t-5 20t-2.5 17t-1.5 19.5t-0.5 18q0 6 -7 6q-5 -4 -29.5 -24.5t-43.5 -36t-42 -29.5t-34 -14
q-18 0 -49.5 16.5t-41.5 42.5q-5 13 -5 25q0 26 12.5 55.5t25.5 49.5t38 54q35 48 103.5 88t108.5 40q19 0 35.5 -7t25 -14t23.5 -22zM104 157q-31 0 -43 2q-17 3 -22 25q-1 7 -5 12.5t-4 23.5q0 11 6.5 14t34.5 3q7 0 14 -2.5t13 -2.5q25 0 33 -2.5t19 -2.5q29 0 89.5 2
t91.5 2q11 0 30.5 1t28.5 1q35 0 46 -3q6 -2 7.5 -8.5t6.5 -10.5q7 -6 7 -16q0 -17 -8 -30q-5 -7 -40 -7q-6 0 -43.5 0.5t-66.5 0.5q-18 0 -78.5 -1t-116.5 -1zM430 572q0 11 -15 11q-5 0 -49 -11q-48 -12 -117 -90.5t-69 -132.5q0 -6 8 -6q22 0 110.5 71t98.5 102
q3 8 18 27.5t15 28.5z" />
    <glyph glyph-name="guillemotleft" unicode="&#xab;" horiz-adv-x="410" 
d="M267 276q-9 14 -9 28l4 16q4 15 11 24l79 89q26 31 33.5 36.5t19.5 5.5q19 0 31 -27q3 -7 8.5 -13t5.5 -11q0 -8 -7 -15q-9 -9 -20.5 -17.5t-17.5 -14.5l-54 -51q-7 -7 -7 -13t3 -12l45 -83q4 -7 4 -27q0 -9 -7 -14q-1 0 -4.5 -4t-9.5 -9q-11 -7 -14 -7q-9 0 -12 4
q-1 1 -5 8t-8 12zM106 276q-4 5 -4 23q0 5 -1 11t-1 7q0 14 11 27l77 84q30 33 38 40t14 7q22 0 25 -11q1 -5 5.5 -9.5t6.5 -8.5q9 -16 9 -25q0 -12 -42 -45q-14 -11 -31 -27t-24 -22q-6 -5 -6 -13q0 -4 3 -12q30 -66 37 -74q8 -9 8 -29q0 -17 -3 -22q-14 -20 -37 -20
q-10 0 -19 22q-1 3 -66 97z" />
    <glyph glyph-name="logicalnot" unicode="&#xac;" horiz-adv-x="590" 
d="M519 357q7 0 20 -11.5t13 -17.5q0 -1 -2 -11q0 -2 -4 -13q-29 -116 -33 -126q-1 -4 -2.5 -14t-4.5 -20q-4 -16 -8.5 -21t-12.5 -5h-20q-2 0 -8.5 -1t-10.5 -1q-20 0 -20 12q0 8 4 20t12.5 38t16.5 54q4 15 4 25q0 9 -6 11t-26 2q-24 0 -85 2t-107 2q-3 0 -31 -4
q-17 -2 -61 -2q-14 0 -14 6q0 4 -1.5 9t-1.5 8q0 7 7.5 26t10.5 23q4 6 21.5 7.5t89.5 1.5h89q23 0 67.5 -1.5t66.5 -1.5q9 0 21 1.5t16 1.5z" />
    <glyph glyph-name="uni00AD" unicode="&#xad;" horiz-adv-x="456" 
d="M423 243q-3 -3 -11 -4t-21 -3t-23 -5t-70 -3q-36 0 -91 4t-60 4q-11 0 -23 28q-6 16 -6 26q0 7 3 13q7 12 36 12q30 0 84.5 -2t83.5 -2q11 0 38.5 2t36.5 2q37 0 37 -18q0 -40 -14 -54z" />
    <glyph glyph-name="registered" unicode="&#xae;" horiz-adv-x="658" 
d="M387 138q-71 0 -130 38q-51 34 -72.5 59t-33.5 74q-9 36 -9 55q0 71 31.5 146t98 131.5t151.5 56.5q69 0 106.5 -10.5t65.5 -41.5q1 -1 32.5 -29t47.5 -53q33 -55 33 -114q0 -32 -9 -69.5t-32.5 -81.5t-58.5 -79t-92.5 -58.5t-128.5 -23.5zM635 493q-7 71 -59 108
t-127 37q-72 0 -127 -44.5t-80.5 -106.5t-25.5 -127q0 -72 47 -118t120 -46q99 0 160 55q93 83 93 216q0 17 -1 26zM427 273q-35 41 -55 100q-4 -6 -6 -12.5t-4 -14t-3 -11.5q-12 -37 -12 -73q0 -5 -4 -7q-8 -4 -18 -4q-13 0 -19 4q-3 2 -9 4t-9 4t-3 6q0 2 3 24
q9 59 46 171q9 28 17 46q4 9 4 10t-3 4q-15 15 -15 27q0 2 6 6q60 41 119 41q32 0 60 -12q7 -3 16.5 -12t11.5 -13q5 -17 5 -38q0 -50 -46 -96q-27 -27 -82 -38q25 -50 39.5 -66.5t36.5 -22.5q5 -2 6 -4q6 -10 6 -24q0 -19 -15 -23q-8 -2 -22 -2q-29 0 -51 26zM487 548
q-3 6 -14 6q-4 0 -7.5 -1t-8 -2t-9.5 -2q-7 -1 -12 -9q-24 -43 -45 -107q26 0 46 13q52 34 52 86q0 12 -2 16z" />
    <glyph glyph-name="macron" unicode="&#xaf;" horiz-adv-x="510" 
d="M424 783q24 0 71.5 1.5t58.5 1.5q4 0 6.5 -2t4 -6t3.5 -6q4 -4 4 -7q0 -1 -1 -5t-1 -6q0 -20 -6 -31q-5 -8 -16 -8q-4 0 -17.5 0.5t-19.5 0.5t-66.5 -1t-90.5 -1q-66 0 -78 4q-22 8 -22 55q0 14 34 14q9 0 46.5 -2t89.5 -2z" />
    <glyph glyph-name="degree" unicode="&#xb0;" horiz-adv-x="384" 
d="M382 376q-27 -23 -70 -23q-24 0 -47 10q-21 10 -40.5 25.5t-27.5 29.5q-23 41 -23 73q0 29 15 57.5t47 72.5q15 21 45.5 38.5t51.5 17.5q19 0 29 -1t27.5 -7.5t36.5 -20.5q21 -14 36 -42.5t15 -53.5q0 -31 -24.5 -84t-70.5 -92zM400 600q-12 29 -27 29q-18 0 -32 -13
q-95 -89 -95 -160q0 -30 14 -43t28 -13q17 0 29 15q52 67 71 99t19 56q0 12 -7 30z" />
    <glyph glyph-name="plusminus" unicode="&#xb1;" horiz-adv-x="590" 
d="M407 398q8 1 22 1q10 0 56.5 5.5t53.5 5.5q23 0 37 -14q4 -4 4 -12q0 -6 -13 -40q-4 -10 -10 -10q-3 0 -8 1t-7 1q-10 0 -26 -2q-23 -3 -63 -6t-70 -7q-6 0 -7 -3q-18 -66 -30 -140q-2 -13 -4 -18.5t-9 -10.5t-21 -5q-3 0 -8.5 -1.5t-7.5 -1.5q-10 0 -17.5 3t-10 6
t-2.5 5q0 14 3 29.5t9 41.5t10 45l7 36q0 6 -5 6h-38q-64 0 -91 10q-18 7 -18 57q0 6 9 13q8 7 18 7q7 0 14 -2q20 -6 87 -6h27q22 0 24 7q24 71 29 94q12 52 23 55q9 3 18.5 6.5t14.5 5t9 1.5q21 0 27 -6q5 -5 5 -10q0 -2 -2 -7t-2 -6l-11 -35q-22 -70 -30 -94q0 -5 4 -5z
M511 86q0 -21 -8 -42q-3 -8 -8 -8q-4 0 -13.5 1t-13.5 1q-14 0 -104 -4t-136 -4q-31 0 -78.5 3.5t-50.5 3.5q-9 0 -15 23t-6 39t34 16q5 0 26 -2t56.5 -4t75.5 -2q16 0 97 4t113 4q14 0 28 -14q3 -6 3 -15z" />
    <glyph glyph-name="twosuperior" unicode="&#xb2;" 
d="M354 596q-34 0 -77 -57q-2 -2 -9.5 -10t-9.5 -13q-6 -13 -20 -15q-5 -1 -10.5 -2t-6.5 -1q-19 0 -29 10q-13 13 -13 32q0 11 19 36q16 23 64 52q36 22 91 22q25 0 53.5 -24t28.5 -41q0 -90 -95 -191q-13 -14 -54 -54.5t-66 -67t-25 -31.5q0 -2 5 -3q9 -2 41 -2
q45 0 61 7.5t25 30.5q9 21 12 24q11 11 32 11q20 0 35 -17q5 -5 5 -15q0 -18 -10 -44.5t-15 -32.5q-11 -13 -39 -18t-92 -5q-109 0 -130 17q-29 23 -29 48q0 11 24 37q15 16 76 77q166 166 166 228q0 12 -8 12z" />
    <glyph glyph-name="threesuperior" unicode="&#xb3;" 
d="M332 581q-59 -31 -59 -46q0 -6 -3 -9.5t-8 -6.5t-8 -7q-4 -6 -26 -6q-16 0 -22 6q-17 17 -17 30t5.5 21.5t21.5 21.5t19 16t13.5 5.5t13.5 4.5q54 33 90 33q23 0 37 -10q3 -2 9 -4q19 -6 27 -22q4 -8 4 -16q0 -9 -7 -25q-1 -2 -3 -8t-4 -9q-33 -58 -73 -100
q67 -14 67 -85q0 -36 -26 -90q-23 -49 -53 -78t-79 -29q-63 0 -134 84q-11 13 -11 25q0 17 23 17q10 0 18 1t11 1q14 0 21 -9q3 -4 10 -10t10.5 -11t3.5 -10q0 -6 14.5 -17.5t26.5 -11.5q6 0 12 4q36 24 60 77q19 42 19 58q0 14 -8 26q-4 6 -12 6q-5 0 -15 -4q-3 -1 -10 -3
t-11 -4q-46 -25 -65 -25q-10 0 -19 3t-14.5 12.5t-5.5 18.5q0 6 3 9q11 9 30 20q7 4 12 9l6 6q69 46 112 132q3 6 3 9q0 2 -2 2q-3 0 -7 -2z" />
    <glyph glyph-name="acute" unicode="&#xb4;" horiz-adv-x="510" 
d="M402 794q61 24 77 35q5 3 14 3q11 0 19 -8q11 -11 11 -28q0 -20 -5 -26q-10 -13 -72 -32l-118 -37q-10 -3 -20 -3q-7 0 -11 2q-10 7 -15 14q-4 6 -9 11q-3 3 -3 8q0 8 5 14q4 5 13 5q4 0 25 8z" />
    <glyph glyph-name="mu" unicode="&#xb5;" horiz-adv-x="510" 
d="M139 122q-3 0 -52 -105q-53 -114 -125 -259q-21 -42 -32 -42q-6 0 -17.5 1t-13.5 1q-4 0 -12 7.5t-14 8.5q-9 1 -9 26q0 16 8 28.5t41 49.5q9 10 39 66q131 242 256 516q14 30 21 30q9 0 15.5 4.5t10.5 4.5q33 0 39 -11q5 -9 5 -31q0 -5 -9.5 -18.5t-11.5 -20.5
q-2 -6 -18.5 -38.5t-21.5 -53.5q-4 -20 -11.5 -48.5t-10 -41.5t-5 -39.5t-2.5 -62.5q0 -41 12 -41q8 0 20 10q11 9 80 97q43 54 59.5 84t44.5 108q4 11 7 16t10.5 8.5t21.5 3.5q5 0 14 -5t13 -5q18 0 18 -13q0 -18 -7 -34q-57 -123 -73 -226q-6 -42 -6 -74q0 -9 8 -24.5
t8 -46.5q0 -15 -31 -15q-7 0 -17 5t-18 5q-12 0 -16 33q-3 21 -3 52q0 14 1 28t1 17q0 9 -5 9q-2 0 -8 -8t-14 -19.5t-9 -13.5q-24 -32 -51 -51t-38 -19q-32 0 -56 14t-29 28q-5 18 -5 55q0 25 1 41q0 9 -3 9z" />
    <glyph glyph-name="paragraph" unicode="&#xb6;" horiz-adv-x="680" 
d="M616 578q-7 0 -21.5 0.5t-39.5 0.5q-4 0 -7 -6q-1 -4 -11 -28.5t-25.5 -63.5t-27.5 -70q-6 -15 -16 -35l-17 -34t-8 -17q-5 -17 -21.5 -56.5t-34.5 -79t-19 -42.5q-81 -203 -85 -239q0 -5 -4 -18.5t-4 -18.5q0 -4 0.5 -9t0.5 -10q0 -9 -3 -18q-4 -11 -27 -21.5t-40 -10.5
q-7 0 -21 9q-3 2 -8 2.5t-6 3.5q-3 7 -3 17q0 11 1 23q4 47 24 98l48 121q45 109 62 138q-55 4 -98 46.5t-43 104.5q0 93 59.5 187t144.5 106q17 5 31 5q10 0 37 -1.5t33 -1.5q12 0 42 -1.5t41 -1.5q4 0 17 0.5t21 0.5q32 0 50 3q9 2 35.5 2.5t35.5 1.5q30 3 51 11q9 3 23 3
q35 0 48 -14q20 -25 20 -33q0 -4 -1.5 -10t-1.5 -9q0 -2 -14 -7.5t-17 -5.5q-19 -7 -34 -8q-17 -1 -38 -8t-27 -15q-13 -17 -13 -32q0 -18 -19 -64l-39 -94q-1 -2 -14 -27t-17 -39q-2 -7 -6.5 -17.5t-14.5 -36.5t-23 -61q-13 -37 -47 -124.5t-43 -115.5q-5 -13 -14 -64
q0 -3 -5.5 -24.5t-5.5 -24.5t2 -8.5t2 -8.5q0 -9 -18 -19q-27 -15 -66 -15q-17 0 -17 6q0 4 -4 8q-6 5 -6 11q0 43 42 170q10 29 30 79t23 59q6 20 15.5 43.5t27.5 68t37 93.5q27 71 53.5 137t36.5 92q5 11 5 14t-4 3z" />
    <glyph glyph-name="periodcentered" unicode="&#xb7;" horiz-adv-x="344" 
d="M272 340q17 -22 17 -44q0 -12 -3 -24q-21 -71 -65 -71q-20 0 -43.5 8t-27.5 20q-6 18 -6 44q0 46 12 58q23 23 78 23q27 0 38 -14z" />
    <glyph glyph-name="cedilla" unicode="&#xb8;" horiz-adv-x="338" 
d="M126 28h54l33 -52q10 -14 10 -38q0 -23 -17 -47q-42 -60 -91 -60q-24 0 -59 13q-33 12 -49 35q-7 10 -7 16q0 8 15 23q4 4 8 4q2 0 5.5 -1.5t5.5 -1.5q5 0 11.5 -4.5t7.5 -9.5q1 -7 12 -13.5t24 -6.5q21 0 34 14.5t30 48.5q5 10 5 19q0 11 -5 19z" />
    <glyph glyph-name="onesuperior" unicode="&#xb9;" 
d="M277 269q41 157 50 194q0 2 -2 2q-1 0 -7 -7q-53 -65 -88.5 -103.5t-46.5 -48t-12 -11.5q-3 -7 -22 -7q-15 0 -22 7q-2 2 -8 5.5t-8 6.5q-11 12 -11 18q0 5 13 18q16 16 43 35q15 11 31 28q58 64 138 159q24 29 54 79q4 6 18 6q19 0 37.5 -10t18.5 -25q0 -3 -2 -9
q-16 -40 -31 -89.5t-23.5 -82.5t-23.5 -95.5l-21 -87.5q-7 -26 -7 -43q0 -34 -23 -34q-4 0 -10 -1t-9 -1q-24 0 -40 14q-4 4 -4 15q0 10 4 26q2 11 7.5 24t6.5 18z" />
    <glyph glyph-name="ordmasculine" unicode="&#xba;" horiz-adv-x="408" 
d="M465 526q0 -47 -26 -103t-66 -104q-27 -32 -51.5 -41t-62.5 -9q-62 0 -94 43q-33 45 -33 86q0 55 57 154q26 45 66.5 74.5t88.5 29.5q22 0 35 -10t20 -10q22 0 44 -34t22 -76zM372 572q-7 9 -7 16q0 8 -3 10t-15 2q-26 0 -47 -30q-92 -126 -92 -189q0 -28 13.5 -45.5
t36.5 -17.5q24 0 49 40q79 126 79 170q0 27 -14 44zM133 154q-47 0 -67 4q-17 4 -22 7.5t-7 12.5q-1 7 -3 11t-3 8.5t-1 18.5q0 11 6.5 14t34.5 3q7 0 29 -3.5t28 -3.5h45q35 0 74.5 1t65 2.5t27.5 1.5q35 0 56 -4q7 -1 7 -4q0 -2 -2 -4t-2 -3q0 -3 9.5 -10.5t9.5 -12.5
q0 -11 -12 -28q-5 -7 -44 -7q-6 0 -39.5 1t-62.5 1q-18 0 -44.5 -3t-82.5 -3z" />
    <glyph glyph-name="guillemotright" unicode="&#xbb;" horiz-adv-x="410" 
d="M417 276l-100 -100q-18 -18 -43 -18q-5 0 -11.5 8t-6.5 16q0 1 -3 3.5t-3 6.5q0 6 4 10l94 102q7 7 7 14t-4 12q-7 10 -13 26q-2 6 -7.5 14t-10.5 19q-2 5 -7.5 12t-9.5 13t-4 9q0 7 3.5 11.5t13 12.5t16.5 17q8 10 25 10q9 0 13 -2q7 -4 27 -44l38 -78q4 -8 4 -33
q0 -19 -22 -41zM256 276l-121 -108q-12 -12 -20 -12q-4 0 -14 8q-8 5 -8 13q0 29 9 39l85 88q8 9 8 18q0 4 -4 12l-26 48q-16 30 -17 33q-5 7 -5 12q0 4 11.5 20t18.5 20q11 7 19 7q5 0 10 2.5t9 2.5q8 0 13 -11l48 -115q6 -16 6 -36q0 -21 -22 -41z" />
    <glyph glyph-name="onequarter" unicode="&#xbc;" horiz-adv-x="950" 
d="M722 91q0 3 -5 3q-68 0 -106 15q-14 6 -28 28t-14 29q0 15 8 24q6 7 42 48t53.5 60.5t50.5 52.5t62 58q12 10 15 15q11 17 28 17q9 0 20 -4q28 -11 28 -30q0 -9 -6 -25t-6 -20q0 -15 -6 -36q0 -1 -13 -43.5t-20 -68.5q-10 -38 -10 -45q0 -3 3 -3l7 2l17.5 2.5t21.5 1.5
q26 0 37 -11q3 -3 7 -11q6 -13 6 -20q0 -5 -3 -8t-9 -4.5t-12.5 -2t-17 -1t-17.5 -1.5q-31 -4 -49 -9q-7 -15 -10.5 -33t-5.5 -41.5t-4 -34.5q-2 -16 -14 -16q-19 0 -52 20q-10 6 -10 20q0 9 6 41l4 20q2 10 2 11zM797 632q0 -18 -1.5 -23t-7.5 -7q-8 -3 -15 -11
q-10 -11 -21.5 -19.5t-15.5 -13.5q-52 -69 -103.5 -148.5t-113 -180.5t-102.5 -165q-28 -43 -49.5 -69.5t-27.5 -26.5q-22 0 -33 8q-16 12 -16 26q0 35 11 38q7 2 16.5 13t34.5 50l305 470q16 25 39 52t32 34q19 14 32 14t27 -12q9 -8 9 -29zM277 269q41 157 50 194
q0 2 -2 2q-1 0 -7 -7q-53 -65 -88.5 -103.5t-46.5 -48t-12 -11.5q-3 -7 -22 -7q-15 0 -22 7q-2 2 -8 5.5t-8 6.5q-11 12 -11 18q0 5 13 18q16 16 43 35q15 11 31 28q58 64 138 159q24 29 54 79q4 6 18 6q19 0 37.5 -10t18.5 -25q0 -3 -2 -9q-16 -40 -31 -89.5t-23.5 -82.5
t-23.5 -95.5l-21 -87.5q-7 -26 -7 -43q0 -34 -23 -34q-4 0 -10 -1t-9 -1q-24 0 -40 14q-4 4 -4 15q0 10 4 26q2 11 7.5 24t6.5 18zM761 293q-48 -55 -108 -128q-3 -5 -3 -6q0 -4 10 -6q11 -2 41 -2q8 0 28 2q7 1 8 8q4 26 30 115q7 24 7 25q0 3 -1 3q-2 0 -12 -11z" />
    <glyph glyph-name="onehalf" unicode="&#xbd;" horiz-adv-x="950" 
d="M277 269q41 157 50 194q0 2 -2 2q-1 0 -7 -7q-53 -65 -88.5 -103.5t-46.5 -48t-12 -11.5q-3 -7 -22 -7q-15 0 -22 7q-2 2 -8 5.5t-8 6.5q-11 12 -11 18q0 5 13 18q16 16 43 35q15 11 31 28q58 64 138 159q24 29 54 79q4 6 18 6q19 0 37.5 -10t18.5 -25q0 -3 -2 -9
q-16 -40 -31 -89.5t-23.5 -82.5t-23.5 -95.5l-21 -87.5q-7 -26 -7 -43q0 -34 -23 -34q-4 0 -10 -1t-9 -1q-24 0 -40 14q-4 4 -4 15q0 10 4 26q2 11 7.5 24t6.5 18zM786 632q0 -18 -1.5 -23t-7.5 -7q-8 -3 -15 -11q-10 -11 -21.5 -19.5t-15.5 -13.5q-52 -69 -103.5 -148.5
t-113 -180.5t-102.5 -165q-28 -43 -49.5 -69.5t-27.5 -26.5q-22 0 -33 8q-16 12 -16 26q0 35 11 38q7 2 16.5 13t34.5 50l305 470q16 25 39 52t32 34q19 14 32 14t27 -12q9 -8 9 -29zM822 403q-34 0 -77 -57q-2 -2 -9.5 -10t-9.5 -13q-6 -13 -20 -15q-5 -1 -10.5 -2t-6.5 -1
q-19 0 -29 10q-13 13 -13 32q0 11 19 36q16 23 64 52q36 22 91 22q25 0 53.5 -24t28.5 -41q0 -90 -95 -191q-13 -14 -54 -54.5t-66 -67t-25 -31.5q0 -2 5 -3q9 -2 41 -2q45 0 61 7.5t25 30.5q9 21 12 24q11 11 32 11q20 0 35 -17q5 -5 5 -15q0 -18 -10 -44.5t-15 -32.5
q-11 -13 -39 -18t-92 -5q-109 0 -130 17q-29 23 -29 48q0 11 24 37q15 16 76 77q166 166 166 228q0 12 -8 12z" />
    <glyph glyph-name="threequarters" unicode="&#xbe;" horiz-adv-x="950" 
d="M722 91q0 3 -5 3q-68 0 -106 15q-14 6 -28 28t-14 29q0 15 8 24q6 7 42 48t53.5 60.5t50.5 52.5t62 58q12 10 15 15q11 17 28 17q9 0 20 -4q28 -11 28 -30q0 -9 -6 -25t-6 -20q0 -15 -6 -36q0 -1 -13 -43.5t-20 -68.5q-10 -38 -10 -45q0 -3 3 -3l7 2l17.5 2.5t21.5 1.5
q26 0 37 -11q3 -3 7 -11q6 -13 6 -20q0 -5 -3 -8t-9 -4.5t-12.5 -2t-17 -1t-17.5 -1.5q-31 -4 -49 -9q-7 -15 -10.5 -33t-5.5 -41.5t-4 -34.5q-2 -16 -14 -16q-19 0 -52 20q-10 6 -10 20q0 9 6 41l4 20q2 10 2 11zM332 581q-59 -31 -59 -46q0 -6 -3 -9.5t-8 -6.5t-8 -7
q-4 -6 -26 -6q-16 0 -22 6q-17 17 -17 30t5.5 21.5t21.5 21.5t19 16t13.5 5.5t13.5 4.5q54 33 90 33q23 0 37 -10q3 -2 9 -4q19 -6 27 -22q4 -8 4 -16q0 -9 -7 -25q-1 -2 -3 -8t-4 -9q-33 -58 -73 -100q67 -14 67 -85q0 -36 -26 -90q-23 -49 -53 -78t-79 -29q-63 0 -134 84
q-11 13 -11 25q0 17 23 17q10 0 18 1t11 1q14 0 21 -9q3 -4 10 -10t10.5 -11t3.5 -10q0 -6 14.5 -17.5t26.5 -11.5q6 0 12 4q36 24 60 77q19 42 19 58q0 14 -8 26q-4 6 -12 6q-5 0 -15 -4q-3 -1 -10 -3t-11 -4q-46 -25 -65 -25q-10 0 -19 3t-14.5 12.5t-5.5 18.5q0 6 3 9
q11 9 30 20q7 4 12 9l6 6q69 46 112 132q3 6 3 9q0 2 -2 2q-3 0 -7 -2zM797 632q0 -18 -1.5 -23t-7.5 -7q-8 -3 -15 -11q-10 -11 -21.5 -19.5t-15.5 -13.5q-52 -69 -103.5 -148.5t-113 -180.5t-102.5 -165q-28 -43 -49.5 -69.5t-27.5 -26.5q-22 0 -33 8q-16 12 -16 26
q0 35 11 38q7 2 16.5 13t34.5 50l305 470q16 25 39 52t32 34q19 14 32 14t27 -12q9 -8 9 -29zM761 293q-48 -55 -108 -128q-3 -5 -3 -6q0 -4 10 -6q11 -2 41 -2q8 0 28 2q7 1 8 8q4 26 30 115q7 24 7 25q0 3 -1 3q-2 0 -12 -11z" />
    <glyph glyph-name="questiondown" unicode="&#xbf;" horiz-adv-x="360" 
d="M50 -90q0 37 16 61t93 104t85 93q6 11 6 21t-13 16.5t-27 6.5q-27 0 -39 -8q-17 -11 -29 -11q-21 0 -26 13q-1 3 -5 10t-4 10q0 16 15 29q27 21 75 21q50 0 88 -20q44 -24 44 -62q0 -33 -19.5 -61t-112.5 -119q-41 -41 -55.5 -61t-14.5 -36q0 -11 14.5 -21.5t26.5 -10.5
q21 0 35 9.5t14 29.5q0 2 -1 10.5t-1 11.5q0 21 23 21q22 0 36 -15q13 -13 13 -35q0 -38 -28 -64q-31 -28 -79 -28q-46 0 -82 20q-48 27 -48 65zM364 429q0 -25 -9 -34q-25 -25 -48 -25q-25 0 -35 14q-2 3 -7.5 8.5t-9 10.5t-3.5 9q0 12 5 27q7 26 16.5 33.5t21.5 7.5
q11 0 40 -19.5t29 -31.5z" />
    <glyph glyph-name="Agrave" unicode="&#xc0;" horiz-adv-x="510" 
d="M460 -73q0 -10 -20 -25q-5 -4 -11 -4q-33 0 -51 18q-19 19 -19 127q0 22 2 66.5t2 67.5q0 4 -6 4q-139 -51 -203 -61q-9 -1 -15 -14q-16 -36 -16 -70q0 -15 0.5 -26t1 -15.5t1 -8.5t0.5 -6q0 -3 -5 -6q-3 -2 -11.5 -9t-14.5 -10t-12 -3q-5 0 -19 9q-17 11 -22.5 24
t-5.5 44q0 17 3 38t7 35l3 14q0 4 -6 7q-20 11 -26 16.5t-6 14.5q0 15 6 34t9 21q5 4 11 4q8 0 22.5 -8.5t20.5 -8.5q4 0 12 14q120 223 272 451q17 25 22 25q4 0 27.5 6t36.5 6q30 0 34 -9q1 -5 4.5 -8.5t3.5 -7.5q0 -5 -7.5 -48.5t-7.5 -46.5q0 -14 -3 -33
q-5 -34 -10.5 -95t-8.5 -103.5t-3 -46.5q0 -6 6 -6q1 0 18 2t34 2q45 0 61 -19q6 -7 6 -11q0 -6 -4 -13q-16 -26 -72 -26q-28 0 -44 -10q-10 -7 -11 -20l-5 -100q-1 -13 -1 -63q0 -23 2 -42t5 -30.5t6 -19.5t5 -12t2 -5zM365 267q24 188 24 268q0 16 -3 16q-4 0 -9 -8
q-112 -180 -180 -309q-12 -23 -12 -26q0 -4 6 -4q25 0 100 28q16 6 32 11.5t24.5 8.5t10.5 4q6 2 7 11zM425 773q-21 15 -66 33q-12 5 -12 33q0 15 11 26q12 12 24 12q3 0 7.5 -1.5t6.5 -1.5q1 0 3 -1t5.5 -3.5t8.5 -6t15.5 -11t22.5 -16.5l102 -70q26 -18 26 -25
q0 -2 -5 -17q-1 -4 -2 -9.5t-1 -6.5q-3 -10 -13 -10q-18 0 -31 9z" />
    <glyph glyph-name="Aacute" unicode="&#xc1;" horiz-adv-x="510" 
d="M460 -73q0 -10 -20 -25q-5 -4 -11 -4q-33 0 -51 18q-19 19 -19 127q0 22 2 66.5t2 67.5q0 4 -6 4q-139 -51 -203 -61q-9 -1 -15 -14q-16 -36 -16 -70q0 -15 0.5 -26t1 -15.5t1 -8.5t0.5 -6q0 -3 -5 -6q-3 -2 -11.5 -9t-14.5 -10t-12 -3q-5 0 -19 9q-17 11 -22.5 24
t-5.5 44q0 17 3 38t7 35l3 14q0 4 -6 7q-20 11 -26 16.5t-6 14.5q0 15 6 34t9 21q5 4 11 4q8 0 22.5 -8.5t20.5 -8.5q4 0 12 14q120 223 272 451q17 25 22 25q4 0 27.5 6t36.5 6q30 0 34 -9q1 -5 4.5 -8.5t3.5 -7.5q0 -5 -7.5 -48.5t-7.5 -46.5q0 -14 -3 -33
q-5 -34 -10.5 -95t-8.5 -103.5t-3 -46.5q0 -6 6 -6q1 0 18 2t34 2q45 0 61 -19q6 -7 6 -11q0 -6 -4 -13q-16 -26 -72 -26q-28 0 -44 -10q-10 -7 -11 -20l-5 -100q-1 -13 -1 -63q0 -23 2 -42t5 -30.5t6 -19.5t5 -12t2 -5zM365 267q24 188 24 268q0 16 -3 16q-4 0 -9 -8
q-112 -180 -180 -309q-12 -23 -12 -26q0 -4 6 -4q25 0 100 28q16 6 32 11.5t24.5 8.5t10.5 4q6 2 7 11zM438 832q61 24 77 35q5 3 14 3q11 0 19 -8q11 -11 11 -28q0 -20 -5 -26q-10 -13 -72 -32l-118 -37q-11 -3 -20 -3q-7 0 -11 2q-10 7 -15 14q-4 6 -9 11q-3 3 -3 8
q0 8 5 14q4 5 13 5q4 0 25 8z" />
    <glyph glyph-name="Acircumflex" unicode="&#xc2;" horiz-adv-x="510" 
d="M460 -73q0 -10 -20 -25q-5 -4 -11 -4q-33 0 -51 18q-19 19 -19 127q0 22 2 66.5t2 67.5q0 4 -6 4q-139 -51 -203 -61q-9 -1 -15 -14q-16 -36 -16 -70q0 -15 0.5 -26t1 -15.5t1 -8.5t0.5 -6q0 -3 -5 -6q-3 -2 -11.5 -9t-14.5 -10t-12 -3q-5 0 -19 9q-17 11 -22.5 24
t-5.5 44q0 17 3 38t7 35l3 14q0 4 -6 7q-20 11 -26 16.5t-6 14.5q0 15 6 34t9 21q5 4 11 4q8 0 22.5 -8.5t20.5 -8.5q4 0 12 14q120 223 272 451q17 25 22 25q4 0 27.5 6t36.5 6q30 0 34 -9q1 -5 4.5 -8.5t3.5 -7.5q0 -5 -7.5 -48.5t-7.5 -46.5q0 -14 -3 -33
q-5 -34 -10.5 -95t-8.5 -103.5t-3 -46.5q0 -6 6 -6q1 0 18 2t34 2q45 0 61 -19q6 -7 6 -11q0 -6 -4 -13q-16 -26 -72 -26q-28 0 -44 -10q-10 -7 -11 -20l-5 -100q-1 -13 -1 -63q0 -23 2 -42t5 -30.5t6 -19.5t5 -12t2 -5zM365 267q24 188 24 268q0 16 -3 16q-4 0 -9 -8
q-112 -180 -180 -309q-12 -23 -12 -26q0 -4 6 -4q25 0 100 28q16 6 32 11.5t24.5 8.5t10.5 4q6 2 7 11zM527 841l60 -103q11 -18 11 -25q0 -4 -2.5 -7.5t-6 -6.5t-5.5 -5q-7 -11 -18 -11q-9 0 -18 14l-63 86q-4 6 -8 6q-3 0 -10 -3q-89 -37 -105 -51q-1 -1 -5 -1
q-5 0 -9.5 2t-8.5 5.5t-6 4.5q-5 3 -5 24q0 17 2 21q2 5 6 8l3 3q4 7 55 25l89 31q9 3 13 3q16 0 19 -7q1 -2 5 -4.5t7 -8.5z" />
    <glyph glyph-name="Atilde" unicode="&#xc3;" horiz-adv-x="510" 
d="M460 -73q0 -10 -20 -25q-5 -4 -11 -4q-33 0 -51 18q-19 19 -19 127q0 22 2 66.5t2 67.5q0 4 -6 4q-139 -51 -203 -61q-9 -1 -15 -14q-16 -36 -16 -70q0 -15 0.5 -26t1 -15.5t1 -8.5t0.5 -6q0 -3 -5 -6q-3 -2 -11.5 -9t-14.5 -10t-12 -3q-5 0 -19 9q-17 11 -22.5 24
t-5.5 44q0 17 3 38t7 35l3 14q0 4 -6 7q-20 11 -26 16.5t-6 14.5q0 15 6 34t9 21q5 4 11 4q8 0 22.5 -8.5t20.5 -8.5q4 0 12 14q120 223 272 451q17 25 22 25q4 0 27.5 6t36.5 6q30 0 34 -9q1 -5 4.5 -8.5t3.5 -7.5q0 -5 -7.5 -48.5t-7.5 -46.5q0 -14 -3 -33
q-5 -34 -10.5 -95t-8.5 -103.5t-3 -46.5q0 -6 6 -6q1 0 18 2t34 2q45 0 61 -19q6 -7 6 -11q0 -6 -4 -13q-16 -26 -72 -26q-28 0 -44 -10q-10 -7 -11 -20l-5 -100q-1 -13 -1 -63q0 -23 2 -42t5 -30.5t6 -19.5t5 -12t2 -5zM365 267q24 188 24 268q0 16 -3 16q-4 0 -9 -8
q-112 -180 -180 -309q-12 -23 -12 -26q0 -4 6 -4q25 0 100 28q16 6 32 11.5t24.5 8.5t10.5 4q6 2 7 11zM333 785q0 5 -4 18t-4 19q0 11 9 14l63 23q24 9 45 9q13 0 22.5 -9.5t25.5 -32.5q16 -24 22.5 -29.5t18.5 -5.5q3 0 39.5 12t40.5 12q18 0 20 -19q0 -3 2 -9t2 -12
q0 -5 -8 -10q-70 -45 -98 -45q-30 0 -53 18q-11 8 -24 29.5t-17 23.5q-5 3 -9 3q-14 0 -49 -21q-5 -3 -10 -3q-34 0 -34 15z" />
    <glyph glyph-name="Adieresis" unicode="&#xc4;" horiz-adv-x="510" 
d="M460 -73q0 -10 -20 -25q-5 -4 -11 -4q-33 0 -51 18q-19 19 -19 127q0 22 2 66.5t2 67.5q0 4 -6 4q-139 -51 -203 -61q-9 -1 -15 -14q-16 -36 -16 -70q0 -15 0.5 -26t1 -15.5t1 -8.5t0.5 -6q0 -3 -5 -6q-3 -2 -11.5 -9t-14.5 -10t-12 -3q-5 0 -19 9q-17 11 -22.5 24
t-5.5 44q0 17 3 38t7 35l3 14q0 4 -6 7q-20 11 -26 16.5t-6 14.5q0 15 6 34t9 21q5 4 11 4q8 0 22.5 -8.5t20.5 -8.5q4 0 12 14q120 223 272 451q17 25 22 25q4 0 27.5 6t36.5 6q30 0 34 -9q1 -5 4.5 -8.5t3.5 -7.5q0 -5 -7.5 -48.5t-7.5 -46.5q0 -14 -3 -33
q-5 -34 -10.5 -95t-8.5 -103.5t-3 -46.5q0 -6 6 -6q1 0 18 2t34 2q45 0 61 -19q6 -7 6 -11q0 -6 -4 -13q-16 -26 -72 -26q-28 0 -44 -10q-10 -7 -11 -20l-5 -100q-1 -13 -1 -63q0 -23 2 -42t5 -30.5t6 -19.5t5 -12t2 -5zM365 267q24 188 24 268q0 16 -3 16q-4 0 -9 -8
q-112 -180 -180 -309q-12 -23 -12 -26q0 -4 6 -4q25 0 100 28q16 6 32 11.5t24.5 8.5t10.5 4q6 2 7 11zM388 826q11 -20 11 -32q0 -15 -11 -32l-12 -17q-1 -7 -14.5 -12t-24.5 -5q-12 0 -15 2q-7 5 -12.5 13t-7.5 10t-2 29q0 15 13 41q9 16 35 16q32 0 40 -13zM603 780
q1 -3 6 -14.5t5 -17.5q0 -10 -2 -16q-10 -28 -25 -36q-8 -4 -29 -4q-17 0 -24 15q-1 2 -11 16.5t-10 26.5q0 10 9 29.5t22 19.5q1 0 8.5 -0.5t11.5 -0.5q34 0 39 -18z" />
    <glyph glyph-name="Aring" unicode="&#xc5;" horiz-adv-x="510" 
d="M460 -73q0 -10 -20 -25q-5 -4 -11 -4q-33 0 -51 18q-19 19 -19 127q0 22 2 66.5t2 67.5q0 4 -6 4q-139 -51 -203 -61q-9 -1 -15 -14q-16 -36 -16 -70q0 -15 0.5 -26t1 -15.5t1 -8.5t0.5 -6q0 -3 -5 -6q-3 -2 -11.5 -9t-14.5 -10t-12 -3q-5 0 -19 9q-17 11 -22.5 24
t-5.5 44q0 17 3 38t7 35l3 14q0 4 -6 7q-20 11 -26 16.5t-6 14.5q0 15 6 34t9 21q5 4 11 4q8 0 22.5 -8.5t20.5 -8.5q4 0 12 14q34 64 73 128.5t91.5 147.5t89.5 145q16 26 22 26q2 0 25.5 5.5t46.5 5.5q34 0 39 -9q1 -2 5 -6.5t4 -9.5t-7 -46.5t-7 -44.5q0 -16 -2 -30
q-5 -34 -10 -89t-7.5 -92t-2.5 -41q0 -6 6 -6q1 0 18 2t34 2q45 0 61 -19q6 -7 6 -11q0 -6 -4 -13q-16 -26 -72 -26q-28 0 -44 -10q-10 -7 -11 -20l-5 -100q-1 -13 -1 -63q0 -23 2 -42t5 -30.5t6 -19.5t5 -12t2 -5zM365 267q19 155 19 239q0 16 -3 16t-15 -19
q-7 -11 -44 -66t-70 -108t-55 -95q-12 -23 -12 -26q0 -4 6 -4q25 0 100 28q16 6 32 11.5t24.5 8.5t10.5 4q6 2 7 11zM552 818q2 -16 2 -24q0 -44 -26 -83q-20 -29 -58 -29q-44 0 -63 13q-36 25 -36 57q0 24 21 61t42 45q19 7 37 7q14 0 26 -3q21 -6 37 -20t18 -24zM488 817
q-6 9 -12 9q-10 0 -16 -7q-27 -39 -27 -63q0 -15 7 -25t16 -10q10 0 14 6q2 4 7 12t7.5 13l6 12t5 13t1.5 12q0 14 -9 28z" />
    <glyph glyph-name="AE" unicode="&#xc6;" horiz-adv-x="736" 
d="M366 210q-28 -10 -58.5 -18.5t-78.5 -18.5t-55 -12q-13 -3 -20 -17q-17 -34 -30.5 -76.5t-13.5 -65.5q0 -4 -6 -8.5t-8 -10.5q-5 -14 -16 -14q-37 0 -42 5q-22 20 -22 36q0 37 38 124q5 12 5 14q0 4 -11 4q-29 0 -29 14q0 36 10 53q8 15 11.5 17.5t15.5 2.5
q3 0 16.5 -0.5t20.5 -0.5q12 0 15.5 3t12.5 16q45 68 109 148t128.5 154.5t85.5 101.5q12 15 17 15q2 0 28 6t38 6q27 0 33 -8q8 -9 8 -15q0 -7 -4.5 -23t-4.5 -17q0 -6 8 -6q9 0 21 3l35 8q78 19 161 19q4 0 16 -2t15 -2q21 0 55 -49q4 -6 4 -16t-13 -20q-7 -5 -22 -5
q-3 0 -13.5 5.5t-17.5 5.5q-9 0 -16.5 2t-15.5 2q-22 0 -44.5 -2t-39 -4.5t-40.5 -8t-35 -8.5t-37 -10.5t-34 -9.5q-9 -2 -11.5 -5t-4.5 -15q-4 -23 -17 -82t-16 -79q2 -5 5 -5q4 0 16 5q16 7 62 15.5t81 8.5q36 0 53 -13q22 -18 22 -46q0 -15 -22 -15q-4 0 -12.5 -1.5
t-11.5 -1.5q-4 0 -12 1.5t-15 1.5q-32 0 -74 -14q-44 -14 -86 -30q-14 -5 -17 -7.5t-5 -10.5q-27 -135 -27 -202q0 -10 5.5 -18t10.5 -8q27 0 46.5 5.5t46 18.5t38.5 18q15 6 51.5 30t59.5 32q21 7 28 7q6 0 18 -5q40 -17 40 -26t-1 -13q-2 -8 -50 -36q-54 -31 -86 -47.5
t-95.5 -34t-129.5 -17.5q-41 0 -64 33q-9 13 -9 51q0 53 16 169q2 16 2 17q0 5 -4 5q-3 0 -11 -3zM405 325q12 63 49 214q5 20 5 23t-2 3q-3 0 -16 -17q-23 -30 -69.5 -86.5t-81 -102t-61.5 -87.5q-8 -13 -8 -16t3 -3q4 0 31 7q63 17 125 40q16 6 19.5 9.5t5.5 15.5z" />
    <glyph glyph-name="Ccedilla" unicode="&#xc7;" horiz-adv-x="472" 
d="M214 -29q9 -9 9 -33q0 -23 -17 -47q-42 -60 -91 -60q-23 0 -59 13q-33 12 -49 35q-7 10 -7 16q0 8 15 23q4 4 8 4q2 0 5.5 -1.5t5.5 -1.5q5 0 11.5 -4.5t7.5 -9.5q1 -7 12 -13.5t24 -6.5q21 0 34 14.5t30 48.5q5 10 5 19q0 15 -6 19l-43 28q-35 23 -42 54q-5 23 -5 61
q0 21 5 56t8 44q114 322 312 432q7 4 32 8.5t44 4.5q17 0 33.5 -5t19.5 -9q6 -8 21 -22t22.5 -24.5t7.5 -21.5q0 -21 -1 -23q-37 -89 -41 -102q-6 -19 -31 -19q-5 0 -29 4q-9 2 -21 12.5t-12 18.5q0 19 16.5 43.5t18.5 36.5q0 3 6 13t6 18q0 13 -9 13q-32 0 -68 -26.5
t-60.5 -56.5t-68.5 -91q-69 -95 -126 -267q-6 -18 -6 -58q0 -6 4 -20.5t8 -17.5t13.5 -12.5t17 -14t15.5 -4.5q21 0 59 19q26 13 49.5 30.5t59 50t43.5 39.5q10 8 20 8h19q22 0 34 -19q7 -11 7 -16q0 -2 -36 -37q-41 -40 -60.5 -57.5t-50 -40t-58 -31t-59.5 -8.5h-6.5
t-3.5 -0.5t-2 -2v-3.5z" />
    <glyph glyph-name="Egrave" unicode="&#xc8;" horiz-adv-x="508" 
d="M679 608q0 -19 -15 -19q-4 0 -12 -3t-13 -3q-3 0 -14 5t-22 5q-113 0 -252 -47q-9 -3 -12 -12q-11 -29 -31 -79.5t-24 -61.5q0 -4 4 -4q7 2 27 9.5t30.5 11.5t28 9t32.5 7t29 2q38 0 75 -20q13 -7 13 -32q0 -8 -19 -14t-29 -6q-6 0 -17.5 1.5t-15.5 1.5q-27 0 -57 -8
t-63.5 -20.5t-50.5 -16.5q-26 -6 -30 -16q-28 -63 -40.5 -92t-24 -67t-11.5 -63q0 -12 8.5 -23t16.5 -11q37 0 81 19q17 7 39 16t29 12q18 8 49.5 27.5t58.5 32t54 12.5q8 0 10 -3q0 -1 15.5 -12.5t15.5 -18.5q0 -11 -6 -13q-11 -3 -22 -13q-16 -14 -27 -20q-61 -33 -97 -50
t-100 -34t-127 -17q-10 0 -37.5 11.5t-39.5 29.5q-8 11 -8 51q0 29 7 61.5t14 53.5t21.5 58t20.5 53q-13 13 -13 31q0 9 2 12q3 5 29 12q10 2 15 14q41 90 50 126q0 5 -4 5q-2 0 -15.5 -4t-21.5 -4q-11 0 -19 4q-10 5 -18 22.5t-8 27.5q0 6 6 7q45 11 181 62
q42 16 123.5 33.5t147.5 17.5q22 0 34 -6q49 -24 49 -50zM333 767q-21 15 -66 33q-12 5 -12 33q0 15 11 26q12 12 24 12q3 0 7.5 -1.5t6.5 -1.5q1 0 3 -1t5.5 -3.5t8.5 -6t15.5 -11t22.5 -16.5l102 -70q26 -18 26 -25q0 -2 -5 -17q-1 -4 -2 -9.5t-1 -6.5q-3 -10 -13 -10
q-18 0 -31 9z" />
    <glyph glyph-name="Eacute" unicode="&#xc9;" horiz-adv-x="508" 
d="M679 608q0 -19 -15 -19q-4 0 -12 -3t-13 -3q-3 0 -14 5t-22 5q-113 0 -252 -47q-9 -3 -12 -12q-11 -29 -31 -79.5t-24 -61.5q0 -4 4 -4q7 2 27 9.5t30.5 11.5t28 9t32.5 7t29 2q38 0 75 -20q13 -7 13 -32q0 -8 -19 -14t-29 -6q-6 0 -17.5 1.5t-15.5 1.5q-27 0 -57 -8
t-63.5 -20.5t-50.5 -16.5q-26 -6 -30 -16q-28 -63 -40.5 -92t-24 -67t-11.5 -63q0 -12 8.5 -23t16.5 -11q37 0 81 19q17 7 39 16t29 12q18 8 49.5 27.5t58.5 32t54 12.5q8 0 10 -3q0 -1 15.5 -12.5t15.5 -18.5q0 -11 -6 -13q-11 -3 -22 -13q-16 -14 -27 -20q-61 -33 -97 -50
t-100 -34t-127 -17q-10 0 -37.5 11.5t-39.5 29.5q-8 11 -8 51q0 29 7 61.5t14 53.5t21.5 58t20.5 53q-13 13 -13 31q0 9 2 12q3 5 29 12q10 2 15 14q41 90 50 126q0 5 -4 5q-2 0 -15.5 -4t-21.5 -4q-11 0 -19 4q-10 5 -18 22.5t-8 27.5q0 6 6 7q45 11 181 62
q42 16 123.5 33.5t147.5 17.5q22 0 34 -6q49 -24 49 -50zM423 773q48 34 66 52q7 7 21 7q5 0 12 -4q14 -9 18 -24q3 -15 3 -19q0 -10 -11 -20q-14 -12 -53 -36l-105 -65q-15 -9 -27 -9q-10 0 -21 11q-4 4 -12 8q-5 3 -5 8q0 10 2 14q3 5 11 8q6 2 23 14z" />
    <glyph glyph-name="Ecircumflex" unicode="&#xca;" horiz-adv-x="508" 
d="M679 608q0 -19 -15 -19q-4 0 -12 -3t-13 -3q-3 0 -14 5t-22 5q-113 0 -252 -47q-9 -3 -12 -12q-11 -29 -31 -79.5t-24 -61.5q0 -4 4 -4q7 2 27 9.5t30.5 11.5t28 9t32.5 7t29 2q38 0 75 -20q13 -7 13 -32q0 -8 -19 -14t-29 -6q-6 0 -17.5 1.5t-15.5 1.5q-27 0 -57 -8
t-63.5 -20.5t-50.5 -16.5q-26 -6 -30 -16q-28 -63 -40.5 -92t-24 -67t-11.5 -63q0 -12 8.5 -23t16.5 -11q37 0 81 19q17 7 39 16t29 12q18 8 49.5 27.5t58.5 32t54 12.5q8 0 10 -3q0 -1 15.5 -12.5t15.5 -18.5q0 -11 -6 -13q-11 -3 -22 -13q-16 -14 -27 -20q-61 -33 -97 -50
t-100 -34t-127 -17q-10 0 -37.5 11.5t-39.5 29.5q-8 11 -8 51q0 29 7 61.5t14 53.5t21.5 58t20.5 53q-13 13 -13 31q0 9 2 12q3 5 29 12q10 2 15 14q41 90 50 126q0 5 -4 5q-2 0 -15.5 -4t-21.5 -4q-11 0 -19 4q-10 5 -18 22.5t-8 27.5q0 6 6 7q45 11 181 62
q42 16 123.5 33.5t147.5 17.5q22 0 34 -6q49 -24 49 -50zM466 847l60 -89q11 -16 11 -22q0 -4 -10 -21q-7 -11 -16 -11t-18 9l-55 58q-4 5 -10 5q-3 0 -11 -5q-81 -59 -100 -78q-8 -8 -14 -8q-8 0 -13 3.5t-6 3.5q-5 1 -11 9t-6 18q0 17 2 22t5 8.5t4 4.5q3 7 55 41l89 57
q11 7 21 7t12 -2l4 -3q4 -2 7 -7z" />
    <glyph glyph-name="Edieresis" unicode="&#xcb;" horiz-adv-x="508" 
d="M679 608q0 -19 -15 -19q-4 0 -12 -3t-13 -3q-3 0 -14 5t-22 5q-113 0 -252 -47q-9 -3 -12 -12q-11 -29 -31 -79.5t-24 -61.5q0 -4 4 -4q7 2 27 9.5t30.5 11.5t28 9t32.5 7t29 2q38 0 75 -20q13 -7 13 -32q0 -8 -19 -14t-29 -6q-6 0 -17.5 1.5t-15.5 1.5q-27 0 -57 -8
t-63.5 -20.5t-50.5 -16.5q-26 -6 -30 -16q-28 -63 -40.5 -92t-24 -67t-11.5 -63q0 -12 8.5 -23t16.5 -11q37 0 81 19q17 7 39 16t29 12q18 8 49.5 27.5t58.5 32t54 12.5q8 0 10 -3q0 -1 15.5 -12.5t15.5 -18.5q0 -11 -6 -13q-11 -3 -22 -13q-16 -14 -27 -20q-61 -33 -97 -50
t-100 -34t-127 -17q-10 0 -37.5 11.5t-39.5 29.5q-8 11 -8 51q0 29 7 61.5t14 53.5t21.5 58t20.5 53q-13 13 -13 31q0 9 2 12q3 5 29 12q10 2 15 14q41 90 50 126q0 5 -4 5q-2 0 -15.5 -4t-21.5 -4q-11 0 -19 4q-10 5 -18 22.5t-8 27.5q0 6 6 7q45 11 181 62
q42 16 123.5 33.5t147.5 17.5q22 0 34 -6q49 -24 49 -50zM351 820q11 -20 11 -32q0 -15 -12 -32l-11 -17q-1 -7 -14.5 -12t-24.5 -5q-12 0 -15 2q-7 5 -12.5 13t-7.5 10t-2 29q0 15 13 41q9 16 35 16q32 0 40 -13zM552 805q1 -3 6 -14.5t5 -17.5q0 -10 -2 -16
q-10 -28 -25 -36q-8 -4 -29 -4q-17 0 -24 15q-1 2 -11 16.5t-10 26.5q0 10 9 29.5t22 19.5q1 0 8.5 -0.5t11.5 -0.5q35 0 39 -18z" />
    <glyph glyph-name="Igrave" unicode="&#xcc;" horiz-adv-x="254" 
d="M352 609q0 -25 -6 -38t-24 -31q-6 -6 -13 -24q-20 -51 -42 -114t-36.5 -105.5t-40.5 -121t-37 -112.5q-2 -6 -2 -10q0 -2 1 -7t1 -8q0 -23 -19 -61q-2 -4 -13 -4q-6 0 -12 -10q-5 -8 -9 -8t-8 5t-9 5q-7 0 -18 7.5t-13 7.5q-6 0 -6 6t6.5 35.5t12.5 39.5q5 9 9 24
q17 70 40 142.5t54 161.5t47 139q2 8 15 33.5t25 64.5q4 12 40 12q17 0 37 -9t20 -20zM263 743q-21 15 -66 33q-12 5 -12 33q0 15 11 26q12 12 24 12q3 0 7.5 -1.5t6.5 -1.5q1 0 3 -1t5.5 -3.5t8.5 -6t15.5 -11t22.5 -16.5l102 -70q26 -18 26 -25q0 -2 -5 -17q-1 -4 -2 -9.5
t-1 -6.5q-3 -10 -13 -10q-18 0 -31 9z" />
    <glyph glyph-name="Iacute" unicode="&#xcd;" horiz-adv-x="254" 
d="M352 609q0 -25 -6 -38t-24 -31q-6 -6 -13 -24q-20 -51 -42 -114t-36.5 -105.5t-40.5 -121t-37 -112.5q-2 -6 -2 -10q0 -2 1 -7t1 -8q0 -23 -19 -61q-2 -4 -13 -4q-6 0 -12 -10q-5 -8 -9 -8t-8 5t-9 5q-7 0 -18 7.5t-13 7.5q-6 0 -6 6t6.5 35.5t12.5 39.5q5 9 9 24
q17 70 40 142.5t54 161.5t47 139q2 8 15 33.5t25 64.5q4 12 40 12q17 0 37 -9t20 -20zM402 786q61 24 77 35q5 3 14 3q11 0 19 -8q11 -11 11 -28q0 -20 -5 -26q-10 -13 -72 -32l-118 -37q-10 -3 -20 -3q-7 0 -11 2q-10 7 -15 14q-4 6 -9 11q-3 3 -3 8q0 8 5 14q4 5 13 5
q4 0 25 8z" />
    <glyph glyph-name="Icircumflex" unicode="&#xce;" horiz-adv-x="254" 
d="M352 609q0 -25 -6 -38t-24 -31q-6 -6 -13 -24q-20 -51 -42 -114t-36.5 -105.5t-40.5 -121t-37 -112.5q-2 -6 -2 -10q0 -2 1 -7t1 -8q0 -23 -19 -61q-2 -4 -13 -4q-6 0 -12 -10q-5 -8 -9 -8t-8 5t-9 5q-7 0 -18 7.5t-13 7.5q-6 0 -6 6t6.5 35.5t12.5 39.5q5 9 9 24
q17 70 40 142.5t54 161.5t47 139q2 8 15 33.5t25 64.5q4 12 40 12q17 0 37 -9t20 -20zM413 821l60 -103q11 -18 11 -25q0 -4 -2.5 -7.5t-6 -6.5t-5.5 -5q-7 -11 -18 -11q-9 0 -18 14l-63 86q-4 6 -8 6q-3 0 -10 -3q-89 -37 -105 -51q-1 -1 -5 -1q-5 0 -9.5 2t-8.5 5.5
t-6 4.5q-5 3 -5 24q0 17 2 21q2 5 6 8l3 3q4 7 55 25l89 31q9 3 13 3q16 0 19 -7q1 -2 5 -4.5t7 -8.5z" />
    <glyph glyph-name="Idieresis" unicode="&#xcf;" horiz-adv-x="254" 
d="M352 609q0 -25 -6 -38t-24 -31q-6 -6 -13 -24q-20 -51 -42 -114t-36.5 -105.5t-40.5 -121t-37 -112.5q-2 -6 -2 -10q0 -2 1 -7t1 -8q0 -23 -19 -61q-2 -4 -13 -4q-6 0 -12 -10q-5 -8 -9 -8t-8 5t-9 5q-7 0 -18 7.5t-13 7.5q-6 0 -6 6t6.5 35.5t12.5 39.5q5 9 9 24
q17 70 40 142.5t54 161.5t47 139q2 8 15 33.5t25 64.5q4 12 40 12q17 0 37 -9t20 -20zM296 816q11 -20 11 -32q0 -15 -11 -32l-12 -17q-1 -7 -14.5 -12t-24.5 -5q-12 0 -15 2q-7 5 -12.5 13t-7.5 10t-2 29q0 15 13 41q9 16 35 16q32 0 40 -13zM481 758q1 -3 6 -14.5t5 -17.5
q0 -10 -2 -16q-10 -28 -25 -36q-8 -4 -29 -4q-17 0 -24 15q-1 2 -11 16.5t-10 26.5q0 10 9 29.5t22 19.5q1 0 8.5 -0.5t11.5 -0.5q34 0 39 -18z" />
    <glyph glyph-name="Eth" unicode="&#xd0;" horiz-adv-x="572" 
d="M234 457q0 5 -4 5q-3 0 -20.5 -11.5t-27.5 -11.5q-7 0 -13.5 6.5t-6.5 15.5q0 36 10 50.5t61 49.5q109 74 211 74q63 0 96 -23l19.5 -13t21.5 -14.5t19 -15.5t20 -22q20 -26 20 -82q0 -44 -27 -95q-4 -7 -8.5 -19.5t-9.5 -22.5q-32 -66 -58 -112.5t-63 -97.5t-81.5 -86.5
t-96.5 -54.5q-11 -4 -32 -4q-25 0 -75 13q-1 -9 -27 -9q-13 0 -30 11.5t-25 25.5q-85 36 -85 71q0 17 20 17q4 0 16 -1.5t21 -1.5q7 0 15 -5.5t12 -5.5q5 0 6 3q14 63 45 157q0 4 -4 4q-11 0 -25 -3t-23 -3q-13 0 -13 12q0 40 25 63q8 8 63 16q8 1 11 8q36 96 43 112z
M281 347q10 0 40.5 5.5t37.5 5.5q11 0 12 -3q9 -13 9 -30q0 -7 -3 -15q-3 -9 -9.5 -17.5t-7.5 -11.5q-3 -6 -30 -10q-48 -6 -74 -6q-8 0 -12 -10q-40 -108 -54 -204q0 -7 6 -9q9 -3 31 -3q54 0 96 42q125 125 207 326q23 56 23 81q0 34 -12 52q-24 35 -67 35
q-23 0 -63.5 -14t-42.5 -14q4 -4 4 -7q0 -10 -8 -17.5t-11 -14.5q-58 -127 -72 -161z" />
    <glyph glyph-name="Ntilde" unicode="&#xd1;" horiz-adv-x="598" 
d="M426 -22q-13 0 -36 11q-26 13 -35.5 25t-16.5 34q-21 67 -42 212.5t-28 172.5q-4 14 -8 14t-8 -14q-3 -13 -30.5 -99.5t-47.5 -166t-26 -140.5q-3 -32 -3 -36q0 -8 -10.5 -13t-26.5 -5q-11 0 -17.5 1t-9 2.5t-6 4t-6.5 4.5q-15 7 -15 15q0 19 25.5 110.5t54.5 186.5
t30 100l9 34q33 128 41 162q2 9 11 11t9 7q0 2 -7.5 19.5t-7.5 37.5q0 7 10 11q22 9 60 9q9 0 14 -14q35 -104 57 -298t46 -282q4 -15 8 -15q2 0 9 15q15 34 29 68.5t28.5 78t22.5 69t24.5 80.5t22.5 73q3 9 9 25.5t9 29.5q4 17 8 53.5t9 54.5q4 14 7 17.5t14 3.5
q7 0 21.5 -3t19.5 -3q9 0 22.5 -14t13.5 -19q0 -18 -11 -38l-14 -40q-7 -21 -64.5 -200t-106.5 -300q-8 -20 -14 -26q-26 -26 -47 -26zM319 749q0 5 -4 18t-4 19q0 11 9 14l63 23q24 9 45 9q13 0 22.5 -9.5t25.5 -32.5q16 -24 22.5 -29.5t18.5 -5.5q3 0 39.5 12t40.5 12
q18 0 20 -19q0 -3 2 -9t2 -12q0 -5 -8 -10q-70 -45 -98 -45q-30 0 -53 18q-11 8 -24 29.5t-17 23.5q-5 3 -9 3q-14 0 -49 -21q-5 -3 -10 -3q-34 0 -34 15z" />
    <glyph glyph-name="Ograve" unicode="&#xd2;" horiz-adv-x="490" 
d="M448 601q71 -64 71 -175q0 -32 -10 -72q-53 -216 -133 -317q-49 -61 -139 -61q-30 0 -60 9q-31 10 -57 48q-32 47 -32 114q0 98 30.5 180.5t90.5 170.5q59 87 117 122q18 11 26 11t22 -6q35 -16 52 -16q13 0 22 -8zM381 546q0 10 -7 10q-12 0 -41 -30
q-103 -106 -147 -247q-12 -39 -12 -62q0 -2 -2.5 -29t-2.5 -40q0 -62 34 -96q9 -9 33 -9q19 0 39 10.5t30 26.5q67 102 96 208t29 153q0 25 -1 33q-9 53 -42 64q-6 2 -6 8zM373 727q-21 15 -66 33q-12 5 -12 33q0 15 11 26q12 12 24 12q3 0 7.5 -1.5t6.5 -1.5q1 0 3 -1
t5.5 -3.5t8.5 -6t15.5 -11t22.5 -16.5l102 -70q26 -18 26 -25q0 -2 -5 -17q-1 -4 -2 -9.5t-1 -6.5q-3 -10 -13 -10q-17 0 -31 9z" />
    <glyph glyph-name="Oacute" unicode="&#xd3;" horiz-adv-x="490" 
d="M448 601q71 -64 71 -175q0 -32 -10 -72q-53 -216 -133 -317q-49 -61 -139 -61q-30 0 -60 9q-31 10 -57 48q-32 47 -32 114q0 98 30.5 180.5t90.5 170.5q59 87 117 122q18 11 26 11t22 -6q35 -16 52 -16q13 0 22 -8zM381 546q0 10 -7 10q-12 0 -41 -30
q-103 -106 -147 -247q-12 -39 -12 -62q0 -2 -2.5 -29t-2.5 -40q0 -62 34 -96q9 -9 33 -9q19 0 39 10.5t30 26.5q67 102 96 208t29 153q0 25 -1 33q-9 53 -42 64q-6 2 -6 8zM450 776q61 24 77 35q5 3 14 3q11 0 19 -8q11 -11 11 -28q0 -20 -5 -26q-10 -13 -72 -32l-118 -37
q-10 -3 -20 -3q-7 0 -11 2q-10 7 -15 14q-4 6 -9 11q-3 3 -3 8q0 8 5 14q4 5 13 5q4 0 25 8z" />
    <glyph glyph-name="Ocircumflex" unicode="&#xd4;" horiz-adv-x="490" 
d="M448 601q71 -64 71 -175q0 -32 -10 -72q-53 -216 -133 -317q-49 -61 -139 -61q-30 0 -60 9q-31 10 -57 48q-32 47 -32 114q0 98 30.5 180.5t90.5 170.5q59 87 117 122q18 11 26 11t22 -6q35 -16 52 -16q13 0 22 -8zM381 546q0 10 -7 10q-12 0 -41 -30
q-103 -106 -147 -247q-12 -39 -12 -62q0 -2 -2.5 -29t-2.5 -40q0 -62 34 -96q9 -9 33 -9q19 0 39 10.5t30 26.5q67 102 96 208t29 153q0 25 -1 33q-9 53 -42 64q-6 2 -6 8zM497 801l60 -103q11 -18 11 -25q0 -4 -2.5 -7.5t-6 -6.5t-5.5 -5q-7 -11 -18 -11q-9 0 -18 14
l-63 86q-4 6 -8 6q-3 0 -10 -3q-89 -37 -105 -51q-1 -1 -5 -1q-5 0 -9.5 2t-8.5 5.5t-6 4.5q-5 3 -5 24q0 17 2 21q2 5 6 8l3 3q4 7 55 25l89 31q9 3 13 3q16 0 19 -7q1 -2 5 -4.5t7 -8.5z" />
    <glyph glyph-name="Otilde" unicode="&#xd5;" horiz-adv-x="490" 
d="M448 601q71 -64 71 -175q0 -32 -10 -72q-53 -216 -133 -317q-49 -61 -139 -61q-30 0 -60 9q-31 10 -57 48q-32 47 -32 114q0 98 30.5 180.5t90.5 170.5q59 87 117 122q18 11 26 11t22 -6q35 -16 52 -16q13 0 22 -8zM381 546q0 10 -7 10q-12 0 -41 -30
q-103 -106 -147 -247q-12 -39 -12 -62q0 -2 -2.5 -29t-2.5 -40q0 -62 34 -96q9 -9 33 -9q19 0 39 10.5t30 26.5q67 102 96 208t29 153q0 25 -1 33q-9 53 -42 64q-6 2 -6 8zM297 727q0 5 -4 18t-4 19q0 11 9 14l63 23q24 9 45 9q13 0 22.5 -9.5t25.5 -32.5q16 -24 22.5 -29.5
t18.5 -5.5q3 0 39.5 12t40.5 12q18 0 20 -19q0 -3 2 -9t2 -12q0 -5 -8 -10q-70 -45 -98 -45q-30 0 -53 18q-11 8 -24 29.5t-17 23.5q-5 3 -9 3q-14 0 -49 -21q-5 -3 -10 -3q-34 0 -34 15z" />
    <glyph glyph-name="Odieresis" unicode="&#xd6;" horiz-adv-x="490" 
d="M448 601q71 -64 71 -175q0 -32 -10 -72q-53 -216 -133 -317q-49 -61 -139 -61q-30 0 -60 9q-31 10 -57 48q-32 47 -32 114q0 98 30.5 180.5t90.5 170.5q59 87 117 122q18 11 26 11t22 -6q35 -16 52 -16q13 0 22 -8zM381 546q0 10 -7 10q-12 0 -41 -30
q-103 -106 -147 -247q-12 -39 -12 -62q0 -2 -2.5 -29t-2.5 -40q0 -62 34 -96q9 -9 33 -9q19 0 39 10.5t30 26.5q67 102 96 208t29 153q0 25 -1 33q-9 53 -42 64q-6 2 -6 8zM367 786q11 -20 11 -32q0 -15 -12 -32l-11 -17q-1 -7 -14.5 -12t-24.5 -5q-12 0 -15 2
q-7 5 -12.5 13t-7.5 10t-2 29q0 15 13 41q9 16 35 16q32 0 40 -13zM564 722q1 -3 6 -14.5t5 -17.5t-2 -16q-14 -30 -25 -36q-8 -4 -29 -4q-17 0 -24 15q-1 2 -11 16.5t-10 26.5q0 10 9 29.5t22 19.5q1 0 8.5 -0.5t11.5 -0.5q35 0 39 -18z" />
    <glyph glyph-name="multiply" unicode="&#xd7;" horiz-adv-x="590" 
d="M558 462q11 0 19 -10t9 -19q0 -5 -2 -8q-19 -25 -83 -66q-16 -11 -35 -25.5t-32 -25.5t-37 -31.5t-36 -30.5q-6 -4 -6 -9q0 -1 4 -13q31 -79 64 -131q27 -41 27 -43q0 -7 -10 -14q-15 -12 -21 -12q-19 0 -29 6q-4 2 -13 2.5t-13 6.5q-31 48 -69 142q-2 7 -5 7t-10 -6
q-10 -10 -34 -30.5t-35 -31t-26 -28.5t-23 -36q-9 -19 -25 -19q-3 0 -7 1t-11 1q-6 0 -10.5 3t-9 9t-5.5 7q-16 16 -16 20q0 27 44 66q18 16 60.5 53.5t66.5 58.5q13 12 13 17t-4 14q-7 19 -16 50q-9 29 -16.5 52.5t-11 33t-6 17t-2.5 14.5q0 8 3 14q3 5 10 8q6 3 23 3
q22 0 29 -3q3 -1 6 -5t6 -5q13 -4 13 -19q0 -28 30 -126q2 -2 3 -2q3 0 11 7q26 23 59 48t56 44.5t43 41.5q7 7 25 7q3 0 15 -2.5t20 -2.5z" />
    <glyph glyph-name="Oslash" unicode="&#xd8;" horiz-adv-x="540" 
d="M533 576q14 14 27 14q21 0 28 -16q1 -2 4 -6t5 -8.5t2 -10.5q0 -13 -15 -24l-23 -17q-9 -7 -9 -11q0 -1 3 -15q6 -30 6 -73t-35.5 -157.5t-103.5 -203.5q-57 -75 -157 -75q-84 0 -118 45q-4 5 -6 5t-6 -5q-8 -11 -19 -16q-1 -1 -3 -2.5t-4.5 -2.5t-7.5 -1q-7 0 -17 3
q-1 0 -2.5 2t-2.5 3.5t-2.5 4t-2.5 4.5q-10 12 -10 23q0 6 36 42q6 6 6 9t-2 9q-7 21 -7 78q0 148 107 317q26 41 66 83.5t73 50.5q24 6 39 6q12 0 21 -5t25 -5q12 0 16 1.5t11 1.5q10 0 28 -13.5t34 -34.5q5 -7 7 -7t9 7zM464 410q-51 -58 -144 -170t-114 -137
q-7 -8 -7 -12t4 -11q13 -25 28 -33q13 -8 21 -8q35 0 55.5 8.5t35.5 31.5q91 139 123 265q12 44 12 74q0 3 -2 3t-12 -11zM465 515q-8 14 -20.5 23.5t-21.5 10.5q-22 3 -23 4q-8 10 -17 10q-7 0 -24 -17q-113 -114 -157 -249q-18 -54 -18 -103q0 -11 3 -11t23 24l243 284
q14 17 14 18q0 2 -2 6z" />
    <glyph glyph-name="Ugrave" unicode="&#xd9;" horiz-adv-x="600" 
d="M336 624q5 -10 5 -26q0 -4 -9 -25q-18 -45 -60 -137t-66.5 -159.5t-33.5 -132.5q-4 -28 -4 -55q0 -15 5 -15q19 0 39 20q220 220 343 420q5 7 9.5 18.5t14.5 27.5q5 8 15 18.5t14 10.5l11 -2q11 -2 22 -2q6 0 11 -9l14 -22q6 -10 6 -14q0 -5 -7 -22q-8 -21 -31 -61.5
t-31 -61.5q-72 -194 -72 -397q0 -10 0.5 -16.5t0.5 -9.5v-4q0 -10 -14 -10q-7 0 -10 1t-6 3t-7 3q-10 3 -35 19l-6 3t-6 3.5t-4 4.5t-2 8q0 12 5 21q4 6 5 16q3 22 6 64.5t7 74t11 57.5q3 12 3 16q0 5 -5 5q-3 0 -8 -5q-157 -182 -233 -248q-18 -16 -46 -16q-26 0 -41 15
q-8 8 -28 13t-27 19q-5 10 -5 63q0 72 27 158q21 67 69 186.5t62 159.5q2 5 4 9t4 7.5t3 5.5q15 27 30 27q2 0 4 -1t4.5 -2t7.5 -3.5t12 -5.5q19 -7 23 -15zM455 733q-21 15 -66 33q-12 5 -12 33q0 15 11 26q12 12 24 12q3 0 7.5 -1.5t6.5 -1.5q1 0 3 -1t5.5 -3.5t8.5 -6
t15.5 -11t22.5 -16.5l102 -70q26 -18 26 -25q0 -2 -5 -17q-1 -4 -2 -9.5t-1 -6.5q-3 -10 -13 -10q-18 0 -31 9z" />
    <glyph glyph-name="Uacute" unicode="&#xda;" horiz-adv-x="600" 
d="M336 624q5 -10 5 -26q0 -4 -9 -25q-18 -45 -60 -137t-66.5 -159.5t-33.5 -132.5q-4 -28 -4 -55q0 -15 5 -15q19 0 39 20q220 220 343 420q5 7 9.5 18.5t14.5 27.5q5 8 15 18.5t14 10.5l11 -2q11 -2 22 -2q6 0 11 -9l14 -22q6 -10 6 -14q0 -5 -7 -22q-8 -21 -31 -61.5
t-31 -61.5q-72 -194 -72 -397q0 -10 0.5 -16.5t0.5 -9.5v-4q0 -10 -14 -10q-7 0 -10 1t-6 3t-7 3q-10 3 -35 19l-6 3t-6 3.5t-4 4.5t-2 8q0 12 5 21q4 6 5 16q3 22 6 64.5t7 74t11 57.5q3 12 3 16q0 5 -5 5q-3 0 -8 -5q-157 -182 -233 -248q-18 -16 -46 -16q-26 0 -41 15
q-8 8 -28 13t-27 19q-5 10 -5 63q0 72 27 158q21 67 69 186.5t62 159.5q2 5 4 9t4 7.5t3 5.5q15 27 30 27q2 0 4 -1t4.5 -2t7.5 -3.5t12 -5.5q19 -7 23 -15zM552 768q61 24 77 35q5 3 14 3q11 0 19 -8q11 -11 11 -28q0 -20 -5 -26q-10 -13 -72 -32l-118 -37q-11 -3 -20 -3
q-7 0 -11 2q-10 7 -15 14q-4 6 -9 11q-3 3 -3 8q0 8 5 14q4 5 13 5q4 0 25 8z" />
    <glyph glyph-name="Ucircumflex" unicode="&#xdb;" horiz-adv-x="600" 
d="M336 624q5 -10 5 -26q0 -4 -9 -25q-18 -45 -60 -137t-66.5 -159.5t-33.5 -132.5q-4 -28 -4 -55q0 -15 5 -15q19 0 39 20q220 220 343 420q5 7 9.5 18.5t14.5 27.5q5 8 15 18.5t14 10.5l11 -2q11 -2 22 -2q6 0 11 -9l14 -22q6 -10 6 -14q0 -5 -7 -22q-8 -21 -31 -61.5
t-31 -61.5q-72 -194 -72 -397q0 -10 0.5 -16.5t0.5 -9.5v-4q0 -10 -14 -10q-7 0 -10 1t-6 3t-7 3q-10 3 -35 19l-6 3t-6 3.5t-4 4.5t-2 8q0 12 5 21q4 6 5 16q3 22 6 64.5t7 74t11 57.5q3 12 3 16q0 5 -5 5q-3 0 -8 -5q-157 -182 -233 -248q-18 -16 -46 -16q-26 0 -41 15
q-8 8 -28 13t-27 19q-5 10 -5 63q0 72 27 158q21 67 69 186.5t62 159.5q2 5 4 9t4 7.5t3 5.5q15 27 30 27q2 0 4 -1t4.5 -2t7.5 -3.5t12 -5.5q19 -7 23 -15zM565 819l60 -103q11 -18 11 -25q0 -4 -2.5 -7.5t-6 -6.5t-5.5 -5q-7 -11 -18 -11q-9 0 -18 14l-63 86q-4 6 -8 6
q-3 0 -10 -3q-89 -37 -105 -51q-1 -1 -5 -1q-5 0 -9.5 2t-8.5 5.5t-6 4.5q-5 3 -5 24q0 17 2 21q2 5 6 8l3 3q4 7 55 25l89 31q9 3 13 3q16 0 19 -7q1 -2 5 -4.5t7 -8.5z" />
    <glyph glyph-name="Udieresis" unicode="&#xdc;" horiz-adv-x="600" 
d="M336 624q5 -10 5 -26q0 -4 -9 -25q-18 -45 -60 -137t-66.5 -159.5t-33.5 -132.5q-4 -28 -4 -55q0 -15 5 -15q19 0 39 20q220 220 343 420q5 7 9.5 18.5t14.5 27.5q5 8 15 18.5t14 10.5l11 -2q11 -2 22 -2q6 0 11 -9l14 -22q6 -10 6 -14q0 -5 -7 -22q-8 -21 -31 -61.5
t-31 -61.5q-72 -194 -72 -397q0 -10 0.5 -16.5t0.5 -9.5v-4q0 -10 -14 -10q-7 0 -10 1t-6 3t-7 3q-10 3 -35 19l-6 3t-6 3.5t-4 4.5t-2 8q0 12 5 21q4 6 5 16q3 22 6 64.5t7 74t11 57.5q3 12 3 16q0 5 -5 5q-3 0 -8 -5q-157 -182 -233 -248q-18 -16 -46 -16q-26 0 -41 15
q-8 8 -28 13t-27 19q-5 10 -5 63q0 72 27 158q21 67 69 186.5t62 159.5q2 5 4 9t4 7.5t3 5.5q15 27 30 27q2 0 4 -1t4.5 -2t7.5 -3.5t12 -5.5q19 -7 23 -15zM454 806q11 -20 11 -32q0 -15 -11 -32l-12 -17q-1 -7 -14.5 -12t-24.5 -5q-12 0 -15 2q-7 5 -12.5 13t-7.5 10
t-2 29q0 15 13 41q9 16 35 16q32 0 40 -13zM639 748q1 -3 6 -14.5t5 -17.5q0 -10 -2 -16q-10 -28 -25 -36q-8 -4 -29 -4q-17 0 -24 15q-1 2 -11 16.5t-10 26.5q0 10 9 29.5t22 19.5q1 0 8.5 -0.5t11.5 -0.5q34 0 39 -18z" />
    <glyph glyph-name="Yacute" unicode="&#xdd;" horiz-adv-x="502" 
d="M257 668q4 -1 8.5 -11t4.5 -18q0 -15 -9.5 -34.5t-13.5 -37.5q-45 -217 -45 -320q0 -10 19 -10q17 0 30 8q67 42 113 88q49 49 109 165q41 80 64 110q7 10 11 10q38 0 60 -22q3 -3 7 -14t4 -15q0 -6 -6 -14q-204 -286 -282 -864q-2 -11 -4 -19t-2 -11q0 -8 -6 -8
q-3 0 -11.5 2t-14.5 3q-43 7 -47 26q-2 10 -2 30t3.5 39t10 44.5t8.5 34.5q0 2 11 60q22 117 92 352l-8 -9q-59 -65 -133 -65q-6 0 -28 12t-40 28q-40 35 -40 58q0 37 5 107q0 5 2.5 15t2.5 21q0 12 4 25.5t5 19.5q19 114 47 214q3 9 8 9q9 0 63 -9zM474 762q61 24 77 35
q5 3 14 3q11 0 19 -8q11 -11 11 -28q0 -20 -5 -26q-10 -13 -72 -32l-118 -37q-11 -3 -20 -3q-7 0 -11 2q-10 7 -15 14q-4 6 -9 11q-3 3 -3 8q0 8 5 14q4 5 13 5q4 0 25 8z" />
    <glyph glyph-name="Thorn" unicode="&#xde;" horiz-adv-x="500" 
d="M345 562q0 -5 3 -5t16 5q84 30 136 30q30 0 43 -3t26 -15q27 -24 27 -91q0 -42 -53 -128q-36 -60 -76.5 -104.5t-110.5 -99.5q-24 -19 -102 -19q-15 0 -25.5 3t-14.5 5t-13 10t-13 11q-43 -149 -43 -166q0 -9 -9 -15q-13 -8 -24 -8q-16 0 -20 4q-7 8 -18 12.5t-17 11.5
q-2 2 -2 9q0 3 4.5 22t15.5 55t24 70q18 47 18 67q-2 2 -5.5 4.5t-5.5 5t-4.5 5t-4 6t-1.5 6.5q0 10 4 11q1 1 17.5 15.5t29.5 14.5q29 81 31 88q-21 8 -31 29q0 1 -3 4.5t-3 6.5q0 16 27 36q10 8 30.5 19.5t24.5 14.5q7 16 33 79.5t43 97.5q7 15 31 15q3 0 10.5 -4t19.5 -5
q24 -2 24 -18q0 -15 -6.5 -28.5t-7.5 -17.5q0 -7 -6 -17zM514 511q0 4 -1 5.5t-6.5 3t-17.5 1.5q-18 0 -27 -2q-97 -21 -166 -73q-2 -6 -34.5 -85t-45.5 -121q29 -27 38.5 -33.5t19.5 -6.5q9 0 18 6q89 59 165 172q57 86 57 133z" />
    <glyph glyph-name="germandbls" unicode="&#xdf;" horiz-adv-x="434" 
d="M370 360h6q6 1 10 1q25 0 38.5 -22.5t13.5 -55.5q0 -41 -37 -124q-32 -72 -69 -115t-96 -60q-15 -4 -30 -4q-47 0 -95 42q-8 8 -11 8q-2 0 -13 -34q-71 -210 -78 -296q-1 -8 -9.5 -16.5t-18.5 -10.5q-5 -2 -12 -4.5t-11 -4.5t-6 -2q-9 0 -25 12q-5 2 -5 37q0 20 14 58.5
t15 42.5q1 5 5.5 17t7.5 24q7 34 55.5 169t82.5 225q6 16 86 214q3 6 12 13t15 19q29 55 82 107q61 59 111 59q13 0 23.5 -3.5t19.5 -9t14 -7.5q37 -12 37 -34q0 -12 -11 -36q-1 -2 -3.5 -12.5t-11 -28t-26.5 -48.5q-40 -70 -72 -104q-11 -14 -11 -15t3 -1zM309 286
q-14 -12 -23 -18.5t-19 -15.5q-47 -45 -74 -45q-7 0 -13.5 6.5t-8.5 6.5q-3 0 -6 -9q-9 -27 -31 -81q-12 -31 -12 -36q0 -3 3 -3l5 1q6 2 16 2q12 0 31 -22q3 -4 6.5 -11.5t7.5 -10.5q10 -8 22 -8q21 0 35 14q51 47 82 125q23 57 23 80q0 22 -8 32q-5 6 -12 6q-11 0 -24 -13
zM210 298l16 15q50 40 94.5 103t62.5 99.5t30 66.5q3 8 3 12q0 3 -4 3q-3 0 -11.5 -3.5t-28 -17.5t-37.5 -36q-46 -53 -70 -113q-10 -27 -21 -27q-5 0 -16 -27l-24 -64q-5 -15 -5 -16q0 -2 2 -2t9 7z" />
    <glyph glyph-name="agrave" unicode="&#xe0;" horiz-adv-x="468" 
d="M492 435q8 -19 24 -19q19 0 28 -13q2 -3 2 -6q0 -5 -4 -11q-96 -131 -116 -212q-14 -56 -14 -89q0 -43 21 -75q2 -4 2 -6t-1.5 -4.5t-6.5 -5.5t-13 -4q-2 0 -9 -2t-10 -2q-34 0 -43 20q-17 38 -17 86q0 13 1 25t2 19l1 6q0 5 -4 5q-6 0 -24 -18l-54 -50q-57 -54 -119 -75
q-12 -4 -16 -4q-14 0 -70 45q-22 18 -22 59q0 59 60 148q59 87 144 150q74 54 160 79q11 3 22 3q32 0 61 -29q13 -12 15 -20zM428 422q-12 0 -31 -10q-145 -77 -225 -174q-32 -39 -53.5 -78.5t-21.5 -60.5q0 -27 22 -27q19 0 49 28q26 24 88.5 76.5t100 91t60.5 81.5
q10 19 29 38q5 5 5 15q0 7 -6 13.5t-17 6.5zM447 563q-21 15 -66 33q-12 5 -12 33q0 15 11 26q12 12 24 12q3 0 7.5 -1.5t6.5 -1.5q1 0 3 -1t5.5 -3.5t8.5 -6t15.5 -11t22.5 -16.5l102 -70q26 -18 26 -25q0 -2 -5 -17q-1 -4 -2 -9.5t-1 -6.5q-3 -10 -13 -10q-18 0 -31 9z
" />
    <glyph glyph-name="aacute" unicode="&#xe1;" horiz-adv-x="468" 
d="M492 435q8 -19 24 -19q19 0 28 -13q2 -3 2 -6q0 -5 -4 -11q-96 -131 -116 -212q-14 -56 -14 -89q0 -43 21 -75q2 -4 2 -6t-1.5 -4.5t-6.5 -5.5t-13 -4q-2 0 -9 -2t-10 -2q-34 0 -43 20q-17 38 -17 86q0 13 1 25t2 19l1 6q0 5 -4 5q-6 0 -24 -18l-54 -50q-57 -54 -119 -75
q-12 -4 -16 -4q-14 0 -70 45q-22 18 -22 59q0 59 60 148q59 87 144 150q74 54 160 79q11 3 22 3q32 0 61 -29q13 -12 15 -20zM428 422q-12 0 -31 -10q-145 -77 -225 -174q-32 -39 -53.5 -78.5t-21.5 -60.5q0 -27 22 -27q19 0 49 28q26 24 88.5 76.5t100 91t60.5 81.5
q10 19 29 38q5 5 5 15q0 7 -6 13.5t-17 6.5zM506 630q61 24 77 35q5 3 14 3q11 0 19 -8q11 -11 11 -28q0 -20 -5 -26q-10 -13 -72 -32l-118 -37q-10 -3 -20 -3q-7 0 -11 2q-10 7 -15 14q-4 6 -9 11q-3 3 -3 8q0 8 5 14q4 5 13 5q4 0 25 8z" />
    <glyph glyph-name="acircumflex" unicode="&#xe2;" horiz-adv-x="468" 
d="M492 435q8 -19 24 -19q19 0 28 -13q2 -3 2 -6q0 -5 -4 -11q-96 -131 -116 -212q-14 -56 -14 -89q0 -43 21 -75q2 -4 2 -6t-1.5 -4.5t-6.5 -5.5t-13 -4q-2 0 -9 -2t-10 -2q-34 0 -43 20q-17 38 -17 86q0 13 1 25t2 19l1 6q0 5 -4 5q-6 0 -24 -18l-54 -50q-57 -54 -119 -75
q-12 -4 -16 -4q-14 0 -70 45q-22 18 -22 59q0 59 60 148q59 87 144 150q74 54 160 79q11 3 22 3q32 0 61 -29q13 -12 15 -20zM428 422q-12 0 -31 -10q-145 -77 -225 -174q-32 -39 -53.5 -78.5t-21.5 -60.5q0 -27 22 -27q19 0 49 28q26 24 88.5 76.5t100 91t60.5 81.5
q10 19 29 38q5 5 5 15q0 7 -6 13.5t-17 6.5zM551 649l60 -103q11 -18 11 -25q0 -4 -2.5 -7.5t-6 -6.5t-5.5 -5q-7 -11 -18 -11q-9 0 -18 14l-63 86q-4 6 -8 6q-3 0 -10 -3q-89 -37 -105 -51q-1 -1 -5 -1q-5 0 -9.5 2t-8.5 5.5t-6 4.5q-5 3 -5 24q0 17 2 21q2 5 6 8l3 3
q4 7 55 25l89 31q9 3 13 3q16 0 19 -7q1 -2 5 -4.5t7 -8.5z" />
    <glyph glyph-name="atilde" unicode="&#xe3;" horiz-adv-x="468" 
d="M492 435q8 -19 24 -19q19 0 28 -13q2 -3 2 -6q0 -5 -4 -11q-96 -131 -116 -212q-14 -56 -14 -89q0 -43 21 -75q2 -4 2 -6t-1.5 -4.5t-6.5 -5.5t-13 -4q-2 0 -9 -2t-10 -2q-34 0 -43 20q-17 38 -17 86q0 13 1 25t2 19l1 6q0 5 -4 5q-6 0 -24 -18l-54 -50q-57 -54 -119 -75
q-12 -4 -16 -4q-14 0 -70 45q-22 18 -22 59q0 59 60 148q59 87 144 150q74 54 160 79q11 3 22 3q32 0 61 -29q13 -12 15 -20zM428 422q-12 0 -31 -10q-145 -77 -225 -174q-32 -39 -53.5 -78.5t-21.5 -60.5q0 -27 22 -27q19 0 49 28q26 24 88.5 76.5t100 91t60.5 81.5
q10 19 29 38q5 5 5 15q0 7 -6 13.5t-17 6.5zM373 581q0 5 -4 18t-4 19q0 11 9 14l63 23q24 9 45 9q13 0 22.5 -9.5t25.5 -32.5q16 -24 22.5 -29.5t18.5 -5.5q3 0 39.5 12t40.5 12q18 0 20 -19q0 -3 2 -9t2 -12q0 -5 -8 -10q-70 -45 -98 -45q-30 0 -53 18q-11 8 -24 29.5
t-17 23.5q-5 3 -9 3q-14 0 -49 -21q-5 -3 -10 -3q-34 0 -34 15z" />
    <glyph glyph-name="adieresis" unicode="&#xe4;" horiz-adv-x="468" 
d="M492 435q8 -19 24 -19q19 0 28 -13q2 -3 2 -6q0 -5 -4 -11q-96 -131 -116 -212q-14 -56 -14 -89q0 -43 21 -75q2 -4 2 -6t-1.5 -4.5t-6.5 -5.5t-13 -4q-2 0 -9 -2t-10 -2q-34 0 -43 20q-17 38 -17 86q0 13 1 25t2 19l1 6q0 5 -4 5q-6 0 -24 -18l-54 -50q-57 -54 -119 -75
q-12 -4 -16 -4q-14 0 -70 45q-22 18 -22 59q0 59 60 148q59 87 144 150q74 54 160 79q11 3 22 3q32 0 61 -29q13 -12 15 -20zM428 422q-12 0 -31 -10q-145 -77 -225 -174q-32 -39 -53.5 -78.5t-21.5 -60.5q0 -27 22 -27q19 0 49 28q26 24 88.5 76.5t100 91t60.5 81.5
q10 19 29 38q5 5 5 15q0 7 -6 13.5t-17 6.5zM436 658q11 -20 11 -32q0 -15 -11 -32l-12 -17q-1 -7 -14.5 -12t-24.5 -5q-12 0 -15 2q-7 5 -12.5 13t-7.5 10t-2 29q0 15 13 41q9 16 35 16q32 0 40 -13zM621 600q1 -3 6 -14.5t5 -17.5q0 -12 -2 -16q-16 -31 -25 -36
q-8 -4 -29 -4q-17 0 -24 15q-1 2 -11 16.5t-10 26.5q0 10 9 29.5t22 19.5q1 0 8.5 -0.5t11.5 -0.5q34 0 39 -18z" />
    <glyph glyph-name="aring" unicode="&#xe5;" horiz-adv-x="468" 
d="M492 435q8 -19 24 -19q19 0 28 -13q2 -3 2 -6q0 -5 -4 -11q-96 -131 -116 -212q-14 -56 -14 -89q0 -43 21 -75q2 -4 2 -6t-1.5 -4.5t-6.5 -5.5t-13 -4q-2 0 -9 -2t-10 -2q-34 0 -43 20q-17 38 -17 86q0 13 1 25t2 19l1 6q0 5 -4 5q-6 0 -24 -18l-54 -50q-57 -54 -119 -75
q-12 -4 -16 -4q-14 0 -70 45q-22 18 -22 59q0 59 60 148q59 87 144 150q74 54 160 79q11 3 22 3q32 0 61 -29q13 -12 15 -20zM428 422q-12 0 -31 -10q-145 -77 -225 -174q-32 -39 -53.5 -78.5t-21.5 -60.5q0 -27 22 -27q19 0 49 28q26 24 88.5 76.5t100 91t60.5 81.5
q10 19 29 38q5 5 5 15q0 7 -6 13.5t-17 6.5zM616 636q2 -16 2 -24q0 -44 -26 -83q-20 -29 -58 -29q-44 0 -63 13q-36 25 -36 57q0 24 21 61t42 45q19 7 37 7q14 0 26 -3q21 -6 37 -20t18 -24zM552 635q-6 9 -12 9q-10 0 -16 -7q-27 -39 -27 -63q0 -15 7 -25t16 -10
q10 0 14 6q2 4 7 12t7.5 13l6 12t5 13t1.5 12q0 14 -9 28z" />
    <glyph glyph-name="ae" unicode="&#xe6;" horiz-adv-x="623" 
d="M641 103q-55 -47 -139 -91q-38 -20 -93 -20q-31 0 -58 8q-61 18 -61 76q0 7 1 14l1.5 10.5t0.5 4.5q0 3 -2 3t-13 -13q-41 -46 -63 -62q-23 -17 -50.5 -26t-37.5 -9q-17 0 -71 39q-8 6 -17 24t-9 44q0 57 48 141q52 91 136 164q39 34 91 63t88 29q33 0 53 -16q5 -4 8 -4
q6 0 14 12l7 11q6 10 16 10q3 0 19 -6t22 -6q3 0 11 2q44 11 55 11q35 0 49 -16q21 -23 21 -56q0 -24 -13.5 -56t-22.5 -45q-45 -65 -124 -140.5t-132 -96.5q-6 -2 -6 -14q0 -15 11 -26t24 -11q49 0 108 39q24 16 46.5 33t50.5 39t44 34q17 13 43 25q16 7 20 7
q5 0 12.5 -6.5t7.5 -13.5q0 -5 -0.5 -8.5t-0.5 -4.5q0 -9 -8 -15q-11 -9 -38 -36t-49 -45zM419 403q10 19 10 27q0 17 -16 17q-11 0 -18 -4q-215 -122 -274 -280q-20 -54 -20 -72q0 -25 23 -25q11 0 26 5.5t20 10.5q65 64 105 102q54 50 114 163zM560 367q28 42 28 67
q0 22 -11 22q-14 0 -31 -17q-40 -39 -81.5 -105t-68.5 -127q-5 -12 -5 -14t2 -2q3 0 14 9q90 73 153 167z" />
    <glyph glyph-name="ccedilla" unicode="&#xe7;" horiz-adv-x="346" 
d="M130 -4q-22 4 -45.5 20t-28.5 26q-12 24 -12 47q0 18 16 75q10 35 12 39q109 219 208 268q6 3 16 3q26 0 55.5 -11.5t48.5 -30.5q4 -4 4 -14q0 -6 1 -10t1 -5q0 -3 -1 -7q-1 -3 -10 -20.5t-16.5 -38t-7.5 -35.5t-19 -15q-12 0 -20 7l-26 19q-11 8 -11 22q0 11 11 32
t11 28q0 10 -8 10q-6 0 -16 -10q-71 -71 -122 -161q-25 -45 -41.5 -89t-16.5 -64q0 -21 17 -21q59 0 142 63q91 68 122 68q9 0 21 -11t12 -15q0 -2 -2 -5t-2 -5q0 -9 -8 -12q-34 -14 -110 -76q-63 -51 -108 -67q-4 -1 -4 -4q0 -2 3 -4q15 -8 15 -30q0 -24 -22 -53
q-38 -47 -89 -47q-31 0 -64 18q-34 19 -34 35q0 8 16 23q5 5 11 5t9 -5q1 -2 7.5 -6t9.5 -8q9 -12 25 -12q22 0 34.5 12t32.5 45q5 9 5 14q0 9 -22 13z" />
    <glyph glyph-name="egrave" unicode="&#xe8;" horiz-adv-x="366" 
d="M253 -3q-18 -10 -36 -10q-19 0 -38 7q-41 15 -64 28q-33 18 -50 69q-12 34 -12 77q0 16 5 33q34 124 172 271q16 17 45 31t62 14q30 0 61 -11q11 -4 21.5 -19.5t10.5 -42.5q0 -26 -23 -72q-12 -24 -32 -47q-45 -51 -73.5 -81.5t-73.5 -69.5t-85 -61q-6 -4 -6 -8
q0 -11 8 -24.5t16 -17.5q15 -8 31 -8q24 0 77 28q38 20 92 66.5t79 62.5q11 7 20 7q5 0 12.5 -6.5t7.5 -13.5q0 -5 -0.5 -8.5t-0.5 -4.5q0 -10 -5 -14q-10 -9 -40 -41t-71.5 -64t-109.5 -70zM328 398q18 27 18 46q0 12 -6 12q-8 0 -21 -9q-19 -12 -20 -13
q-129 -115 -157 -229q0 -5 2 -5t7 3q68 52 153 154q8 10 13.5 21.5t10.5 19.5zM335 637q-21 15 -66 33q-12 5 -12 33q0 15 11 26q12 12 24 12q3 0 7.5 -1.5t6.5 -1.5q1 0 3 -1t5.5 -3.5t8.5 -6t15.5 -11t22.5 -16.5l102 -70q26 -18 26 -25q0 -2 -5 -17q-1 -4 -2 -9.5
t-1 -6.5q-3 -10 -13 -10q-18 0 -31 9z" />
    <glyph glyph-name="eacute" unicode="&#xe9;" horiz-adv-x="366" 
d="M253 -3q-18 -10 -36 -10q-19 0 -38 7q-41 15 -64 28q-33 18 -50 69q-12 34 -12 77q0 16 5 33q34 124 172 271q16 17 45 31t62 14q30 0 61 -11q11 -4 21.5 -19.5t10.5 -42.5q0 -26 -23 -72q-12 -24 -32 -47q-45 -51 -73.5 -81.5t-73.5 -69.5t-85 -61q-6 -4 -6 -8
q0 -11 8 -24.5t16 -17.5q15 -8 31 -8q24 0 77 28q38 20 92 66.5t79 62.5q11 7 20 7q5 0 12.5 -6.5t7.5 -13.5q0 -5 -0.5 -8.5t-0.5 -4.5q0 -10 -5 -14q-10 -9 -40 -41t-71.5 -64t-109.5 -70zM328 398q18 27 18 46q0 12 -6 12q-8 0 -21 -9q-19 -12 -20 -13
q-129 -115 -157 -229q0 -5 2 -5t7 3q68 52 153 154q8 10 13.5 21.5t10.5 19.5zM450 674q61 24 77 35q5 3 14 3q11 0 19 -8q11 -11 11 -28q0 -20 -5 -26q-10 -13 -72 -32l-118 -37q-10 -3 -20 -3q-7 0 -11 2q-10 7 -15 14q-4 6 -9 11q-3 3 -3 8q0 8 5 14q4 5 13 5q4 0 25 8z
" />
    <glyph glyph-name="ecircumflex" unicode="&#xea;" horiz-adv-x="366" 
d="M253 -3q-18 -10 -36 -10q-19 0 -38 7q-41 15 -64 28q-33 18 -50 69q-12 34 -12 77q0 16 5 33q34 124 172 271q16 17 45 31t62 14q30 0 61 -11q11 -4 21.5 -19.5t10.5 -42.5q0 -26 -23 -72q-12 -24 -32 -47q-45 -51 -73.5 -81.5t-73.5 -69.5t-85 -61q-6 -4 -6 -8
q0 -11 8 -24.5t16 -17.5q15 -8 31 -8q24 0 77 28q38 20 92 66.5t79 62.5q11 7 20 7q5 0 12.5 -6.5t7.5 -13.5q0 -5 -0.5 -8.5t-0.5 -4.5q0 -10 -5 -14q-10 -9 -40 -41t-71.5 -64t-109.5 -70zM328 398q18 27 18 46q0 12 -6 12q-8 0 -21 -9q-19 -12 -20 -13
q-129 -115 -157 -229q0 -5 2 -5t7 3q68 52 153 154q8 10 13.5 21.5t10.5 19.5zM461 697l60 -103q11 -18 11 -25q0 -4 -2.5 -7.5t-6 -6.5t-5.5 -5q-7 -11 -18 -11q-9 0 -18 14l-63 86q-4 6 -8 6q-3 0 -10 -3q-89 -37 -105 -51q-1 -1 -5 -1q-5 0 -9.5 2t-8.5 5.5t-6 4.5
q-5 3 -5 24q0 17 2 21q2 5 6 8l3 3q4 7 55 25l89 31q9 3 13 3q16 0 19 -7q1 -2 5 -4.5t7 -8.5z" />
    <glyph glyph-name="edieresis" unicode="&#xeb;" horiz-adv-x="366" 
d="M253 -3q-18 -10 -36 -10q-19 0 -38 7q-41 15 -64 28q-33 18 -50 69q-12 34 -12 77q0 16 5 33q34 124 172 271q16 17 45 31t62 14q30 0 61 -11q11 -4 21.5 -19.5t10.5 -42.5q0 -26 -23 -72q-12 -24 -32 -47q-45 -51 -73.5 -81.5t-73.5 -69.5t-85 -61q-6 -4 -6 -8
q0 -11 8 -24.5t16 -17.5q15 -8 31 -8q24 0 77 28q38 20 92 66.5t79 62.5q11 7 20 7q5 0 12.5 -6.5t7.5 -13.5q0 -5 -0.5 -8.5t-0.5 -4.5q0 -10 -5 -14q-10 -9 -40 -41t-71.5 -64t-109.5 -70zM328 398q18 27 18 46q0 12 -6 12q-8 0 -21 -9q-19 -12 -20 -13
q-129 -115 -157 -229q0 -5 2 -5t7 3q68 52 153 154q8 10 13.5 21.5t10.5 19.5zM366 710q11 -20 11 -32q0 -15 -11 -32l-12 -17q-1 -7 -14.5 -12t-24.5 -5q-12 0 -15 2q-7 5 -12.5 13t-7.5 10t-2 29q0 15 13 41q9 16 35 16q32 0 40 -13zM551 652q1 -3 6 -14.5t5 -17.5
q0 -12 -2 -16q-16 -31 -25 -36q-8 -4 -29 -4q-17 0 -24 15q-1 2 -11 16.5t-10 26.5q0 10 9 29.5t22 19.5q1 0 8.5 -0.5t11.5 -0.5q34 0 39 -18z" />
    <glyph glyph-name="igrave" unicode="&#xec;" horiz-adv-x="220" 
d="M278 72l-41 -38q-53 -48 -103 -48q-22 0 -44 25t-31 54q-5 17 -5 42q0 36 16 81q3 8 8.5 25t8.5 25q74 173 97 222q13 27 50 27q21 0 30 -8q8 -6 8 -16q0 -23 -10.5 -43t-28 -43t-25.5 -41q-30 -65 -59 -142q-24 -64 -24 -98q0 -32 18 -32q16 0 29 6t44 28t47 22
q17 0 25 -7q6 -5 6 -14q0 -11 -16 -27zM225 593q-21 15 -66 33q-12 5 -12 33q0 15 11 26q12 12 24 12q3 0 7.5 -1.5t6.5 -1.5q1 0 3 -1t5.5 -3.5t8.5 -6t15.5 -11t22.5 -16.5l102 -70q26 -18 26 -25q0 -2 -5 -17q-1 -4 -2 -9.5t-1 -6.5q-3 -10 -13 -10q-18 0 -31 9z" />
    <glyph glyph-name="iacute" unicode="&#xed;" horiz-adv-x="220" 
d="M278 72l-41 -38q-53 -48 -103 -48q-22 0 -44 25t-31 54q-5 17 -5 42q0 36 16 81q3 8 8.5 25t8.5 25q74 173 97 222q13 27 50 27q21 0 30 -8q8 -6 8 -16q0 -23 -10.5 -43t-28 -43t-25.5 -41q-30 -65 -59 -142q-24 -64 -24 -98q0 -32 18 -32q16 0 29 6t44 28t47 22
q17 0 25 -7q6 -5 6 -14q0 -11 -16 -27zM344 644q61 24 77 35q5 3 14 3q11 0 19 -8q11 -11 11 -28q0 -20 -5 -26q-10 -13 -72 -32l-118 -37q-11 -3 -20 -3q-7 0 -11 2q-10 7 -15 14q-4 6 -9 11q-3 3 -3 8q0 8 5 14q4 5 13 5q4 0 25 8z" />
    <glyph glyph-name="icircumflex" unicode="&#xee;" horiz-adv-x="220" 
d="M278 72l-41 -38q-53 -48 -103 -48q-22 0 -44 25t-31 54q-5 17 -5 42q0 36 16 81q3 8 8.5 25t8.5 25q74 173 97 222q13 27 50 27q21 0 30 -8q8 -6 8 -16q0 -23 -10.5 -43t-28 -43t-25.5 -41q-30 -65 -59 -142q-24 -64 -24 -98q0 -32 18 -32q16 0 29 6t44 28t47 22
q17 0 25 -7q6 -5 6 -14q0 -11 -16 -27zM345 663l60 -103q11 -18 11 -25q0 -4 -2.5 -7.5t-6 -6.5t-5.5 -5q-7 -11 -18 -11q-9 0 -18 14l-63 86q-4 6 -8 6q-3 0 -10 -3q-89 -37 -105 -51q-1 -1 -5 -1q-5 0 -9.5 2t-8.5 5.5t-6 4.5q-5 3 -5 24q0 17 2 21q2 5 6 8l3 3q4 7 55 25
l89 31q9 3 13 3q16 0 19 -7q1 -2 5 -4.5t7 -8.5z" />
    <glyph glyph-name="idieresis" unicode="&#xef;" horiz-adv-x="220" 
d="M278 72l-41 -38q-53 -48 -103 -48q-22 0 -44 25t-31 54q-5 17 -5 42q0 36 16 81q3 8 8.5 25t8.5 25q74 173 97 222q13 27 50 27q21 0 30 -8q8 -6 8 -16q0 -23 -10.5 -43t-28 -43t-25.5 -41q-30 -65 -59 -142q-24 -64 -24 -98q0 -32 18 -32q16 0 29 6t44 28t47 22
q17 0 25 -7q6 -5 6 -14q0 -11 -16 -27zM238 692q11 -20 11 -32q0 -15 -11 -32l-12 -17q-1 -7 -14.5 -12t-24.5 -5q-12 0 -15 2q-7 5 -12.5 13t-7.5 10t-2 29q0 15 13 41q9 16 35 16q32 0 40 -13zM423 634q1 -3 6 -14.5t5 -17.5q0 -12 -2 -16q-16 -31 -25 -36q-8 -4 -29 -4
q-17 0 -24 15q-1 2 -11 16.5t-10 26.5q0 10 9 29.5t22 19.5q1 0 8.5 -0.5t11.5 -0.5q34 0 39 -18z" />
    <glyph glyph-name="eth" unicode="&#xf0;" horiz-adv-x="400" 
d="M292 528q-3 0 -31 -15t-38 -23q-20 -15 -35 -15q-4 0 -11 10q-8 11 -8 23q0 8 3 13t7.5 9t5.5 7q7 12 68 43q6 3 6 5q0 7 -38 48q-17 18 -35 34t-22 21.5t-4 15.5q0 26 15 26q2 0 12.5 7t14.5 7q8 0 36 -18q27 -18 27 -28q0 -4 14 -22q27 -33 42 -52q3 -5 6 -5q2 0 8 3
q22 10 41.5 22.5t29.5 18t15 5.5q13 0 27 -16q5 -5 5 -13t-9 -18.5t-9 -13.5q0 -10 -60 -39q-11 -6 -11 -10q0 -3 11 -31q33 -84 33 -192q0 -68 -29.5 -152t-87.5 -142q-2 -2 -15 -15.5t-17.5 -17.5t-15.5 -12t-21 -11t-21 -3q-16 0 -27.5 2t-16.5 4t-10.5 5.5t-8.5 4.5
q-28 11 -42 21.5t-22 28.5q-16 37 -16 96q0 53 24 113t44 85q14 17 40 53q37 50 84 50q26 0 50 -17q23 -17 26 -17t3 4q0 43 -32 108q-3 5 -5 5zM327 290q-14 3 -16 14q-17 82 -41 82q-25 0 -47 -33q-37 -57 -51.5 -82.5t-26.5 -66.5t-12 -90q0 -47 26 -61q9 -5 18 -5
q19 0 44 24q49 47 76.5 111.5t29.5 106.5z" />
    <glyph glyph-name="ntilde" unicode="&#xf1;" horiz-adv-x="420" 
d="M58 0q-22 0 -29 6q-11 10 -11 15q0 4 8 31q30 98 73.5 212.5t70.5 164.5q2 4 4.5 11.5t2.5 8.5q4 14 12.5 19.5t33.5 5.5q40 0 40 -23q0 -30 -17 -53q-18 -26 -29 -60q-3 -10 0 -10q2 0 4 2t7.5 9.5t10.5 13.5q45 58 96 83q11 7 25 7q30 0 55 -17q23 -12 29 -28
q3 -8 3 -31q0 -42 -48 -125q-17 -31 -39 -92l-12 -34q-7 -18 -7 -48q0 -13 25 -29q14 -9 16 -13t2 -7q0 -4 -3 -13q-8 -19 -28 -19q-38 0 -55 15q-7 6 -13 12q-22 20 -22 52q0 26 13 72q8 30 19.5 57.5t27 56.5t17.5 34q27 56 27 78q0 15 -4 15q-2 0 -10 -5q-28 -18 -47 -41
l-43 -46q-8 -9 -33 -34.5t-38 -40.5q-37 -42 -91 -186q-10 -26 -43 -26zM253 587q0 5 -4 18t-4 19q0 11 9 14l63 23q24 9 45 9q13 0 22.5 -9.5t25.5 -32.5q16 -24 22.5 -29.5t18.5 -5.5q3 0 39.5 12t40.5 12q18 0 20 -19q0 -3 2 -9t2 -12q0 -5 -8 -10q-70 -45 -98 -45
q-30 0 -53 18q-11 8 -24 29.5t-17 23.5q-5 3 -9 3q-14 0 -49 -21q-5 -3 -10 -3q-34 0 -34 15z" />
    <glyph glyph-name="ograve" unicode="&#xf2;" horiz-adv-x="368" 
d="M344 460q20 -55 51 -55q22 0 49.5 1.5t36.5 1.5q25 0 43.5 -7t18.5 -19q0 -8 -13.5 -14t-14.5 -7q-2 -5 -11 -6t-35 -8t-40 -9q-20 -3 -39 -3q-10 0 -12 -8q-44 -181 -126 -268q-19 -20 -29 -30t-27.5 -19.5t-33.5 -9.5q-14 0 -24 5q-62 29 -75 63q-15 38 -15 83
q0 93 87 223q8 12 14 18t10 12q65 92 118 92q31 0 53 -19q11 -10 14 -17zM293 394q-6 6 -8 15q-5 17 -10 17q-7 0 -15 -10q-2 -2 -9 -7.5t-10 -9.5q-125 -157 -125 -280q0 -7 3 -14q9 -23 24 -33q3 -2 9 -2q3 0 19 8q7 3 17 18q40 60 57.5 88.5t36 79.5t18.5 98q0 16 -1 21
q-1 6 -6 11zM289 587q-21 15 -66 33q-12 5 -12 33q0 15 11 26q12 12 24 12q3 0 7.5 -1.5t6.5 -1.5q1 0 3 -1t5.5 -3.5t8.5 -6t15.5 -11t22.5 -16.5l102 -70q26 -18 26 -25q0 -2 -5 -17q-1 -4 -2 -9.5t-1 -6.5q-3 -10 -13 -10q-17 0 -31 9z" />
    <glyph glyph-name="oacute" unicode="&#xf3;" horiz-adv-x="368" 
d="M344 460q20 -55 51 -55q22 0 49.5 1.5t36.5 1.5q25 0 43.5 -7t18.5 -19q0 -8 -13.5 -14t-14.5 -7q-2 -5 -11 -6t-35 -8t-40 -9q-20 -3 -39 -3q-10 0 -12 -8q-44 -181 -126 -268q-19 -20 -29 -30t-27.5 -19.5t-33.5 -9.5q-14 0 -24 5q-62 29 -75 63q-15 38 -15 83
q0 93 87 223q8 12 14 18t10 12q65 92 118 92q31 0 53 -19q11 -10 14 -17zM293 394q-6 6 -8 15q-5 17 -10 17q-7 0 -15 -10q-2 -2 -9 -7.5t-10 -9.5q-125 -157 -125 -280q0 -7 3 -14q9 -23 24 -33q3 -2 9 -2q3 0 19 8q7 3 17 18q40 60 57.5 88.5t36 79.5t18.5 98q0 16 -1 21
q-1 6 -6 11zM376 646q61 24 77 35q5 3 14 3q11 0 19 -8q11 -11 11 -28q0 -20 -5 -26q-10 -13 -72 -32l-118 -37q-11 -3 -20 -3q-7 0 -11 2q-10 7 -15 14q-4 6 -9 11q-3 3 -3 8q0 8 5 14q4 5 13 5q4 0 25 8z" />
    <glyph glyph-name="ocircumflex" unicode="&#xf4;" horiz-adv-x="368" 
d="M344 460q20 -55 51 -55q22 0 49.5 1.5t36.5 1.5q25 0 43.5 -7t18.5 -19q0 -8 -13.5 -14t-14.5 -7q-2 -5 -11 -6t-35 -8t-40 -9q-20 -3 -39 -3q-10 0 -12 -8q-44 -181 -126 -268q-19 -20 -29 -30t-27.5 -19.5t-33.5 -9.5q-14 0 -24 5q-62 29 -75 63q-15 38 -15 83
q0 93 87 223q8 12 14 18t10 12q65 92 118 92q31 0 53 -19q11 -10 14 -17zM293 394q-6 6 -8 15q-5 17 -10 17q-7 0 -15 -10q-2 -2 -9 -7.5t-10 -9.5q-125 -157 -125 -280q0 -7 3 -14q9 -23 24 -33q3 -2 9 -2q3 0 19 8q7 3 17 18q40 60 57.5 88.5t36 79.5t18.5 98q0 16 -1 21
q-1 6 -6 11zM385 665l60 -103q11 -18 11 -25q0 -4 -2.5 -7.5t-6 -6.5t-5.5 -5q-7 -11 -18 -11q-9 0 -18 14l-63 86q-4 6 -8 6q-3 0 -10 -3q-89 -37 -105 -51q-1 -1 -5 -1q-5 0 -9.5 2t-8.5 5.5t-6 4.5q-5 3 -5 24q0 17 2 21q2 5 6 8l3 3q4 7 55 25l89 31q9 3 13 3
q16 0 19 -7q1 -2 5 -4.5t7 -8.5z" />
    <glyph glyph-name="otilde" unicode="&#xf5;" horiz-adv-x="368" 
d="M344 460q20 -55 51 -55q22 0 49.5 1.5t36.5 1.5q25 0 43.5 -7t18.5 -19q0 -8 -13.5 -14t-14.5 -7q-2 -5 -11 -6t-35 -8t-40 -9q-20 -3 -39 -3q-10 0 -12 -8q-44 -181 -126 -268q-19 -20 -29 -30t-27.5 -19.5t-33.5 -9.5q-14 0 -24 5q-62 29 -75 63q-15 38 -15 83
q0 93 87 223q8 12 14 18t10 12q65 92 118 92q31 0 53 -19q11 -10 14 -17zM293 394q-6 6 -8 15q-5 17 -10 17q-7 0 -15 -10q-2 -2 -9 -7.5t-10 -9.5q-125 -157 -125 -280q0 -7 3 -14q9 -23 24 -33q3 -2 9 -2q3 0 19 8q7 3 17 18q40 60 57.5 88.5t36 79.5t18.5 98q0 16 -1 21
q-1 6 -6 11zM211 599q0 5 -4 18t-4 19q0 11 9 14l63 23q24 9 45 9q13 0 22.5 -9.5t25.5 -32.5q16 -24 22.5 -29.5t18.5 -5.5q3 0 39.5 12t40.5 12q18 0 20 -19q0 -3 2 -9t2 -12q0 -5 -8 -10q-70 -45 -98 -45q-30 0 -53 18q-11 8 -24 29.5t-17 23.5q-5 3 -9 3q-14 0 -49 -21
q-5 -3 -10 -3q-34 0 -34 15z" />
    <glyph glyph-name="odieresis" unicode="&#xf6;" horiz-adv-x="368" 
d="M344 460q20 -55 51 -55q22 0 49.5 1.5t36.5 1.5q25 0 43.5 -7t18.5 -19q0 -8 -13.5 -14t-14.5 -7q-2 -5 -11 -6t-35 -8t-40 -9q-20 -3 -39 -3q-10 0 -12 -8q-44 -181 -126 -268q-19 -20 -29 -30t-27.5 -19.5t-33.5 -9.5q-14 0 -24 5q-62 29 -75 63q-15 38 -15 83
q0 93 87 223q8 12 14 18t10 12q65 92 118 92q31 0 53 -19q11 -10 14 -17zM293 394q-6 6 -8 15q-5 17 -10 17q-7 0 -15 -10q-2 -2 -9 -7.5t-10 -9.5q-125 -157 -125 -280q0 -7 3 -14q9 -23 24 -33q3 -2 9 -2q3 0 19 8q7 3 17 18q40 60 57.5 88.5t36 79.5t18.5 98q0 16 -1 21
q-1 6 -6 11zM304 690q11 -20 11 -32q0 -15 -11 -32l-12 -17q-1 -7 -14.5 -12t-24.5 -5q-12 0 -15 2q-7 5 -12.5 13t-7.5 10t-2 29q0 15 13 41q9 16 35 16q32 0 40 -13zM489 632q1 -3 6 -14.5t5 -17.5q0 -12 -2 -16q-16 -31 -25 -36q-8 -4 -29 -4q-17 0 -24 15q-1 2 -11 16.5
t-10 26.5q0 10 9 29.5t22 19.5q1 0 8.5 -0.5t11.5 -0.5q34 0 39 -18z" />
    <glyph glyph-name="divide" unicode="&#xf7;" horiz-adv-x="590" 
d="M553 287q0 -21 -8 -42q-3 -8 -8 -8q-4 0 -13.5 1t-13.5 1q-14 0 -104 -4t-136 -4q-31 0 -78.5 3.5t-50.5 3.5q-9 0 -15 23t-6 39t34 16q5 0 26 -2t56.5 -4t75.5 -2q16 0 97 4t113 4q14 0 28 -14q3 -3 3 -15zM423 460q0 -12 -3.5 -31.5t-16.5 -41t-32 -21.5q-13 0 -41 13
t-28 32q0 20 4.5 35t13.5 31t12 22q4 9 28 9q13 0 38 -19t25 -29zM323 150q23 -15 23 -50q0 -33 -11 -46.5t-43 -13.5q-13 0 -19 2t-13 10l-6 9q-3 3 -11.5 10.5t-11.5 13t-3 13.5q0 21 12.5 50t33.5 29q14 0 30 -11q3 -2 8.5 -7.5t10.5 -8.5z" />
    <glyph glyph-name="oslash" unicode="&#xf8;" horiz-adv-x="406" 
d="M402 446q26 26 40 26q9 0 17.5 -13.5t8.5 -28.5q0 -3 -4 -5.5t-11 -6.5t-11 -7q-20 -17 -20 -22q0 -1 1 -10t1 -16q0 -13 -3 -34q-16 -88 -50 -161.5t-67 -115.5q-52 -64 -109 -64q-11 0 -28 6q-45 16 -65 36q-5 5 -7 5q-3 0 -11 -9q-6 -7 -21 -16.5t-21 -9.5
q-10 0 -11 6q-1 5 -7 17t-6 19q0 5 1.5 7t4.5 3.5t11 6.5t17 12q14 12 14 16q0 1 -3 10t-6 25.5t-3 35.5q0 83 83 201q12 17 29 37q2 2 24 28.5t33 37.5t32 24t40 13q33 0 69 -36q3 -3 12.5 -8.5t11.5 -8.5q4 -5 7 -5q2 0 7 5zM162 184q27 28 100.5 109.5t88.5 97.5q2 2 2 3
q0 2 -3 2q-15 0 -26 17q-10 16 -16 16q-21 0 -38 -22q-60 -74 -90 -122.5t-46 -105.5q-4 -14 -4 -19q0 -4 2 -4q3 0 30 28zM148 70q17 -15 30 -15q33 0 51 22q66 81 106 203q4 12 4 15q0 2 -2 2t-9 -7l-71 -78q-6 -7 -23 -24.5t-34 -36t-31 -35.5q-10 -12 -24 -26
q-6 -6 -6 -9t9 -11z" />
    <glyph glyph-name="ugrave" unicode="&#xf9;" horiz-adv-x="420" 
d="M237 451q1 -2 4 -6.5t5 -9t2 -9.5q0 -16 -20 -29t-29 -47q-8 -30 -38.5 -124t-36.5 -136q-2 -13 -2 -23q0 -4 4.5 -9t9.5 -5q10 0 22 10q21 19 36 37.5t17 20.5q107 116 149 224q6 15 18 22q11 6 23 6q5 0 13.5 -4.5t10.5 -5.5q20 -6 20 -18q0 -15 -6 -29
q-57 -123 -73 -226q-6 -42 -6 -74q0 -13 9 -34.5t9 -32.5q0 -13 -6 -18q-4 -3 -14 -3q-14 0 -38 15q-6 4 -11 6t-6.5 2.5t-3.5 3t-4 7.5q-10 25 -10 60q0 14 1.5 39.5t1.5 28.5q0 6 -4 6t-14 -12q-61 -71 -112 -97q-8 -4 -13 -4q-28 0 -60 19q-27 17 -30 31q-5 25 -5 43
q0 36 23 114q3 11 7.5 30t9.5 33q6 17 17.5 57t23.5 71t29 60q15 26 43 26q27 0 34 -16zM289 547q-21 15 -66 33q-12 5 -12 33q0 15 11 26q12 12 24 12q3 0 7.5 -1.5t6.5 -1.5q1 0 3 -1t5.5 -3.5t8.5 -6t15.5 -11t22.5 -16.5l102 -70q26 -18 26 -25q0 -2 -5 -17
q-1 -4 -2 -9.5t-1 -6.5q-3 -10 -13 -10q-17 0 -31 9z" />
    <glyph glyph-name="uacute" unicode="&#xfa;" horiz-adv-x="420" 
d="M237 451q1 -2 4 -6.5t5 -9t2 -9.5q0 -16 -20 -29t-29 -47q-8 -30 -38.5 -124t-36.5 -136q-2 -13 -2 -23q0 -4 4.5 -9t9.5 -5q10 0 22 10q21 19 36 37.5t17 20.5q107 116 149 224q6 15 18 22q11 6 23 6q5 0 13.5 -4.5t10.5 -5.5q20 -6 20 -18q0 -15 -6 -29
q-57 -123 -73 -226q-6 -42 -6 -74q0 -13 9 -34.5t9 -32.5q0 -13 -6 -18q-4 -3 -14 -3q-14 0 -38 15q-6 4 -11 6t-6.5 2.5t-3.5 3t-4 7.5q-10 25 -10 60q0 14 1.5 39.5t1.5 28.5q0 6 -4 6t-14 -12q-61 -71 -112 -97q-8 -4 -13 -4q-28 0 -60 19q-27 17 -30 31q-5 25 -5 43
q0 36 23 114q3 11 7.5 30t9.5 33q6 17 17.5 57t23.5 71t29 60q15 26 43 26q27 0 34 -16zM390 610q61 24 77 35q5 3 14 3q11 0 19 -8q11 -11 11 -28q0 -20 -5 -26q-10 -13 -72 -32l-118 -37q-11 -3 -20 -3q-7 0 -11 2q-10 7 -15 14q-4 6 -9 11q-3 3 -3 8q0 8 5 14q4 5 13 5
q4 0 25 8z" />
    <glyph glyph-name="ucircumflex" unicode="&#xfb;" horiz-adv-x="420" 
d="M237 451q1 -2 4 -6.5t5 -9t2 -9.5q0 -16 -20 -29t-29 -47q-8 -30 -38.5 -124t-36.5 -136q-2 -13 -2 -23q0 -4 4.5 -9t9.5 -5q10 0 22 10q21 19 36 37.5t17 20.5q107 116 149 224q6 15 18 22q11 6 23 6q5 0 13.5 -4.5t10.5 -5.5q20 -6 20 -18q0 -15 -6 -29
q-57 -123 -73 -226q-6 -42 -6 -74q0 -13 9 -34.5t9 -32.5q0 -13 -6 -18q-4 -3 -14 -3q-14 0 -38 15q-6 4 -11 6t-6.5 2.5t-3.5 3t-4 7.5q-10 25 -10 60q0 14 1.5 39.5t1.5 28.5q0 6 -4 6t-14 -12q-61 -71 -112 -97q-8 -4 -13 -4q-28 0 -60 19q-27 17 -30 31q-5 25 -5 43
q0 36 23 114q3 11 7.5 30t9.5 33q6 17 17.5 57t23.5 71t29 60q15 26 43 26q27 0 34 -16zM421 637l60 -103q11 -18 11 -25q0 -4 -2.5 -7.5t-6 -6.5t-5.5 -5q-7 -11 -18 -11q-9 0 -18 14l-63 86q-4 6 -8 6q-3 0 -10 -3q-89 -37 -105 -51q-1 -1 -5 -1q-5 0 -9.5 2t-8.5 5.5
t-6 4.5q-5 3 -5 24q0 17 2 21q2 5 6 8l3 3q4 7 55 25l89 31q9 3 13 3q16 0 19 -7q1 -2 5 -4.5t7 -8.5z" />
    <glyph glyph-name="udieresis" unicode="&#xfc;" horiz-adv-x="420" 
d="M237 451q1 -2 4 -6.5t5 -9t2 -9.5q0 -16 -20 -29t-29 -47q-8 -30 -38.5 -124t-36.5 -136q-2 -13 -2 -23q0 -4 4.5 -9t9.5 -5q10 0 22 10q21 19 36 37.5t17 20.5q107 116 149 224q6 15 18 22q11 6 23 6q5 0 13.5 -4.5t10.5 -5.5q20 -6 20 -18q0 -15 -6 -29
q-57 -123 -73 -226q-6 -42 -6 -74q0 -13 9 -34.5t9 -32.5q0 -13 -6 -18q-4 -3 -14 -3q-14 0 -38 15q-6 4 -11 6t-6.5 2.5t-3.5 3t-4 7.5q-10 25 -10 60q0 14 1.5 39.5t1.5 28.5q0 6 -4 6t-14 -12q-61 -71 -112 -97q-8 -4 -13 -4q-28 0 -60 19q-27 17 -30 31q-5 25 -5 43
q0 36 23 114q3 11 7.5 30t9.5 33q6 17 17.5 57t23.5 71t29 60q15 26 43 26q27 0 34 -16zM337 660q11 -20 11 -32q0 -15 -12 -32l-11 -17q-1 -7 -14.5 -12t-24.5 -5q-12 0 -15 2q-7 5 -12.5 13t-7.5 10t-2 29q0 15 13 41q9 16 35 16q32 0 40 -13zM495 553q1 -3 6 -14.5
t5 -17.5q0 -10 -2 -16q-10 -28 -25 -36q-8 -4 -29 -4q-17 0 -24 15q-1 2 -11 16.5t-10 26.5q0 10 9 29.5t22 19.5q1 0 8.5 -0.5t11.5 -0.5q34 0 39 -18z" />
    <glyph glyph-name="yacute" unicode="&#xfd;" horiz-adv-x="436" 
d="M252 460q0 -24 -10 -42q-9 -16 -16 -24t-10 -14q-16 -34 -26.5 -64.5t-23 -73t-20.5 -66.5q-5 -14 -8 -32q-5 -27 -5 -32q0 -16 5 -16q10 0 22 6q37 19 79 66q1 1 14 14.5t23 25.5q6 7 25.5 28t32.5 37.5t33 51.5t37 80q3 8 11.5 19t14.5 11q5 0 13.5 -3.5t17.5 -3.5
q35 0 35 -36q0 -18 -23 -51l-19 -30q-35 -54 -61 -129q-3 -10 -27 -73.5t-28 -76.5q-12 -37 -12 -40q0 -2 4 -2q1 0 4 0.5t5 0.5q18 0 18 -11q0 -17 -6 -25q-85 -113 -121 -282q-1 -4 -4.5 -24.5t-6 -29t-9 -23t-17 -21.5t-25.5 -9q-1 0 -10.5 -2t-16.5 -2q-10 0 -17 1.5
t-14 10.5t-7 26q0 30 21 79q39 92 86 171q3 28 60 201q18 56 18 63q0 4 -3 4t-14 -11q-25 -25 -63.5 -51t-46.5 -26q-62 0 -95 40q-6 7 -6 24q0 62 16 119.5t45 130t42 114.5q4 13 16 21t19 8q2 0 12 -2.5t16 -2.5q8 0 17 -6.5t9 -15.5zM402 598q61 24 77 35q5 3 14 3
q11 0 19 -8q11 -11 11 -28q0 -20 -5 -26q-10 -13 -72 -32l-118 -37q-10 -3 -20 -3q-7 0 -11 2q-10 7 -15 14q-4 6 -9 11q-3 3 -3 8q0 8 5 14q4 5 13 5q4 0 25 8z" />
    <glyph glyph-name="thorn" unicode="&#xfe;" horiz-adv-x="457" 
d="M327 665q0 -11 -8.5 -42.5t-23.5 -74.5t-28 -81t-28.5 -80t-19.5 -54q0 -2 3 -2q13 11 39.5 37.5t53 49t54.5 37.5q11 6 16 6q33 0 84 -34q16 -11 16 -40q0 -30 -10 -70q0 -1 -1.5 -10.5t-4.5 -17.5q-80 -209 -166 -280q-8 -7 -28 -7q-16 0 -37 10t-30 19q-40 40 -50 88
q-65 -97 -139 -333q-3 -11 -5 -23.5t-2.5 -19t-4 -11t-10.5 -4.5q-8 0 -17.5 2t-12.5 2q-22 0 -28 7q-1 1 -5.5 5t-6.5 7.5t-2 10.5q0 6 9 33q22 67 123.5 325t169.5 481q11 36 11 60q0 7 5.5 12t12.5 5q8 0 19 3.5t18 3.5q34 0 34 -20zM389 386q-47 -30 -95.5 -82.5
t-76.5 -99.5q-5 -8 -5 -35q0 -28 14.5 -63.5t32.5 -35.5q5 0 9 4q15 14 33.5 45.5t28.5 52t15 32.5q29 65 42 118q13 51 13 62q0 6 -3 6q-2 0 -8 -4z" />
    <glyph glyph-name="ydieresis" unicode="&#xff;" horiz-adv-x="436" 
d="M252 460q0 -24 -10 -42q-9 -16 -16 -24t-10 -14q-16 -34 -26.5 -64.5t-23 -73t-20.5 -66.5q-5 -14 -8 -32q-5 -27 -5 -32q0 -16 5 -16q10 0 22 6q37 19 79 66q1 1 14 14.5t23 25.5q6 7 25.5 28t32.5 37.5t33 51.5t37 80q3 8 11.5 19t14.5 11q5 0 13.5 -3.5t17.5 -3.5
q35 0 35 -36q0 -18 -23 -51l-19 -30q-35 -54 -61 -129q-3 -10 -27 -73.5t-28 -76.5q-12 -37 -12 -40q0 -2 4 -2q1 0 4 0.5t5 0.5q18 0 18 -11q0 -17 -6 -25q-85 -113 -121 -282q-1 -4 -4.5 -24.5t-6 -29t-9 -23t-17 -21.5t-25.5 -9q-1 0 -10.5 -2t-16.5 -2q-10 0 -17 1.5
t-14 10.5t-7 26q0 30 21 79q39 92 86 171q3 28 60 201q18 56 18 63q0 4 -3 4t-14 -11q-25 -25 -63.5 -51t-46.5 -26q-62 0 -95 40q-6 7 -6 24q0 62 16 119.5t45 130t42 114.5q4 13 16 21t19 8q2 0 12 -2.5t16 -2.5q8 0 17 -6.5t9 -15.5zM334 650q11 -20 11 -32
q0 -15 -11 -32l-12 -17q-1 -7 -14.5 -12t-24.5 -5q-12 0 -15 2q-7 5 -12.5 13t-7.5 10t-2 29q0 15 13 41q9 16 35 16q32 0 40 -13zM519 592q1 -3 6 -14.5t5 -17.5q0 -12 -2 -16q-16 -31 -25 -36q-8 -4 -29 -4q-17 0 -24 15q-1 2 -11 16.5t-10 26.5q0 10 9 29.5t22 19.5
q1 0 8.5 -0.5t11.5 -0.5q34 0 39 -18z" />
    <glyph glyph-name="dotlessi" unicode="&#x131;" horiz-adv-x="220" 
d="M278 72l-41 -38q-53 -48 -103 -48q-22 0 -44 25t-31 54q-5 17 -5 42q0 36 16 81q3 8 8.5 25t8.5 25q74 173 97 222q13 27 50 27q21 0 30 -8q8 -6 8 -16q0 -23 -10.5 -43t-28 -43t-25.5 -41q-30 -65 -59 -142q-24 -64 -24 -98q0 -32 18 -32q16 0 29 6t44 28t47 22
q17 0 25 -7q6 -5 6 -14q0 -11 -16 -27z" />
    <glyph glyph-name="IJ" unicode="&#x132;" horiz-adv-x="654" 
d="M352 609q0 -25 -6 -38t-24 -31q-6 -6 -13 -24q-20 -51 -42 -114t-36.5 -105.5t-40.5 -121t-37 -112.5q-2 -6 -2 -10q0 -2 1 -7t1 -8q0 -23 -19 -61q-2 -4 -13 -4q-6 0 -12 -10q-5 -8 -9 -8t-8 5t-9 5q-7 0 -18 7.5t-13 7.5q-6 0 -6 6t6.5 35.5t12.5 39.5q5 9 9 24
q17 70 40 142.5t54 161.5t47 139q2 8 15 33.5t25 64.5q4 12 40 12q17 0 37 -9t20 -20zM578 140q-22 -72 -57 -128q-26 -42 -60.5 -70.5t-64.5 -28.5q-16 0 -38.5 12.5t-29.5 14.5q-35 11 -53.5 54t-18.5 103q0 51 9 88q5 21 15.5 38t19.5 17q8 0 18 -2t13 -2q13 0 24 -11
t11 -25q0 -9 -8 -23t-11 -26q-3 -11 -6.5 -18t-5 -16.5t-1.5 -36.5q0 -31 7.5 -53t16 -30t14.5 -8q39 0 74 57q30 48 61 137q53 153 80 220.5t84 191.5q0 4 -6 4q-21 -4 -58.5 -14t-45.5 -12t-17 -8q-21 -13 -56 -13q-21 0 -36 3q-12 3 -15 14q-1 5 -6 8.5t-5 11.5
q0 7 1 13.5t3 13.5t3 11q1 8 11 8q32 0 135.5 22.5t148.5 22.5q10 0 37 -18q22 -15 22 -26q0 -18 -6.5 -30t-18.5 -25.5t-19 -27.5q-104 -218 -165 -413z" />
    <glyph glyph-name="ij" unicode="&#x133;" horiz-adv-x="458" 
d="M469 448q8 -14 8 -20q0 -3 -8 -19q-27 -55 -86 -205q-4 -9 -4 -15q0 -3 2 -3q5 0 16 10q61 53 100 76q20 12 30 12q18 0 18 -13q0 -11 -3.5 -19.5t-7.5 -12t-16 -13.5t-19 -16q-88 -79 -183 -215q-24 -35 -34 -59q-18 -45 -36 -93.5t-38.5 -106.5t-33.5 -94
q-3 -7 -7.5 -14.5t-15 -15t-22.5 -7.5q-2 0 -4.5 1t-7.5 3.5t-12 4.5q-27 9 -27 44q0 10 5 25q21 56 81.5 174.5t81.5 184.5l-9 -8q-53 -48 -103 -48q-22 0 -44 25t-31 54q-5 17 -5 42q0 36 16 81q3 8 8.5 25t8.5 25q74 173 97 222q13 27 50 27q21 0 30 -8q8 -6 8 -16
q0 -23 -10.5 -43t-28 -43t-25.5 -41q-30 -65 -59 -142q-24 -64 -24 -98q0 -32 18 -32q4 0 8 0.5t7 1t7 2t7 3l9 4.5t9.5 5t12 7t14.5 8q52 29 57 31q5 13 48.5 125.5t62.5 174.5q4 14 17 23q9 7 16 7q5 0 12 0.5t11 0.5q22 0 28 -9zM589 646q0 -16 -15 -31.5t-17 -23.5
q-4 -17 -27 -17q-35 0 -56 32q-5 8 -5 24q0 4 -1 11.5t-1 9.5q0 4 6 11q22 27 52 27q24 0 47 -19q17 -15 17 -24zM364 691q12 -13 12 -33q0 -12 -5 -18q-40 -49 -64 -49q-29 0 -40 20q-7 14 -7 34q0 26 13 42q14 17 49 17q31 0 42 -13z" />
    <glyph glyph-name="Lslash" unicode="&#x141;" horiz-adv-x="450" 
d="M435 628q-4 0 -16 0.5t-18 0.5q-3 0 -8 -0.5t-7 -0.5q-86 0 -149 -15q-5 -1 -29 -18q-7 -5 -10.5 -10.5t-7.5 -6.5q-3 -1 -8 -1q-6 0 -14.5 3t-9.5 3q-5 0 -9.5 7t-6.5 13.5t-2 7.5q0 11 27.5 36t51.5 30q51 11 149 15t144 14q22 4 37 9t21 7.5t10 4.5t7 2q7 0 15.5 -7.5
t11.5 -22.5q1 -7 2.5 -13t2 -9t0.5 -4q0 -2 -1 -3q-11 -19 -51 -27q-11 -2 -25.5 -4t-29 -3.5t-18.5 -2.5q-15 -3 -59 -5zM369 553q0 -15 -7 -30t-7 -21q0 -4 -6 -9q-7 -3 -15 -10q-4 -11 -13 -28t-14 -28q-73 -159 -136 -342q-4 -10 -4 -21q0 -7 4.5 -13t10.5 -6q10 0 42 8
q82 21 201 69q5 2 18 2q9 0 26 -7.5t28 -18.5q7 -7 7 -12q0 -1 3 -6t3 -11q0 -9 -3 -14q-7 -10 -42 -10q-11 0 -19 -2q-36 -9 -92.5 -29.5t-105 -33.5t-96.5 -13q-40 0 -82 58q-4 5 -4 14q0 14 17 56q2 6 4 19t9 34q22 66 50.5 133t75 166.5t59.5 128.5q6 11 31 11
q4 0 10.5 -5t17.5 -8q10 -2 19.5 -8.5t9.5 -12.5z" />
    <glyph glyph-name="lslash" unicode="&#x142;" horiz-adv-x="232" 
d="M443 722q-4 0 -16 0.5t-18 0.5q-3 0 -8 -0.5t-7 -0.5q-86 0 -149 -15q-5 -1 -29 -18q-7 -5 -10.5 -10.5t-7.5 -6.5q-3 -1 -8 -1q-6 0 -14.5 3t-9.5 3q-5 0 -9.5 7t-6.5 13.5t-2 7.5q0 11 27.5 36t51.5 30q51 11 149 15t144 14q22 4 37 9t21 7.5t10 4.5t7 2q7 0 15.5 -7.5
t11.5 -22.5q1 -7 2.5 -13t2 -9t0.5 -4q0 -2 -1 -3q-11 -19 -51 -27q-11 -2 -25.5 -4t-29 -3.5t-18.5 -2.5q-15 -3 -59 -5zM141 -18q-7 0 -27 7t-44.5 26t-28.5 44q-3 16 -3 34q0 11 2 23.5t4 22t7.5 25.5t8.5 23.5t10.5 27.5t10.5 27q49 128 168 332q5 8 14 32.5t20 38.5
t28 14q8 0 18.5 1t14.5 1q17 0 26 -11q8 -12 8 -28q0 -18 -10 -35q-16 -25 -72.5 -110t-88 -141.5t-54.5 -115.5q-4 -9 -12.5 -29.5t-13 -32t-8.5 -29t-4 -32.5q0 -21 5 -37q4 -12 20 -12q10 0 17 4q14 8 63.5 60t75.5 52q9 0 21.5 -6t12.5 -17q0 -6 -2.5 -10t-8.5 -9.5
t-9 -8.5q-10 -11 -35.5 -42t-40 -45.5t-40.5 -29t-53 -14.5z" />
    <glyph glyph-name="OE" unicode="&#x152;" horiz-adv-x="754" 
d="M550 501l-24 -112q-4 -17 -4 -20q0 -5 5 -5q4 0 19 6q87 36 142 36q26 0 60 -12q9 -3 12 -6.5t3 -13.5q0 -21 -9.5 -32t-15.5 -12.5t-12 -1.5t-16 1.5t-15 1.5q-39 0 -109 -25t-79 -27q-17 -4 -24 -23q-39 -101 -67 -165q-6 -13 -6 -23t16 -10q49 0 160 37q13 4 70.5 34
t94.5 30q11 0 25 -12.5t14 -22.5q0 -18 -12 -27q-9 -7 -27.5 -15.5t-20.5 -9.5q-83 -45 -185.5 -68.5t-150.5 -23.5q-14 0 -31.5 6.5t-21.5 6.5q-8 0 -34.5 -8.5t-65.5 -8.5q-44 0 -63 10q-86 47 -86 161q4 182 121 351q47 67 87.5 100t62.5 33q64 0 100 -18q20 -10 32 -26
q4 -5 10 -5q5 0 24 7q71 26 133 40q108 25 177 25q6 0 15.5 -2t13.5 -2q24 -2 40 -12.5t16 -26.5q0 -38 -16 -38q-11 0 -36 4t-52 4q-113 0 -246 -54q-13 -5 -17 -9.5t-7 -16.5zM416 547q-2 16 -29 16q-13 0 -30 -16q-119 -113 -169 -274q-9 -29 -9 -42q0 -8 -3 -36.5
t-3 -46.5q0 -17 3 -33.5t10 -33.5t21 -27.5t33 -10.5q36 0 63 32q42 50 88 173q4 11 4 14q0 4 -5 12q-10 15 -10 42q0 8 21 11q16 2 21 15q15 38 26.5 83t11.5 56q0 6 -2 8t-7 2.5t-8 2.5q-21 14 -27 53z" />
    <glyph glyph-name="oe" unicode="&#x153;" horiz-adv-x="583" 
d="M261 62q-46 -64 -92 -64q-11 0 -24 5q-61 24 -80 62q-17 34 -17 77q0 100 105 253q80 118 149 118q30 0 61 -25q20 -16 34 -49l4 -13q27 29 43 43q22 20 56 33.5t64 13.5q50 0 67 -36q5 -11 5 -24q0 -27 -13.5 -62.5t-27.5 -52.5q-133 -164 -234 -220q-10 -6 -10 -12
q0 -17 17 -33q16 -15 33 -15q22 0 79 35q40 25 92.5 68t75.5 60q7 5 16 5q22 0 27 -7q6 -9 6 -16q0 -10 -8 -18q-143 -143 -245 -187q-9 -4 -26 -4q-45 0 -98 37q-19 13 -32 44q-3 8 -6 8q-4 0 -21 -24zM307 419q-11 6 -11 18q0 4 -5 4q-14 0 -30 -21q-67 -88 -104 -158.5
t-37 -142.5q0 -14 13 -30.5t24 -16.5q4 0 9 2.5t8 5t7.5 7l5.5 5.5q29 26 84.5 127t55.5 164q0 16 -3 22t-17 14zM525 369q10 11 22 34.5t12 38.5q0 12 -9 12q-17 0 -34 -16q-128 -119 -156 -215q-3 -10 -3 -14q0 -3 2 -3q5 0 18 10q19 15 40 36t34 35t38.5 42.5t35.5 39.5z
" />
    <glyph glyph-name="Scaron" unicode="&#x160;" horiz-adv-x="432" 
d="M451 596q28 -30 36 -82q1 -5 2.5 -12t2.5 -12t1 -8q0 -13 -21 -13q-7 0 -17 3q-21 6 -44 35q-2 2 -11 33.5t-27 41.5q-10 6 -22 6q-4 0 -9.5 -9t-10 -28t-4.5 -42q0 -41 14 -99q3 -12 33 -123t38 -158q7 -43 7 -66q0 -30 -17 -54t-45 -35q-8 -3 -39 -3q-65 0 -128.5 35
t-111.5 96q-2 3 -13 15t-17.5 20.5t-14.5 25.5t-11 37q-2 11 -2 30q0 7 7.5 18t14.5 11q28 0 51 -14q13 -8 24 -19.5t11 -15.5q0 -7 -3.5 -17.5t-3.5 -22.5q0 -4 6 -16q20 -35 59.5 -67.5t81.5 -46.5q12 -4 26 -4q13 0 23.5 11t10.5 26q0 44 -5 77q-9 59 -38 160.5
t-39 153.5q-9 50 -9 77q0 17 1 22q0 1 3.5 17.5t4.5 21.5t6.5 18t11 18.5t15.5 10.5t22 5q97 0 150 -58zM436 688q-5 -3 -9.5 -3.5t-5.5 -1.5q-2 -1 -6 -1q-11 0 -18 10l-49 70q-22 32 -22 44q0 2 0.5 5t0.5 6q0 7 7 18q11 16 16 16l6 1q6 2 11 2q7 0 9 -6q1 -6 47 -83
q4 -7 10 -7q3 0 10.5 4t19 11t17.5 10l64 35q9 5 14 5q11 0 11 -17q0 -2 1 -7t1 -8q0 -7 -4 -15q-3 -6 -20 -17z" />
    <glyph glyph-name="scaron" unicode="&#x161;" horiz-adv-x="296" 
d="M347 464q19 -20 19 -65q0 -46 -29 -83q-9 -11 -14 -11q-20 0 -35 13q-15 12 -15 32q0 4 3 8q17 28 17 46q0 15 -7 27q-8 14 -22 14q-4 0 -17 -15.5t-26.5 -41t-17.5 -46.5q-2 -14 -2 -26q0 -18 7 -64q3 -27 17.5 -116t14.5 -112q0 -10 -8 -18q-36 -36 -63 -36
q-15 0 -25 4q-87 36 -146 134q-6 10 -6 15q0 12 10.5 24.5t25.5 12.5q28 0 38 -14q6 -9 27 -44.5t38 -51.5q12 -11 20 -11q10 0 10 8q0 6 -5 31q-10 45 -21 131.5t-11 104.5q0 23 9.5 59.5t26.5 62.5q20 31 46 47.5t43 16.5q64 0 98 -36zM355 546q-5 -3 -9.5 -3.5t-5.5 -1.5
q-2 -1 -6 -1q-11 0 -18 10l-49 70q-22 32 -22 44q0 2 0.5 5t0.5 6q0 7 7 18q11 16 16 16l6 1q6 2 11 2q8 0 9 -6t47 -83q4 -7 10 -7q3 0 10.5 4t19 11t17.5 10l64 35q9 5 14 5q11 0 11 -17q0 -2 1 -7t1 -8q0 -7 -4 -15q-3 -6 -20 -17z" />
    <glyph glyph-name="Ydieresis" unicode="&#x178;" horiz-adv-x="502" 
d="M257 668q4 -1 8.5 -11t4.5 -18q0 -15 -9.5 -34.5t-13.5 -37.5q-45 -217 -45 -320q0 -10 19 -10q17 0 30 8q67 42 113 88q49 49 109 165q41 80 64 110q7 10 11 10q38 0 60 -22q3 -3 7 -14t4 -15q0 -6 -6 -14q-204 -286 -282 -864q-2 -11 -4 -19t-2 -11q0 -8 -6 -8
q-3 0 -11.5 2t-14.5 3q-43 7 -47 26q-2 10 -2 30t3.5 39t10 44.5t8.5 34.5q0 2 11 60q22 117 92 352l-8 -9q-59 -65 -133 -65q-6 0 -28 12t-40 28q-40 35 -40 58q0 37 5 107q0 5 2.5 15t2.5 21q0 12 4 25.5t5 19.5q19 114 47 214q3 9 8 9q9 0 63 -9zM392 820q11 -20 11 -32
q0 -15 -11 -32l-12 -17q-1 -7 -14.5 -12t-24.5 -5q-12 0 -15 2q-7 5 -12.5 13t-7.5 10t-2 29q0 15 13 41q9 16 35 16q32 0 40 -13zM577 762q1 -3 6 -14.5t5 -17.5q0 -10 -2 -16q-10 -28 -25 -36q-8 -4 -29 -4q-17 0 -24 15q-1 2 -11 16.5t-10 26.5q0 10 9 29.5t22 19.5
q1 0 8.5 -0.5t11.5 -0.5q34 0 39 -18z" />
    <glyph glyph-name="Zcaron" unicode="&#x17d;" horiz-adv-x="560" 
d="M659 555q0 -27 -8 -41.5t-40 -48.5q-45 -49 -100 -92q-5 -4 -5 -8q0 -5 9 -5q71 0 98 -34q5 -6 5 -17q0 -9 -5 -15.5t-11 -6.5q-1 0 -5.5 0.5t-16 1t-30.5 0.5q-48 0 -129.5 -17t-94.5 -19q-22 -18 -71.5 -52t-83.5 -64.5t-52 -66.5q-6 -12 -6 -18t19.5 -15.5t35.5 -9.5
q8 0 25.5 -4t30.5 -4q68 0 241 62q22 8 28 8q30 0 36 -10q4 -6 12.5 -17t14 -19.5t5.5 -16.5t-7 -8q-6 0 -9 2t-8 2q-4 0 -7 -3.5t-7 -5.5q-139 -62 -269 -62q-113 0 -200 55q-8 5 -25 31t-17 39q0 18 3 25q18 41 134 134q6 5 6 7q0 4 -7 5q-35 6 -45 17q-8 10 -8 20
q0 3 1.5 8.5t1.5 17.5q0 10 8.5 16.5t16.5 6.5q7 0 22 -5q45 -14 60 -14q11 0 40.5 5t36.5 9q208 127 271 220q7 9 7 14q0 14 -40.5 21t-82.5 7q-107 0 -136 -57q-3 -7 -23 -7q-13 0 -27 7t-20 19t-13 41q0 10 4 13q77 52 200 52q106 0 184 -45q9 -5 31 -26.5t22 -31.5z
M540 704q-5 -3 -9.5 -3.5t-5.5 -1.5q-2 -1 -6 -1q-11 0 -18 10l-49 70q-22 32 -22 44q0 2 0.5 5t0.5 6q0 8 7 18q11 16 16 16l6 1q6 2 11 2q7 0 9 -6q1 -6 47 -83q4 -7 10 -7q3 0 10.5 4t19 11t17.5 10l64 35q9 5 14 5q11 0 11 -17q0 -2 1 -7t1 -8q0 -7 -4 -15
q-3 -6 -20 -17z" />
    <glyph glyph-name="zcaron" unicode="&#x17e;" horiz-adv-x="384" 
d="M428 410q4 -11 4 -21q0 -9 -2.5 -16t-10 -15.5t-13 -13t-21 -16.5t-24.5 -19q-6 -5 -6 -8t11 -3q55 0 79 -27q8 -9 8 -15q-6 -15 -23 -15q-76 0 -169 -28q-28 -8 -43 -22t-49.5 -52t-46.5 -49q-12 -10 -12 -27q0 -9 14 -15q17 -8 29 -8q10 0 32.5 6t33.5 6
q22 0 59.5 19.5t57.5 19.5q24 0 45 -18q7 -6 7 -19q0 -6 -10 -10q-4 -2 -37.5 -15.5t-45.5 -18t-39 -13t-48 -11.5t-43 -3q-61 0 -105 26q-30 18 -30 62q0 17 3 25q10 22 57 73q17 19 17 23q0 5 -13 9q-24 8 -31 21q-12 21 -12 33q0 7 8 13t18 6t33 -7t41 -7q30 0 53.5 16.5
t46.5 40.5t39 33q19 10 33 25.5t14 24.5q0 7 -16 7q-7 0 -20.5 -4t-29.5 -6q-55 -6 -93 -50q-2 -2 -9 -2q-6 0 -15.5 9t-13.5 20q-5 15 -5 24q0 25 20 30q8 2 46.5 13t64 15.5t49.5 4.5q28 0 54 -8t33 -16q0 -1 11.5 -10t14.5 -17zM388 510q-5 -3 -9.5 -3.5t-5.5 -1.5
q-2 -1 -6 -1q-11 0 -18 10l-49 70q-22 32 -22 44q0 2 0.5 5t0.5 6q0 7 7 18q11 16 16 16l6 1q6 2 11 2q7 0 9 -6q1 -6 47 -83q4 -7 10 -7q3 0 10.5 4t19 11t17.5 10l64 35q9 5 14 5q11 0 11 -17q0 -2 1 -7t1 -8q0 -7 -4 -15q-3 -6 -20 -17z" />
    <glyph glyph-name="florin" unicode="&#x192;" horiz-adv-x="420" 
d="M276 271q-101 -260 -132 -323q-21 -44 -52.5 -74.5t-64 -43.5t-54.5 -17.5t-39 -4.5q-7 0 -23 2t-23 2q-35 0 -46.5 2.5t-11.5 11.5q0 13 7.5 26.5t8.5 18.5q8 23 50 23t50 -3t12 -3q40 0 69 29q25 25 55 100q44 110 90 234q5 13 5 15q0 6 -5 11q-4 3 -19.5 8.5t-26 13.5
t-10.5 21q0 2 -1.5 8.5t-1.5 10.5q0 7 5 14.5t9 7.5q7 0 35 -3t37 -3q13 0 18 14q12 32 16 42.5t12 29t24 59.5q68 177 230 177q11 0 56 -5q21 -2 21 -16q0 -4 1.5 -6t1.5 -5q0 -7 -3 -15q-5 -16 -10.5 -22t-16.5 -6q-7 0 -11 -4t-10 -4q-23 0 -34 2t-16 2q-15 0 -27 -3.5
t-31 -15.5t-39 -43.5t-38 -79.5l-33 -88q0 -9 6 -9t45.5 3.5t53.5 3.5h21q8 0 17.5 -7t11.5 -16q1 -5 5 -10t4 -14q0 -19 -8 -19q-37 0 -86.5 -10t-84.5 -10q-14 0 -19 -9z" />
    <glyph glyph-name="uni02BB" unicode="&#x2bb;" horiz-adv-x="192" 
d="M198 536q45 80 48 88q7 19 24 19q1 0 5.5 -0.5t7.5 -0.5q19 0 30 -11t11 -35q0 -13 -5.5 -23.5t-20.5 -31t-26 -38.5l-62 -105q-10 -16 -32 -16q-8 0 -15 1.5t-12 3.5t-6 2q-15 3 -15 24q0 4 6 15z" />
    <glyph glyph-name="afii57929" unicode="&#x2bc;" horiz-adv-x="192" 
d="M198 536q45 80 48 88q7 19 24 19q1 0 5.5 -0.5t7.5 -0.5q19 0 30 -11t11 -35q0 -13 -5.5 -23.5t-20.5 -31t-26 -38.5l-62 -105q-10 -16 -32 -16q-8 0 -15 1.5t-12 3.5t-6 2q-15 3 -15 24q0 4 6 15z" />
    <glyph glyph-name="circumflex" unicode="&#x2c6;" horiz-adv-x="510" 
d="M473 833l60 -103q11 -18 11 -25q0 -4 -2.5 -7.5t-6 -6.5t-5.5 -5q-7 -11 -18 -11q-9 0 -18 14l-63 86q-4 6 -8 6q-3 0 -10 -3q-89 -37 -105 -51q-1 -1 -5 -1q-5 0 -9.5 2t-8.5 5.5t-6 4.5q-5 3 -5 24q0 17 2 21q2 5 6 8l3 3q4 7 55 25l89 31q9 3 13 3q16 0 19 -7
q1 -2 5 -4.5t7 -8.5z" />
    <glyph glyph-name="caron" unicode="&#x2c7;" horiz-adv-x="510" 
d="M424 692q-5 -3 -9.5 -3.5t-5.5 -1.5q-2 -1 -6 -1q-11 0 -18 10l-49 70q-22 32 -22 44q0 2 0.5 5t0.5 6q0 8 7 18q11 16 16 16l6 1q6 2 11 2q7 0 9 -6q1 -6 47 -83q4 -7 10 -7q3 0 10.5 4t19 11t17.5 10l64 35q9 5 14 5q11 0 11 -17q0 -2 1 -7t1 -8q0 -7 -4 -15
q-3 -6 -20 -17z" />
    <glyph glyph-name="breve" unicode="&#x2d8;" horiz-adv-x="510" 
d="M359 804q0 -1 -0.5 -3.5t-0.5 -4.5q0 -5 4.5 -14.5t19 -20.5t36.5 -11q24 0 47.5 17t40 33.5t23.5 16.5q17 0 18 -11q0 -3 6 -11.5t6 -16.5q0 -3 -1.5 -4.5t-4.5 -4t-5 -6.5q-19 -30 -59 -53.5t-80 -23.5q-51 0 -83 34t-45 82q-3 11 -3 14t5 11q4 6 15 8.5t17 8.5
q7 7 12 7t11 -5t13.5 -20.5t7.5 -21.5z" />
    <glyph glyph-name="dotaccent" unicode="&#x2d9;" horiz-adv-x="510" 
d="M472 802q13 -13 13 -34q0 -12 -5 -18q-42 -51 -66 -51q-28 0 -42 21q-7 12 -7 35q0 24 14 43q14 18 50 18q32 0 43 -14z" />
    <glyph glyph-name="ring" unicode="&#x2da;" horiz-adv-x="510" 
d="M506 800q2 -16 2 -24q0 -44 -26 -83q-20 -29 -58 -29q-44 0 -63 13q-36 25 -36 57q0 24 21 61t42 45q19 7 37 7q14 0 26 -3q21 -6 37 -20t18 -24zM442 799q-6 9 -12 9q-10 0 -16 -7q-27 -39 -27 -63q0 -15 7 -25t16 -10q10 0 14 6q2 4 7 12t7.5 13l6 12t5 13t1.5 12
q0 14 -9 28z" />
    <glyph glyph-name="ogonek" unicode="&#x2db;" horiz-adv-x="348" 
d="M184 48q-25 -25 -47 -60.5t-22 -64.5q0 -31 33 -31q11 0 18 4.5t26 4.5q10 0 18 -2q7 -2 7 -7q0 -13 -7 -22q-3 -4 -4 -11t-6 -14t-9 -8l-13 -4q-10 -3 -37 -3q-46 0 -66.5 22.5t-20.5 57.5q0 38 21 77.5t44 60.5h65z" />
    <glyph glyph-name="tilde" unicode="&#x2dc;" horiz-adv-x="510" 
d="M265 755q0 5 -4 18t-4 19q0 11 9 14l63 23q24 9 45 9q13 0 22.5 -9.5t25.5 -32.5q16 -24 22.5 -29.5t18.5 -5.5q3 0 39.5 12t40.5 12q18 0 20 -19q0 -3 2 -9t2 -12q0 -5 -8 -10q-70 -45 -98 -45q-30 0 -53 18q-11 8 -24 29.5t-17 23.5q-5 3 -9 3q-14 0 -49 -21
q-5 -3 -10 -3q-34 0 -34 15z" />
    <glyph glyph-name="hungarumlaut" unicode="&#x2dd;" horiz-adv-x="510" 
d="M570 784l-104 -95q-8 -8 -12 -8q-3 0 -5 2.5t-4 2.5q-16 3 -22 9q-11 11 -11 20q0 4 2 7q5 8 18 21q9 9 16.5 18.5t8.5 10.5l75 81q22 24 46 24q5 0 13 -9t13 -12q13 -9 13 -26q0 -6 -11.5 -19.5t-18.5 -16.5q-12 -5 -17 -10zM343 813l38 50q9 13 48 53q2 2 4 2l16 -4
q2 0 23 -16q16 -11 16 -23q0 -7 -6.5 -15.5t-7.5 -12.5q-2 -5 -12 -9q-8 -4 -40 -39l-61 -70q-14 -16 -29 -16q-14 0 -16 13q-2 14 -11 18t-9 7q0 2 1 4t4 6t7.5 9t14 17t20.5 26z" />
    <glyph glyph-name="gravecomb" unicode="&#x300;" horiz-adv-x="1" 
d="M-78 614q-21 15 -66 33q-12 5 -12 33q0 15 11 26q12 12 24 12q3 0 7.5 -1.5t6.5 -1.5q1 0 3 -1t5.5 -3.5t8.5 -6t15.5 -11t22.5 -16.5l102 -70q26 -18 26 -25q0 -2 -5 -17q-1 -4 -2 -9.5t-1 -6.5q-3 -10 -13 -10q-17 0 -31 9z" />
    <glyph glyph-name="acutecomb" unicode="&#x301;" horiz-adv-x="1" 
d="M9 646q61 24 77 35q4 3 14 3q11 0 19 -8q11 -11 11 -28q0 -20 -5 -26q-10 -13 -72 -32l-118 -37q-10 -3 -20 -3q-7 0 -11 2q-10 7 -15 14q-4 6 -9 11q-3 3 -3 8q0 8 5 14q4 5 13 5q4 0 25 8z" />
    <glyph glyph-name="uni0302" unicode="&#x302;" horiz-adv-x="1" 
d="M18 695l60 -103q11 -18 11 -25q0 -4 -2.5 -7.5t-6 -6.5t-5.5 -5q-7 -11 -18 -11q-9 0 -18 14l-63 86q-4 6 -8 6q-3 0 -10 -3q-89 -37 -105 -51q-1 -1 -5 -1q-5 0 -9.5 2t-8.5 5.5t-6 4.5q-5 3 -5 24q0 17 2 21q2 5 5 8l4 3q4 7 55 25l89 31q9 3 13 3q15 0 19 -7
q1 -2 5 -4.5t7 -8.5z" />
    <glyph glyph-name="tildecomb" unicode="&#x303;" horiz-adv-x="1" 
d="M-156 619q0 5 -4 18t-4 19q0 11 9 14l63 23q24 9 45 9q13 0 22.5 -9.5t25.5 -32.5q16 -24 22.5 -29.5t18.5 -5.5q3 0 39.5 12t40.5 12q18 0 20 -19q0 -3 2 -9t2 -12q0 -5 -8 -10q-70 -45 -98 -45q-30 0 -53 18q-11 8 -24 29.5t-17 23.5q-4 3 -9 3q-14 0 -49 -21
q-5 -3 -10 -3q-34 0 -34 15z" />
    <glyph glyph-name="uni0304" unicode="&#x304;" horiz-adv-x="1" 
d="M-85 680q24 0 71.5 1.5t58.5 1.5q4 0 6.5 -2t4 -6t3.5 -6q4 -4 4 -7q0 -1 -1 -5t-1 -6q0 -20 -6 -31q-5 -8 -16 -8q-4 0 -17.5 0.5t-19.5 0.5q-5 0 -66 -1t-91 -1q-66 0 -78 4q-22 8 -22 55q0 14 34 14q9 0 46.5 -2t89.5 -2z" />
    <glyph glyph-name="uni0306" unicode="&#x306;" horiz-adv-x="1" 
d="M-130 671q0 -1 -0.5 -3.5t-0.5 -4.5q0 -5 4.5 -14.5t19 -20.5t36.5 -11q19 0 38 10.5t31 23t24 23t18 10.5q17 0 18 -11q0 -3 6 -11.5t6 -16.5q0 -3 -1.5 -4.5t-4.5 -4t-5 -6.5q-19 -30 -59 -53.5t-80 -23.5q-51 0 -83 34t-45 82q-3 11 -3 14t5 11q4 6 15 8.5t17 8.5
q7 7 12 7t11 -5t13.5 -20.5t7.5 -21.5z" />
    <glyph glyph-name="uni0307" unicode="&#x307;" horiz-adv-x="1" 
d="M145 681q12 -13 12 -33q0 -12 -5 -18q-40 -49 -64 -49q-29 0 -40 20q-7 14 -7 34q0 26 13 42q14 17 49 17q31 0 42 -13z" />
    <glyph glyph-name="uni0308" unicode="&#x308;" horiz-adv-x="1" 
d="M-151 694q11 -20 11 -32q0 -15 -12 -32l-11 -17q-1 -7 -14.5 -12t-24.5 -5q-12 0 -15 2q-7 5 -12.5 13t-7.5 10t-2 29q0 15 13 41q9 16 35 16q32 0 40 -13zM34 636q1 -3 6 -14.5t5 -17.5q0 -12 -2 -16q-16 -31 -25 -36q-8 -4 -29 -4q-17 0 -24 15q-1 2 -11 16.5t-10 26.5
q0 10 9 29.5t22 19.5q1 0 8.5 -0.5t11.5 -0.5q35 0 39 -18z" />
    <glyph glyph-name="uni030A" unicode="&#x30a;" horiz-adv-x="1" 
d="M-3 674q2 -16 2 -24q0 -44 -26 -83q-20 -29 -58 -29q-44 0 -63 13q-36 25 -36 57q0 24 21 61t42 45q19 7 37 7q14 0 26 -3q21 -6 37 -20t18 -24zM-67 673q-6 9 -12 9q-10 0 -16 -7q-27 -39 -27 -63q0 -15 7 -25t16 -10q10 0 14 6q2 4 7 12t7.5 13l6 12t5 13t1.5 12
q0 14 -9 28z" />
    <glyph glyph-name="uni030B" unicode="&#x30b;" horiz-adv-x="1" 
d="M61 612l-104 -95q-8 -8 -12 -8q-3 0 -5 2.5t-4 2.5q-16 3 -22 9q-11 11 -11 20q0 4 2 7q5 8 18 21q9 9 16.5 18.5t8.5 10.5l75 81q22 24 46 24q5 0 13 -9t13 -12q13 -9 13 -26q0 -6 -11.5 -19.5t-18.5 -16.5q-12 -5 -17 -10zM-166 641l38 50q9 13 48 53q2 2 4 2l16 -4
q2 0 23 -16q16 -11 16 -23q0 -7 -6.5 -15.5t-7.5 -12.5q-2 -5 -12 -9q-8 -4 -40 -39l-61 -70q-14 -16 -29 -16q-14 0 -16 13q-2 14 -11 18t-9 7q0 2 1 4t4 6t7.5 9t14 17t20.5 26z" />
    <glyph glyph-name="uni030C" unicode="&#x30c;" horiz-adv-x="1" 
d="M19 548q-5 -3 -9.5 -3.5t-5.5 -1.5q-2 -1 -6 -1q-11 0 -18 10l-49 70q-22 32 -22 44q0 2 0.5 5t0.5 6q0 7 7 18q11 16 16 16l6 1q6 2 11 2q8 0 9 -6t47 -83q4 -7 10 -7q3 0 10.5 4t19 11t17.5 10l64 35q9 5 14 5q11 0 11 -17q0 -2 1 -7t1 -8q0 -7 -4 -15q-3 -6 -20 -17z
" />
    <glyph glyph-name="uni0312" unicode="&#x312;" horiz-adv-x="1" 
d="M-149 605l-43 -73q-7 -12 -11.5 -15.5t-15.5 -3.5q-4 0 -7 3.5t-6 10t-6 10.5q-4 5 -9 10.5t-6.5 9t-1.5 10.5q0 2 2 8l43 64q13 18 22 18q10 0 17 -3q9 -3 17 -3q5 0 10 -8t5 -13q0 -7 -6 -18z" />
    <glyph glyph-name="uni0313" unicode="&#x313;" horiz-adv-x="1" 
d="M-185 595l43 73q7 12 11.5 15.5t15.5 3.5q4 0 7 -3.5t6 -10t6 -10.5q4 -5 9 -10.5t6.5 -9t1.5 -10.5q0 -2 -2 -8l-43 -64q-13 -18 -22 -18q-10 0 -17 3q-9 3 -17 3q-5 0 -10 8t-5 13q0 7 6 18z" />
    <glyph glyph-name="uni0326" unicode="&#x326;" horiz-adv-x="0" 
d="M-193 -117l43 73q7 12 11.5 15.5t15.5 3.5q4 0 7 -3.5t6 -10t6 -10.5q4 -5 9 -10.5t6.5 -9t1.5 -10.5q0 -2 -2 -8l-43 -64q-13 -18 -22 -18q-10 0 -17 3q-9 3 -17 3q-5 0 -10 8t-5 13q0 7 6 18z" />
    <glyph glyph-name="uni0327" unicode="&#x327;" horiz-adv-x="1" 
d="M-211 59h54l33 -52q10 -14 10 -38q0 -23 -17 -47q-42 -60 -91 -60q-24 0 -59 13q-33 12 -49 35q-7 10 -7 16q0 8 15 23q4 4 8 4q2 0 5.5 -1.5t5.5 -1.5q5 0 11.5 -4.5t7.5 -9.5q1 -7 12 -13.5t24 -6.5q21 0 34 14.5t30 48.5q5 10 5 19q0 11 -5 19z" />
    <glyph glyph-name="uni0328" unicode="&#x328;" horiz-adv-x="1" 
d="M-163 80q-25 -25 -47 -60.5t-22 -64.5q0 -31 33 -31q11 0 18 4.5t26 4.5q10 0 18 -2q7 -2 7 -7q0 -13 -7 -22q-3 -4 -4 -11t-6 -14t-9 -8l-13 -4q-11 -3 -37 -3q-46 0 -66.5 22.5t-20.5 57.5q0 38 21 77.5t44 60.5h65z" />
    <glyph glyph-name="uni0335" unicode="&#x335;" horiz-adv-x="1" 
d="M-85 204q24 0 71.5 1.5t58.5 1.5q4 0 6.5 -2t4 -6t3.5 -6q4 -4 4 -7q0 -1 -1 -5t-1 -6q0 -20 -6 -31q-5 -8 -16 -8q-4 0 -17.5 0.5t-19.5 0.5q-5 0 -66 -1t-91 -1q-66 0 -78 4q-22 8 -22 55q0 14 34 14q9 0 46.5 -2t89.5 -2z" />
    <glyph glyph-name="uni0336" unicode="&#x336;" horiz-adv-x="1" 
d="M75 182q0 -24 -8 -45q-2 -5 -15 -5h-662q-14 0 -19 6q-14 18 -14 57q0 15 30 15h659q12 0 26 -14q3 -3 3 -14z" />
    <glyph glyph-name="uni0394" unicode="&#x394;" horiz-adv-x="600" 
d="M119 -22q-19 1 -36 1h-46q-13 0 -20 29t-7 45q0 9 4.5 16t13 15t28 36t42.5 69q140 250 314 494q16 21 21 21t29.5 4t39.5 4q21 0 24 -6q3 -5 11.5 -6.5t8.5 -5.5q0 -17 -7 -132q-4 -64 -4 -157q0 -197 29 -356q1 -7 13 -10t14 -18q2 -24 2 -26q0 -7 -2 -10.5t-4.5 -5.5
t-13.5 -7t-19 -10q-12 -7 -24 -7q-26 0 -38 1q-16 1 -57 5t-75.5 7t-53.5 4q-14 1 -77 2.5t-110 3.5zM439 47q18 -2 23 -2q7 0 7 8q-19 184 -19 529q0 14 -5 14q-4 0 -11 -10q-119 -182 -208 -337q-96 -168 -96 -175q0 -12 14 -14q12 -2 115.5 -3t179.5 -10z" />
    <glyph glyph-name="uni03A9" unicode="&#x3a9;" horiz-adv-x="722" 
d="M320 69q11 -7 11 -18q0 -8 -6 -21.5t-6 -20.5q0 -3 -4 -6t-14.5 -6t-26.5 -3q-2 0 -56 -3.5t-75 -3.5q-54 0 -54 9q0 4 -4 6q-17 8 -17 46q0 8 4 11t17 3q27 0 47.5 -1t42.5 -1q26 0 26 7q0 4 -14 19q-69 73 -69 201q0 80 31 152t80.5 121t110.5 78t121 29
q68 0 108.5 -12.5t71.5 -52.5q6 -7 21.5 -24t27.5 -33.5t21 -38.5q21 -50 21 -112q0 -66 -36 -156t-108 -150q-6 -5 -6 -9q0 -5 9 -5q1 0 39.5 2.5t48.5 2.5q6 0 12 -3.5t6 -6.5q0 -2 -2.5 -5t-2.5 -7q0 -1 1 -3.5t1 -7.5t-2 -10.5t-5.5 -12t-4.5 -10.5q-5 -8 -12 -8
q-29 0 -50.5 -1.5t-34.5 -1.5q-10 0 -28.5 0.5t-30.5 0.5q-10 0 -38.5 -1.5t-30.5 -1.5q-15 0 -15 18q0 14 6.5 26t6.5 14q0 10 14 18q5 3 9.5 7t7.5 6q17 10 56 51q30 30 65.5 106.5t35.5 160.5q0 187 -166 187q-100 0 -183.5 -95t-83.5 -232q0 -72 25.5 -117t80.5 -81z
" />
    <glyph glyph-name="uni03BC" unicode="&#x3bc;" horiz-adv-x="510" 
d="M139 122q-3 0 -52 -105q-53 -114 -125 -259q-21 -42 -32 -42q-6 0 -17.5 1t-13.5 1q-4 0 -12 7.5t-14 8.5q-9 1 -9 26q0 16 8 28.5t41 49.5q9 10 39 66q131 242 256 516q14 30 21 30q9 0 15.5 4.5t10.5 4.5q33 0 39 -11q5 -9 5 -31q0 -5 -9.5 -18.5t-11.5 -20.5
q-2 -6 -18.5 -38.5t-21.5 -53.5q-4 -20 -11.5 -48.5t-10 -41.5t-5 -39.5t-2.5 -62.5q0 -41 12 -41q8 0 20 10q11 9 80 97q43 54 59.5 84t44.5 108q4 11 7 16t10.5 8.5t21.5 3.5q5 0 14 -5t13 -5q18 0 18 -13q0 -18 -7 -34q-57 -123 -73 -226q-6 -42 -6 -74q0 -9 8 -24.5
t8 -46.5q0 -15 -31 -15q-7 0 -17 5t-18 5q-12 0 -16 33q-3 21 -3 52q0 14 1 28t1 17q0 9 -5 9q-2 0 -8 -8t-14 -19.5t-9 -13.5q-24 -32 -51 -51t-38 -19q-32 0 -56 14t-29 28q-5 18 -5 55q0 25 1 41q0 9 -3 9z" />
    <glyph glyph-name="pi" unicode="&#x3c0;" horiz-adv-x="576" 
d="M488 394q0 -2 6 -4q18 -6 18 -24q0 -3 -8 -24q-5 -12 -27 -58t-29 -72q-3 -10 -12 -34.5t-14 -46t-5 -42.5q0 -19 7 -37q4 -12 19 -12q21 0 43 19t39 38t25 19q7 0 17.5 3.5t18.5 3.5q13 0 17.5 -3.5t4.5 -14.5q0 -23 -17 -40q-10 -10 -28 -29.5t-26 -26.5t-22.5 -17.5
t-29.5 -14t-35 -3.5q-7 0 -29 8t-48.5 27.5t-32.5 44.5q-5 18 -5 34q0 52 31 140q7 19 65 145q5 11 5 16q0 3 -8 3q-17 -4 -57 -8t-51 -4t-16 -17q-8 -31 -36 -96.5t-28 -67.5q-1 -5 -8 -17t-8 -19q-3 -16 -22 -67t-24 -75q-1 -4 -2 -12.5t-2 -11t-3.5 -6.5t-7 -5t-11.5 -1
q-2 0 -12 -4.5t-12 -4.5q-5 0 -19.5 6.5t-17.5 6.5q-7 0 -7 22q0 9 6 23q15 37 42.5 108t44.5 111l43 106q2 4 2 8q0 3 -5 3q-8 0 -27 -4q-6 -1 -22 -9.5t-33 -8.5q-28 0 -36 4q-13 6 -15 15q-1 6 -6.5 8t-5.5 9q0 9 4 20t4 14q1 7 11 7q11 0 55 6.5t119.5 15.5t153.5 14
q53 3 101 9q43 5 64 5q29 0 49 -5t20 -12q0 -6 5 -12t5 -13q0 -8 -4 -14t-5 -10q-2 -8 -18 -8q-2 0 -8.5 0.5t-11.5 0.5q-14 0 -122 -6q-6 0 -6 -2z" />
    <glyph glyph-name="uni2007" unicode="&#x2007;" horiz-adv-x="440" 
 />
    <glyph glyph-name="uni2008" unicode="&#x2008;" horiz-adv-x="284" 
 />
    <glyph glyph-name="uni200B" unicode="&#x200b;" horiz-adv-x="0" 
 />
    <glyph glyph-name="endash" unicode="&#x2013;" horiz-adv-x="590" 
d="M553 287q0 -21 -8 -42q-3 -7 -11 -7h-24q-37 0 -118 -3.5t-122 -3.5q-109 0 -128 8q-22 9 -22 61q0 16 34 16q5 0 26 -2t56.5 -4t75.5 -2q32 0 74 2t63 2q20 0 37 2.5t26 2.5q23 0 38 -15q3 -3 3 -15z" />
    <glyph glyph-name="emdash" unicode="&#x2014;" horiz-adv-x="875" 
d="M838 286q0 -24 -8 -45q-2 -5 -15 -5h-662q-14 0 -19 6q-14 18 -14 57q0 15 30 15h659q12 0 26 -14q3 -3 3 -14z" />
    <glyph glyph-name="quoteleft" unicode="&#x2018;" horiz-adv-x="192" 
d="M198 536q45 80 48 88q7 19 24 19q1 0 5.5 -0.5t7.5 -0.5q19 0 30 -11t11 -35q0 -13 -5.5 -23.5t-20.5 -31t-26 -38.5l-62 -105q-10 -16 -32 -16q-8 0 -15 1.5t-12 3.5t-6 2q-15 3 -15 24q0 4 6 15z" />
    <glyph glyph-name="quoteright" unicode="&#x2019;" horiz-adv-x="192" 
d="M198 536q45 80 48 88q7 19 24 19q1 0 5.5 -0.5t7.5 -0.5q19 0 30 -11t11 -35q0 -13 -5.5 -23.5t-20.5 -31t-26 -38.5l-62 -105q-10 -16 -32 -16q-8 0 -15 1.5t-12 3.5t-6 2q-15 3 -15 24q0 4 6 15z" />
    <glyph glyph-name="quotesinglbase" unicode="&#x201a;" horiz-adv-x="192" 
d="M20 1q45 80 48 88q7 19 24 19q1 0 5.5 -0.5t7.5 -0.5q19 0 30 -11t11 -35q0 -13 -5.5 -23.5t-20.5 -31t-26 -38.5l-62 -105q-10 -16 -32 -16q-8 0 -15 1.5t-12 3.5t-6 2q-15 3 -15 24q0 4 6 15z" />
    <glyph glyph-name="quotedblleft" unicode="&#x201c;" horiz-adv-x="340" 
d="M349 536q46 81 50 92q6 15 23 15q30 0 42 -12q11 -11 11 -34q0 -13 -7.5 -27.5t-23 -35t-21.5 -31.5l-61 -103q-11 -18 -34 -18q-6 0 -12.5 1.5t-12 3.5t-7.5 2q-6 1 -10.5 8t-4.5 12q0 8 6 19zM216 568q22 41 40 83q9 21 27 21q19 0 35 -20q2 -3 7 -7.5t7.5 -8.5t2.5 -8
q0 -12 -3 -16q-25 -38 -50 -85l-52 -98q-4 -8 -16 -14t-20 -6q-6 0 -20 4q-10 3 -19 3q-5 0 -10.5 8.5t-5.5 13.5q0 3 1 4.5t4.5 5.5t7.5 10q44 74 64 110z" />
    <glyph glyph-name="quotedblright" unicode="&#x201d;" horiz-adv-x="340" 
d="M349 536q46 81 50 92q6 15 23 15q30 0 42 -12q11 -11 11 -34q0 -13 -7.5 -27.5t-23 -35t-21.5 -31.5l-61 -103q-11 -18 -34 -18q-6 0 -12.5 1.5t-12 3.5t-7.5 2q-6 1 -10.5 8t-4.5 12q0 8 6 19zM216 568q22 41 40 83q9 21 27 21q19 0 35 -20q2 -3 7 -7.5t7.5 -8.5t2.5 -8
q0 -12 -3 -16q-25 -38 -50 -85l-52 -98q-4 -8 -16 -14t-20 -6q-6 0 -20 4q-10 3 -19 3q-5 0 -10.5 8.5t-5.5 13.5q0 3 1 4.5t4.5 5.5t7.5 10q44 74 64 110z" />
    <glyph glyph-name="quotedblbase" unicode="&#x201e;" horiz-adv-x="340" 
d="M167 -6q46 81 50 92q6 15 23 15q30 0 42 -12q11 -11 11 -34q0 -13 -7.5 -27.5t-23 -35t-21.5 -31.5l-61 -103q-11 -18 -34 -18q-6 0 -12.5 1.5t-12 3.5t-7.5 2q-6 1 -10.5 8t-4.5 12q0 8 6 19zM34 26q22 41 40 83q9 21 27 21q19 0 35 -20q2 -3 7 -7.5t7.5 -8.5t2.5 -8
q0 -12 -3 -16q-25 -38 -50 -85l-52 -98q-4 -8 -16 -14t-20 -6q-6 0 -20 4q-11 3 -19 3q-5 0 -10.5 8.5t-5.5 13.5q0 3 1 4.5t4.5 5.5t7.5 10q44 74 64 110z" />
    <glyph glyph-name="dagger" unicode="&#x2020;" horiz-adv-x="570" 
d="M205 56q2 7 11.5 34.5t15.5 49.5l54 188q9 34 9 36q0 9 -12 9q-113 0 -131 10q-12 6 -12 60q0 4 1 6t3 3t3 2q8 11 21 11q4 0 7.5 -1t7.5 -1l60 -7q40 -4 55 -4q25 0 30 4q4 2 17 39l32 89q14 38 17.5 45.5t7.5 8.5q13 2 27.5 6t22.5 4q14 0 26 -6q9 -4 9 -14q0 -1 2 -3
t2 -6q0 -9 -1 -13l-12 -40q-2 -8 -15 -25.5t-26 -51.5q-6 -17 -6 -21t14 -4q15 0 69 7t69 7q38 0 38 -28q0 -13 -7.5 -28.5t-8.5 -17.5q-3 -8 -11 -8q-22 0 -47 -1.5t-47 -4t-26 -2.5q-38 -2 -69 -8q-14 -3 -41 -95q-15 -50 -51.5 -154t-53.5 -164q-3 -12 -13 -12
q-16 0 -21 12q-2 6 -18.5 12.5t-16.5 13.5q0 8 3 20q2 7 6 20.5t6 22.5z" />
    <glyph glyph-name="daggerdbl" unicode="&#x2021;" horiz-adv-x="570" 
d="M363 304q-13 -43 -13 -52q0 -4 15 -4q36 0 83.5 4.5t52.5 4.5q15 0 19 -1t10 -8q10 -11 10 -21q0 -3 -7 -21t-7 -24q0 -8 -11 -8h-25q-23 0 -54.5 -1.5t-37.5 -1.5q-34 0 -69 -6q-7 -1 -39 -96q-10 -31 -17.5 -59t-22.5 -70q-4 -12 -19 -12q-10 0 -15 12q-4 9 -10 12.5
t-10.5 2.5t-8 3.5t-3.5 17.5q0 8 17 61q3 9 8.5 32.5t12.5 46.5q8 25 8 32q0 8 -13 8h-26q-23 0 -50.5 3t-48.5 3q-10 0 -15 10t-5 43q0 5 3.5 11t3.5 7q2 11 20 11q4 0 15 -1q77 -7 113 -7q24 0 29 5q5 4 16 40l19 66q9 34 9 36q0 9 -12 9q-113 0 -131 10q-12 6 -12 60
q0 4 1 6t3 3t3 2q8 11 21 11q3 0 9 -2t18 -3l56 -4q38 -4 47 -4q25 0 30 4q4 2 17 39l32 89q19 54 27 54q15 0 25 5t17 5q14 0 26 -6q9 -5 9 -14q0 -1 1.5 -3t1.5 -6q0 -9 -1 -13l-12 -40q-2 -8 -14.5 -25.5t-24.5 -51.5q-6 -16 -6 -21q0 -4 14 -4q16 0 62.5 6.5t61.5 6.5
q30 0 40.5 -4.5t10.5 -22.5q0 -13 -8 -28.5t-8 -17.5q-3 -8 -11 -8q-22 0 -47 -1.5t-46 -4t-27 -2.5q-38 -2 -69 -8q-14 -3 -41 -95z" />
    <glyph glyph-name="bullet" unicode="&#x2022;" horiz-adv-x="490" 
d="M230 14q-53 0 -93 31q-32 26 -47 47.5t-18 60.5q-2 22 -2 32q0 40 18 90t48 95t76 75.5t95 30.5q85 0 120 -50q2 -3 21 -23.5t28 -41.5q16 -34 16 -66q0 -65 -30.5 -128.5t-92.5 -108t-139 -44.5z" />
    <glyph glyph-name="ellipsis" unicode="&#x2026;" horiz-adv-x="710" 
d="M632 68q0 -32 -29 -65q-9 -9 -37 -9q-15 0 -30 10t-20 25q-2 6 -2 15q0 1 -0.5 10t-0.5 21q0 20 4 29q2 4 5.5 8.5t8 8.5t5.5 6q4 6 22 6q52 0 68 -37q6 -13 6 -28zM327 130q8 4 17 4q39 0 64 -44q3 -5 3 -15q0 -15 -8 -29q-1 -2 -8 -12.5t-8 -13.5q-1 -8 -17 -20
q-5 -4 -13 -4q-16 0 -37 7q-27 9 -32 37q-3 15 -3 16q0 4 1 11t4.5 19.5t13 24.5t23.5 19zM180 68q0 -22 -9 -43.5t-20 -21.5q-1 0 -14.5 -4.5t-22.5 -4.5q-26 0 -50 35q-4 5 -4 15q0 4 0.5 8.5t1.5 10t1 9.5t6.5 13t7.5 14q1 15 10 25q6 8 37 8q13 0 27.5 -12.5t18.5 -14.5
q10 -4 10 -37z" />
    <glyph glyph-name="perthousand" unicode="&#x2030;" horiz-adv-x="1080" 
d="M442 553q0 -103 -65 -182q-43 -52 -91 -52q-64 0 -107 59q-27 37 -27 73q0 42 39 119q19 37 53 63t76 26q14 0 40 -10.5t30 -11.5q21 -6 36.5 -28t15.5 -56zM745 213q0 -86 -57 -175q-33 -51 -104 -51q-61 0 -93 36q-36 41 -36 72q0 54 39 135q12 25 34 49t42 32
q18 7 36 7q40 0 70 -11q27 -10 48 -36.5t21 -57.5zM1053 207q0 -94 -62 -181q-27 -39 -92 -39q-49 0 -87 27q-20 14 -33.5 38t-13.5 43q0 52 37 129q11 24 32 48t41 35q12 8 52 8q19 0 29.5 -6.5t16.5 -7.5q30 -6 55 -34t25 -60zM705 620q0 -18 -1.5 -23t-7.5 -7
q-7 -2 -15 -11q-9 -11 -21 -19.5t-16 -13.5q-69 -91 -173 -262t-131 -212q-28 -43 -49.5 -69.5t-27.5 -26.5q-26 0 -37 8q-16 11 -16 26q0 23 3.5 31.5t13.5 13.5q17 8 51 63l280 443q17 26 39 52.5t32 33.5q19 14 32 14q21 0 35 -12q9 -7 9 -29zM356 585q-12 4 -14 15.5
t-16 11.5t-28 -21q-67 -101 -67 -153q0 -66 43 -66q11 0 18.5 6.5t18.5 24.5q55 92 55 156q0 23 -10 26zM659 251q-16 21 -30 21q-15 0 -28 -21q-66 -102 -66 -166q0 -53 40 -53q22 0 35 28q34 66 46.5 98.5t12.5 60.5q0 19 -10 32zM934 261q-24 0 -56.5 -64t-32.5 -103
q0 -32 6 -43q11 -18 36 -18q8 0 20.5 12.5t18.5 25.5q12 26 24 49t16.5 32t7.5 20.5t3 26.5q0 9 -4 21.5t-9 14.5q-11 4 -17 15t-13 11z" />
    <glyph glyph-name="guilsinglleft" unicode="&#x2039;" horiz-adv-x="255" 
d="M106 276q-4 5 -4 23q0 5 -1 11t-1 7q0 14 11 27l77 84q30 33 38 40t14 7q22 0 25 -11q1 -5 5.5 -9.5t6.5 -8.5q9 -16 9 -25q0 -12 -42 -45q-14 -11 -31 -27t-24 -22q-6 -5 -6 -13q0 -4 3 -12q30 -66 37 -74q8 -9 8 -29q0 -17 -3 -22q-14 -20 -37 -20q-10 0 -19 22
q-1 3 -66 97z" />
    <glyph glyph-name="guilsinglright" unicode="&#x203a;" horiz-adv-x="255" 
d="M259 276l-100 -100q-18 -18 -43 -18q-5 0 -11.5 8t-6.5 16q0 1 -3 3.5t-3 6.5q0 5 5 11l93 101q7 7 7 14t-4 12q-7 10 -13 26q-2 6 -7.5 14t-10.5 19q-2 5 -11.5 17.5t-9.5 16.5q0 7 3.5 11.5t13 12.5t16.5 17q8 10 25 10q9 0 13 -2q7 -4 27 -44l38 -78q4 -9 4 -33
q0 -19 -22 -41z" />
    <glyph glyph-name="fraction" unicode="&#x2044;" horiz-adv-x="330" 
d="M492 634q0 -18 -1.5 -23t-7.5 -7q-7 -2 -15 -11q-9 -11 -21 -19.5t-16 -13.5q-52 -69 -103.5 -148.5t-113 -180.5t-102.5 -165q-28 -43 -49.5 -69.5t-27.5 -26.5q-22 0 -33 8q-16 12 -16 26q0 35 11 38q7 2 16.5 13t34.5 50l305 470q16 25 39 52t32 34q19 14 32 14
t27 -12q9 -7 9 -29z" />
    <glyph glyph-name="uni2070" unicode="&#x2070;" 
d="M319 597q1 0 4 1.5t7 1.5q14 0 34 -10q24 -12 31 -24q17 -34 17 -77q0 -61 -33 -139q0 -1 -4 -12t-8.5 -21t-16.5 -32.5t-30 -49.5q-21 -32 -51 -51.5t-57 -19.5q-22 0 -56.5 21t-47.5 48q-11 22 -11 59q0 62 39 149q30 65 113 163q7 8 30 8q13 0 21 -4q3 -1 7 -4t7.5 -5
t4.5 -2zM185 221q13 0 36 20.5t45 60.5q1 2 8.5 13.5t10.5 18.5q1 3 12 28t18.5 44.5t14.5 48t7 48.5q0 36 -21 50q-4 2 -6 2q-4 0 -8 -6q-79 -89 -115 -187q-4 -10 -5.5 -17t-2 -12t-1.5 -7q-8 -34 -8 -69q0 -14 4 -22q8 -14 11 -14z" />
    <glyph glyph-name="uni2074" unicode="&#x2074;" 
d="M246 284q0 3 -5 3q-68 0 -106 15q-14 6 -28 28t-14 29q0 15 8 24q6 7 42 48t53.5 60.5t50.5 52.5t62 58q12 10 15 15q11 17 28 17q9 0 20 -4q28 -11 28 -30q0 -9 -6 -25t-6 -20q0 -15 -6 -36q0 -1 -13 -43.5t-20 -68.5q-10 -38 -10 -45q0 -3 3 -3l7 1q7 2 17.5 3.5
t21.5 1.5q26 0 37 -11q3 -3 7 -11q6 -13 6 -20q0 -5 -3 -8t-9 -4.5t-12.5 -2t-17 -1t-17.5 -1.5q-31 -4 -49 -9q-7 -15 -10.5 -33t-5.5 -41.5t-4 -34.5q-2 -16 -14 -16q-19 0 -52 20q-10 6 -10 20q0 9 6 41l4 20q2 10 2 11zM285 486q-48 -55 -108 -128q-3 -4 -3 -6
q0 -4 10 -6q11 -2 41 -2q8 0 28 2q7 1 8 8q4 26 30 115q7 24 7 25q0 3 -1 3q-2 0 -12 -11z" />
    <glyph glyph-name="uni2075" unicode="&#x2075;" 
d="M251 475q22 9 49 9q58 0 86 -40q15 -21 15 -55q0 -52 -39 -123q-55 -103 -131 -103q-60 0 -127 71q-19 21 -19 29q0 7 7 10q2 1 12 10t22 9q18 0 31 -9q13 -8 22 -23.5t13 -19.5q21 -21 33 -21q6 0 16 9q36 31 61 95q2 5 5.5 18t5.5 20q8 21 8 44q0 27 -14 27
q-33 0 -85 -52q-10 -10 -23 -10q-16 0 -39 13q-14 8 -14 14q0 3 2 7q10 32 29.5 96t27.5 89q2 7 17.5 15.5t27.5 8.5q7 0 11 -1t6 -2t3 -1q8 0 21 2q84 15 125 15q21 0 41 -15.5t20 -28.5q0 -8 -8.5 -15t-22.5 -7q-2 0 -13.5 2t-21.5 2q-78 0 -135 -17q-8 -2 -9 -8l-14 -44
q-5 -16 -5 -18t3 -2z" />
    <glyph glyph-name="uni2076" unicode="&#x2076;" 
d="M381 576q-3 0 -11 -6q-74 -60 -126 -150q-5 -9 -5 -12q0 -1 2 -1q1 0 6 2.5t20 8t36 10.5q16 4 36 4q28 0 43 -18q3 -3 7.5 -8.5t7.5 -9t6 -8t4.5 -8.5t1.5 -8q0 -7 -5 -21q-35 -98 -132 -164q-19 -13 -51 -13q-41 0 -69 22q-4 3 -15.5 11.5t-16.5 13.5q-15 15 -15 43
q0 17 6 35q63 187 155 267q4 4 19 18t24.5 22.5t25.5 16.5t30 8q18 0 34 -9.5t19 -16.5t3 -14q0 -18 -23 -18q-4 0 -10 1.5t-7 1.5zM302 356q-34 -11 -63.5 -31t-35.5 -35q-4 -10 -9.5 -18.5t-7.5 -13t-2 -11.5q0 -6 5 -12t10 -6q21 0 60 38q27 26 59 82q4 7 4 9t-2 2
q-5 0 -18 -4z" />
    <glyph glyph-name="uni2077" unicode="&#x2077;" 
d="M220 376q-42 0 -51 17q-7 14 -7 29q0 19 17 19q11 0 22 -4q10 -4 33 -4q27 0 30 3l8 9q65 87 83 123q4 8 4 12q0 5 -21 5q-64 0 -89 -21q-5 -5 -10 -23t-24 -18q-25 0 -37 15q-6 7 -8 21t-4 19q-4 8 -4 15q0 16 19 23t58 13l38 5q24 3 65 3q55 0 68 -8q41 -25 41 -44
q0 -8 -3.5 -17.5t-6 -14.5t-10.5 -17t-10 -14q-15 -23 -41 -55q-14 -17 -14 -19t4 -2q37 0 55 -19q8 -8 8 -19q0 -18 -13 -18q-3 0 -10 1t-11 1q-18 0 -31 -2t-27.5 -5.5t-26.5 -5.5q-96 -139 -96 -185q0 -12 -8 -12q-2 0 -9 -6t-14 -6q-10 0 -18 4q-13 6 -19 14
q-15 18 -15 21q0 31 88 164q0 3 -3 3z" />
    <glyph glyph-name="uni2078" unicode="&#x2078;" 
d="M211 435q0 5 -0.5 15t-0.5 16q0 93 29 139.5t71 46.5q20 0 46 -9q10 -3 15.5 -10t7.5 -8q47 -20 75 -92q4 -10 4 -21q0 -31 -28 -45q-112 -56 -136 -66q-8 -3 -8 -10q0 -3 3 -44.5t3 -70.5q0 -99 -33 -104q-2 0 -9 -2t-13 -2q-32 0 -50 11q-37 22 -66.5 57.5t-29.5 73.5
q0 18 5 31.5t18.5 26t23 19t33 19.5t33.5 19q7 5 7 10zM329 588q-22 -15 -34 -48q-8 -27 -8 -63q0 -3 2 -3q3 0 18 8q7 4 32.5 15t36.5 20q9 7 9 21q0 16 -11 27q-7 7 -10 7q-1 0 -3 -1t-4 -1q-15 0 -20 17q-1 3 -3 3t-5 -2zM205 233q2 0 3 4q7 22 7 57q0 25 -3 52
q-1 9 -3 9t-8 -4q-35 -22 -35 -53q0 -20 10 -35q8 -12 19 -23q7 -7 10 -7z" />
    <glyph glyph-name="uni2079" unicode="&#x2079;" 
d="M290 388q-2 0 -6 -2q-9 -5 -18 -7.5t-16 -3.5t-10 -2q-18 -6 -36 -6q-21 0 -36 11q-22 15 -31 33q-2 4 -7 11t-7 12.5t-2 11.5q0 13 4 21q12 22 26.5 39t36.5 32.5t36.5 24.5t47.5 26.5t48 26.5q30 17 65 17q19 0 26 -7q3 -3 7.5 -6t10 -7t10.5 -7q22 -16 22 -24
q0 -19 -16 -41q-5 -6 -9 -16q-10 -27 -38.5 -82t-41.5 -94q-5 -15 -17 -48.5t-19.5 -58.5t-10.5 -48q-1 -6 -11 -13t-22 -7t-20 6q-29 20 -29 30q0 3 6 19q6 17 28 74.5t30 81.5q0 3 -1 3zM362 563q-36 -17 -53 -25.5t-41 -23.5t-41 -31t-32 -37q-7 -10 -7 -13q0 -5 9 -5
q3 0 9 1q43 7 87.5 39.5t70.5 74.5q10 16 10 20q0 3 -2 3t-10 -3z" />
    <glyph glyph-name="uni2080" unicode="&#x2080;" 
d="M227 254q1 0 4 1.5t7 1.5q14 0 34 -10q24 -12 31 -24q17 -34 17 -77q0 -61 -33 -139q0 -1 -4 -12t-8.5 -21t-16.5 -32.5t-30 -49.5q-21 -32 -51 -51.5t-57 -19.5q-22 0 -56.5 21t-47.5 48q-11 22 -11 59q0 62 39 149q30 65 113 163q7 8 30 8q13 0 21 -4q3 -1 7 -4t7.5 -5
t4.5 -2zM93 -122q13 0 36 20.5t45 60.5q1 2 8.5 13.5t10.5 18.5q1 3 12 28t18.5 44.5t14.5 48t7 48.5q0 36 -21 50q-4 2 -6 2q-4 0 -8 -6q-79 -89 -115 -187q-4 -10 -5.5 -17t-2 -12t-1.5 -7q-8 -34 -8 -69q0 -14 4 -22q8 -14 11 -14z" />
    <glyph glyph-name="uni2081" unicode="&#x2081;" 
d="M155 -74q41 157 50 194q0 2 -2 2q-1 0 -7 -7q-53 -65 -88.5 -103.5t-46.5 -48t-12 -11.5q-3 -7 -22 -7q-15 0 -22 7q-2 2 -8 5.5t-8 6.5q-11 12 -11 18q0 5 13 18q16 16 43 35q15 11 31 28q58 64 138 159q24 29 54 79q4 6 18 6q19 0 37.5 -10t18.5 -25q0 -3 -2 -9
q-16 -40 -31 -89.5t-23.5 -82.5t-23.5 -95.5l-21 -87.5q-7 -26 -7 -43q0 -34 -23 -34q-4 0 -10 -1t-9 -1q-24 0 -40 14q-4 4 -4 15q0 10 4 26q2 11 7.5 24t6.5 18z" />
    <glyph glyph-name="uni2082" unicode="&#x2082;" 
d="M232 253q-34 0 -77 -57q-2 -2 -9.5 -10t-9.5 -13q-6 -13 -20 -15q-5 -1 -10.5 -2t-6.5 -1q-19 0 -29 10q-13 13 -13 32q0 11 19 36q16 23 64 52q36 22 91 22q25 0 53.5 -24t28.5 -41q0 -90 -95 -191q-13 -14 -54 -54.5t-66 -67t-25 -31.5q0 -2 5 -3q9 -2 41 -2
q45 0 61 7.5t25 30.5q9 21 12 24q11 11 32 11q20 0 35 -17q5 -5 5 -15q0 -18 -10 -44.5t-15 -32.5q-11 -13 -39 -18t-92 -5q-109 0 -130 17q-29 23 -29 48q0 12 24 37q15 16 76 77q166 166 166 228q0 12 -8 12z" />
    <glyph glyph-name="uni2083" unicode="&#x2083;" 
d="M210 238q-59 -31 -59 -46q0 -6 -3 -9.5t-8 -6.5t-8 -7q-4 -6 -26 -6q-16 0 -22 6q-17 17 -17 30t5.5 21.5t21.5 21.5t19 16t13.5 5.5t13.5 4.5q54 33 90 33q23 0 37 -10q3 -2 9 -4q19 -6 27 -22q4 -8 4 -16q0 -9 -7 -25q-1 -2 -3 -8t-4 -9q-33 -58 -73 -100
q67 -14 67 -85q0 -36 -26 -90q-23 -49 -53 -78t-79 -29q-63 0 -134 84q-11 13 -11 25q0 17 23 17q10 0 18 1t11 1q14 0 21 -9q3 -4 10 -10t10.5 -11t3.5 -10q0 -6 14.5 -17.5t26.5 -11.5q6 0 12 4q36 24 60 77q19 42 19 58q0 14 -8 26q-4 6 -12 6q-5 0 -15 -4q-3 -1 -10 -3
t-11 -4q-46 -25 -65 -25q-10 0 -19 3t-14.5 12.5t-5.5 18.5q0 6 3 9q11 9 30 20q7 4 12 10l6 5q69 46 112 132q3 6 3 9q0 2 -2 2q-3 0 -7 -2z" />
    <glyph glyph-name="uni2084" unicode="&#x2084;" 
d="M154 -59q0 3 -5 3q-68 0 -106 15q-14 6 -28 28t-14 29q0 15 8 24q6 7 42 48t53.5 60.5t50.5 52.5t62 58q12 10 15 15q11 17 28 17q9 0 20 -4q28 -11 28 -30q0 -9 -6 -25t-6 -20q0 -15 -6 -36q0 -1 -13 -43.5t-20 -68.5q-10 -38 -10 -45q0 -3 3 -3l7 2l17.5 2.5t21.5 1.5
q26 0 37 -11q3 -3 7 -11q6 -13 6 -20q0 -5 -3 -8t-9 -4.5t-12.5 -2t-17 -1t-17.5 -1.5q-31 -4 -49 -9q-7 -15 -10.5 -33t-5.5 -41.5t-4 -34.5q-2 -16 -14 -16q-19 0 -52 20q-10 6 -10 20q0 10 6 41l4 20q2 10 2 11zM193 143q-48 -55 -108 -128q-3 -5 -3 -6q0 -4 10 -6
q11 -2 41 -2q8 0 28 2q7 1 8 8q4 26 30 115q7 24 7 25q0 3 -1 3q-2 0 -12 -11z" />
    <glyph glyph-name="uni2085" unicode="&#x2085;" 
d="M159 132q22 9 49 9q58 0 86 -40q15 -21 15 -55q0 -52 -39 -123q-55 -103 -131 -103q-60 0 -127 71q-19 21 -19 29q0 7 7 10q2 1 12 10t22 9q18 0 31 -9q13 -8 22 -23.5t13 -19.5q21 -21 33 -21q6 0 16 9q36 31 61 95q2 5 5 18t6 20q8 21 8 44q0 27 -14 27q-33 0 -85 -52
q-10 -10 -23 -10q-16 0 -39 13q-14 8 -14 14q0 3 2 7q10 32 29.5 96t27.5 89q2 7 17.5 15.5t27.5 8.5q7 0 11 -1t6 -2t3 -1q8 0 21 2q84 15 125 15q21 0 41 -15.5t20 -28.5q0 -8 -8.5 -15t-22.5 -7q-2 0 -13.5 2t-21.5 2q-78 0 -135 -17q-8 -2 -9 -8l-14 -44q-5 -16 -5 -18
t3 -2z" />
    <glyph glyph-name="uni2086" unicode="&#x2086;" 
d="M289 233q-3 0 -11 -6q-85 -69 -132 -162q-5 -10 -5 -12q0 -1 2 -1q21 15 65 28q21 7 40 7q29 0 42 -16q3 -3 7.5 -8.5t7.5 -9t6 -8t4.5 -8.5t1.5 -8q0 -7 -5 -21q-35 -98 -132 -164q-20 -13 -51 -13q-41 0 -69 22q-4 3 -15.5 11.5t-16.5 13.5q-15 15 -15 43q0 17 6 35
q63 187 155 267q4 4 19 18t24.5 22.5t25.5 16.5t30 8q18 0 34 -9.5t19 -16.5q3 -8 3 -14q0 -18 -23 -18q-4 0 -10 1.5t-7 1.5zM213 12q-38 -17 -65.5 -37t-33.5 -30q-1 -2 -7.5 -10.5t-10.5 -16t-4 -14.5q0 -6 5 -12t10 -6q21 0 60 38q27 26 59 82q4 7 4 9t-2 2q-3 0 -15 -5
z" />
    <glyph glyph-name="uni2087" unicode="&#x2087;" 
d="M128 33q-42 0 -51 17q-7 14 -7 29q0 19 17 19q11 0 22 -4q10 -4 33 -4q27 0 30 3l8 9q65 87 83 123q4 8 4 12q0 5 -21 5q-64 0 -89 -21q-5 -5 -10 -23t-24 -18q-25 0 -37 15q-6 7 -8 21t-4 19q-4 8 -4 15q0 16 19 23t58 13l38 5q24 3 65 3q55 0 68 -8q41 -25 41 -44
q0 -8 -3.5 -17.5t-6 -14.5t-10.5 -17t-10 -14q-15 -23 -41 -55q-14 -17 -14 -19t4 -2q37 0 55 -19q8 -8 8 -19q0 -18 -13 -18q-3 0 -10 1t-11 1q-18 0 -31 -2t-27.5 -5.5t-26.5 -5.5q-96 -139 -96 -185q0 -12 -8 -12q-2 0 -9 -6t-14 -6q-10 0 -18 4q-13 6 -19 14
q-15 18 -15 21q0 31 88 164q0 3 -3 3z" />
    <glyph glyph-name="uni2088" unicode="&#x2088;" 
d="M119 92q0 5 -0.5 15t-0.5 16q0 93 29 139.5t71 46.5q21 0 46 -9q10 -3 15.5 -10t7.5 -8q47 -20 75 -92q4 -10 4 -21q0 -31 -28 -45q-112 -56 -136 -66q-8 -3 -8 -10q0 -3 3 -44.5t3 -70.5q0 -99 -33 -104q-2 0 -9 -2t-13 -2q-32 0 -50 11q-37 22 -66.5 57.5t-29.5 73.5
q0 18 5 31.5t18.5 26t23 19t33 19.5t33.5 19q7 5 7 10zM237 245q-22 -15 -34 -48q-8 -27 -8 -63q0 -3 2 -3q3 0 18 8q7 4 32.5 15t36.5 20q9 8 9 21q0 16 -11 27q-7 7 -10 7q-1 0 -3 -1t-4 -1q-15 0 -20 17q-1 3 -3 3t-5 -2zM113 -110q2 0 3 4q7 22 7 57q0 25 -3 52
q-1 9 -3 9t-8 -4q-35 -22 -35 -53q0 -20 10 -35q8 -12 19 -23q7 -7 10 -7z" />
    <glyph glyph-name="uni2089" unicode="&#x2089;" 
d="M201 57q-2 0 -6 -2q-9 -5 -19 -8t-19 -5t-11 -3q-18 -6 -34 -6q-21 0 -36 11q-5 3 -11 7l-9 6t-6.5 6t-6.5 10q-2 4 -6.5 9.5t-6 10t-1.5 10.5q0 13 4 21q12 22 26.5 39t36.5 32.5t36.5 24.5t47.5 26.5t48 26.5q30 17 65 17q19 0 26 -7q3 -3 7.5 -6t10 -7t10.5 -7
q22 -16 22 -24q0 -19 -16 -41q-5 -6 -9 -16q-10 -27 -38.5 -82t-41.5 -94q-5 -15 -17 -48.5t-19.5 -58.5t-10.5 -48q-1 -6 -11 -13t-22 -7t-20 6q-29 20 -29 30q0 3 6 19q7 19 20 53t23.5 62t18.5 53q0 3 -2 3zM270 220q-36 -17 -53 -25.5t-41 -23.5t-41 -31t-32 -37
q-8 -11 -8 -13t3 -2q4 0 15 4q58 21 101 54.5t61 63.5q7 12 7 13t-2 1z" />
    <glyph glyph-name="Euro" unicode="&#x20ac;" horiz-adv-x="506" 
d="M554 656q0 -1 21.5 -23t25.5 -39q1 -5 1 -11q0 -8 -8 -28q0 -18 -17.5 -45t-17.5 -43q0 -8 -11 -13.5t-20 -5.5q-5 0 -29 4l-9 5q-8 5 -16 12.5t-8 12.5q0 21 16.5 45t18.5 36q0 2 6 12.5t6 17.5q0 15 -9 15q-25 0 -62 -13t-57 -27q-24 -22 -64.5 -69.5t-48.5 -67.5
q81 9 91 9q24 0 34 -10q4 -4 4 -17q0 -20 -9 -40q-4 -8 -16 -8h-15q-26 0 -49 -3l-90 -11q-23 -47 -28 -57q43 3 92 11q34 5 60 5q20 0 29 -8q11 -9 11 -16q0 -5 -11 -45q-2 -7 -9 -7q-4 0 -12 1t-12 1q-14 0 -20 -1q-83 -14 -149 -14h-8q-4 -11 -19 -59q-5 -16 -5 -58
q0 -7 4.5 -19t8.5 -16q5 -4 11.5 -10.5t10.5 -9.5t9.5 -6t11.5 -3q85 0 232 126q13 13 19 16.5t19 3.5h16q23 0 34 -19q6 -10 6 -16q0 -2 -13 -15q-8 -7 -47.5 -42t-56 -46.5t-50 -33t-64.5 -29.5t-66 -8q-48 0 -78 14q-26 12 -52 35t-29 42q-5 38 -5 61q0 46 11 93
q-40 2 -45 5q-29 20 -29 57q0 2 1.5 4l3 4t2.5 5q3 8 18 8q4 0 14 -1.5t27 -4t36 -3.5l23 52q-71 3 -91 10q-17 5 -17 56q0 4 9 15q5 6 15 6q8 0 16 -2q47 -11 106 -11q91 161 218 235q13 6 51.5 11.5t65.5 5.5q24 0 43 -9q12 -6 14 -9z" />
    <glyph glyph-name="uni2117" unicode="&#x2117;" horiz-adv-x="796" 
d="M422 -20q-40 0 -93 13.5t-81 34.5q-27 20 -42 34t-39.5 44t-36.5 72.5t-12 95.5q0 96 43 185.5t126 150t185 60.5q77 0 125 -13t89 -54q4 -4 25 -23t35.5 -36t28.5 -40q36 -64 36 -134q0 -38 -8.5 -80t-27.5 -90t-57 -94t-90 -78q-47 -29 -94 -38.5t-112 -9.5zM498 603
q-71 0 -130.5 -31.5t-97 -83t-58.5 -114.5t-21 -128q0 -55 20 -96.5t53 -64t70.5 -33.5t79.5 -11q76 0 138.5 30.5t100 80t58 109t20.5 120.5q0 112 -63 167t-170 55zM521 526q31 9 57 9q48 0 73 -30q20 -24 20 -70q0 -32 -37 -90q-26 -41 -54 -71t-75 -64q-15 -11 -65 -11
q-11 0 -23 3.5t-19 7.5l-8 4q-3 0 -6 -11l-13 -44q-8 -20 -8 -47q0 -7 -8 -12q-9 -6 -23 -6q-16 0 -23 10q-2 3 -11.5 7.5t-13.5 11.5q-2 3 -2 9q0 23 31 104q12 31 12 42q0 3 -7 11.5t-7 13.5q0 16 33 27q3 1 6 9l10 27q7 16 7 19t-3 4q-4 2 -13.5 16.5t-9.5 22.5q0 6 4 13
q4 6 13 12q66 45 163 73zM557 462q-53 -13 -85 -34q-5 -3 -8 -11q-32 -73 -48 -114q-3 -8 -3 -14q0 -5 10 -16q12 -13 17 -13t23 13q54 39 96 101q38 55 38 87q0 5 -7 5q-17 0 -33 -4z" />
    <glyph glyph-name="trademark" unicode="&#x2122;" horiz-adv-x="776" 
d="M801 600q4 5 9 12.5t7.5 11t7 6.5t10.5 3q10 0 14.5 -2.5t6.5 -2.5t7 -2t11 -8t6 -14q0 -5 -6 -14q-60 -90 -95 -202.5t-35 -173.5q0 -12 -13 -12q-5 0 -11 1.5t-15 1.5q-10 0 -27 12q-5 4 -5 9q0 14 1 24.5t2.5 17t5 20.5t6.5 29q3 13 14.5 54.5t13.5 50.5q0 2 -2 2
q-1 0 -5 -2q-65 -67 -76 -87q-6 -10 -23 -10q-5 0 -12 1.5t-15 1.5q-17 0 -29 20q-12 19 -12 53q0 6 1.5 26t1.5 22q0 4 -2 4q-1 0 -2 -3q-41 -62 -58 -117q-3 -8 -10.5 -26.5t-11 -31.5t-3.5 -26q0 -3 -6.5 -8t-9.5 -5q-6 0 -10.5 -3.5t-6.5 -3.5q-3 0 -13 6t-12 6
q-3 0 -7.5 8.5t-4.5 15.5q0 19 22 72q29 72 79.5 160t74.5 143q2 5 9 5q2 0 8.5 1.5t14.5 1.5q6 0 9.5 -0.5t5 -1t3 -1.5t2 -2.5t3 -3t5.5 -2.5q6 -2 6 -17q0 -8 -17 -64q-2 -5 -3 -16.5t-2 -18.5q-5 -27 -5 -111q0 -9 4 -9q3 0 4 3q32 41 109 116t81 80zM220 441
q22 58 52 117q0 4 -5 4q-60 -5 -61 -5q-35 0 -47 14q-3 3 -3 34q0 21 19 21q2 0 7 -1t19.5 -2.5t39.5 -1.5q42 0 110 12t93 12q80 0 80 -16q0 -6 -1.5 -14.5t-1.5 -14.5q0 -5 -2.5 -8.5t-8.5 -7.5l-5 -5q-4 -4 -28 -4q-1 0 -14.5 4.5t-34.5 4.5q-14 0 -22 -1.5t-21.5 -4.5
t-34.5 -5q1 -1 1 -11q0 -4 -4 -12q-25 -42 -54.5 -110.5t-44.5 -125.5q-2 -22 -2 -40q0 -3 0.5 -9.5t0.5 -10.5q0 -26 -23 -26q-16 0 -44 16q-11 6 -11 19q0 4 6 29t18.5 67.5t26.5 81.5z" />
    <glyph glyph-name="Omega" unicode="&#x2126;" horiz-adv-x="722" 
d="M320 69q11 -7 11 -18q0 -8 -6 -21.5t-6 -20.5q0 -3 -4 -6t-14.5 -6t-26.5 -3q-2 0 -56 -3.5t-75 -3.5q-54 0 -54 9q0 4 -4 6q-17 8 -17 46q0 8 4 11t17 3q27 0 47.5 -1t42.5 -1q26 0 26 7q0 4 -14 19q-69 73 -69 201q0 80 31 152t80.5 121t110.5 78t121 29
q68 0 108.5 -12.5t71.5 -52.5q6 -7 21.5 -24t27.5 -33.5t21 -38.5q21 -50 21 -112q0 -66 -36 -156t-108 -150q-6 -5 -6 -9q0 -5 9 -5q1 0 39.5 2.5t48.5 2.5q6 0 12 -3.5t6 -6.5q0 -2 -2.5 -5t-2.5 -7q0 -1 1 -3.5t1 -7.5t-2 -10.5t-5.5 -12t-4.5 -10.5q-5 -8 -12 -8
q-29 0 -50.5 -1.5t-34.5 -1.5q-10 0 -28.5 0.5t-30.5 0.5q-10 0 -38.5 -1.5t-30.5 -1.5q-15 0 -15 18q0 14 6.5 26t6.5 14q0 10 14 18q5 3 9.5 7t7.5 6q17 10 56 51q30 30 65.5 106.5t35.5 160.5q0 187 -166 187q-100 0 -183.5 -95t-83.5 -232q0 -72 25.5 -117t80.5 -81z
" />
    <glyph glyph-name="uni2150" unicode="&#x2150;" horiz-adv-x="950" 
d="M238 269q41 157 50 194q0 2 -2 2q-1 0 -7 -7q-53 -65 -88.5 -103.5t-46.5 -48t-12 -11.5q-4 -7 -22 -7q-15 0 -22 7q-2 2 -8 5.5t-8 6.5q-11 12 -11 18q0 5 13 18q16 16 43 35q15 11 31 28q58 64 138 159q24 29 54 79q4 6 18 6q19 0 37.5 -10t18.5 -25q0 -3 -2 -9
q-16 -40 -31 -89.5t-23.5 -82.5t-23.5 -95.5l-21 -87.5q-7 -26 -7 -43q0 -34 -23 -34q-3 0 -9 -1t-10 -1q-24 0 -40 14q-4 4 -4 15q0 10 4 26q2 11 7.5 24t6.5 18zM789 634q0 -18 -1.5 -23t-7.5 -7q-7 -2 -15 -11q-9 -11 -21 -19.5t-16 -13.5q-52 -69 -103.5 -148.5
t-113 -180.5t-102.5 -165q-28 -43 -49.5 -69.5t-27.5 -26.5q-22 0 -33 8q-16 12 -16 26q0 35 11 38q7 2 16.5 13t34.5 50l305 470q16 25 39 52t32 34q19 14 32 14t27 -12q9 -7 9 -29zM768 183q-42 0 -51 17q-7 14 -7 29q0 19 17 19q11 0 22 -4q10 -4 33 -4q27 0 30 3l8 9
q65 87 83 123q4 8 4 12q0 5 -21 5q-64 0 -89 -21q-5 -5 -10 -23t-24 -18q-25 0 -37 15q-6 7 -8 21t-4 19q-4 8 -4 15q0 16 19 23t58 13l38 5q24 3 65 3q55 0 68 -8q41 -25 41 -44q0 -8 -3.5 -17.5t-6 -14.5t-10.5 -17t-10 -14q-15 -23 -41 -55q-14 -18 -14 -19q0 -2 4 -2
q37 0 55 -19q8 -8 8 -19q0 -18 -13 -18q-3 0 -10 1t-11 1q-18 0 -31 -2t-27.5 -5.5t-26.5 -5.5q-96 -139 -96 -185q0 -12 -8 -12q-2 0 -9 -6t-14 -6q-10 0 -18 4q-13 6 -19 14q-15 18 -15 21q0 31 88 164q0 3 -3 3z" />
    <glyph glyph-name="uni2151" unicode="&#x2151;" horiz-adv-x="950" 
d="M238 269q41 157 50 194q0 2 -2 2q-1 0 -7 -7q-53 -65 -88.5 -103.5t-46.5 -48t-12 -11.5q-4 -7 -22 -7q-15 0 -22 7q-2 2 -8 5.5t-8 6.5q-11 12 -11 18q0 5 13 18q16 16 43 35q15 11 31 28q58 64 138 159q24 29 54 79q4 6 18 6q19 0 37.5 -10t18.5 -25q0 -3 -2 -9
q-16 -40 -31 -89.5t-23.5 -82.5t-23.5 -95.5l-21 -87.5q-7 -26 -7 -43q0 -34 -23 -34q-3 0 -9 -1t-10 -1q-24 0 -40 14q-4 4 -4 15q0 10 4 26q2 11 7.5 24t6.5 18zM812 634q0 -18 -1.5 -23t-7.5 -7q-7 -2 -15 -11q-9 -11 -21 -19.5t-16 -13.5q-52 -69 -103.5 -148.5
t-113 -180.5t-102.5 -165q-28 -43 -49.5 -69.5t-27.5 -26.5q-22 0 -33 8q-16 12 -16 26q0 35 11 38q7 2 16.5 13t34.5 50l305 470q16 25 39 52t32 34q19 14 32 14t27 -12q9 -7 9 -29zM841 207q-2 0 -6 -2q-9 -5 -19 -8t-19 -5t-11 -3q-18 -6 -34 -6q-21 0 -36 11q-5 3 -11 7
l-9 6t-6.5 6t-6.5 10q-2 4 -6.5 9.5t-6 10t-1.5 10.5q0 13 4 21q12 22 26.5 39t36.5 32.5t36.5 24.5t47.5 26.5t48 26.5q30 17 65 17q19 0 26 -7q3 -3 7.5 -6t10 -7t10.5 -7q22 -16 22 -24q0 -19 -16 -41q-5 -6 -9 -16q-10 -27 -38.5 -82t-41.5 -94q-5 -15 -17 -48.5
t-19.5 -58.5t-10.5 -48q-1 -6 -11 -13t-22 -7t-20 6q-29 20 -29 30q0 3 6 19q7 19 20 53t23.5 62t18.5 53q0 3 -2 3zM910 370q-36 -17 -53 -25.5t-41 -23.5t-41 -31t-32 -37q-8 -11 -8 -13t3 -2q4 0 15 4q58 21 101 54.5t61 63.5q7 12 7 13t-2 1z" />
    <glyph glyph-name="uni2152" unicode="&#x2152;" horiz-adv-x="1132" 
d="M238 269q41 157 50 194q0 2 -2 2q-1 0 -7 -7q-53 -65 -88.5 -103.5t-46.5 -48t-12 -11.5q-4 -7 -22 -7q-15 0 -22 7q-2 2 -8 5.5t-8 6.5q-11 12 -11 18q0 5 13 18q16 16 43 35q15 11 31 28q58 64 138 159q24 29 54 79q4 6 18 6q19 0 37.5 -10t18.5 -25q0 -3 -2 -9
q-16 -40 -31 -89.5t-23.5 -82.5t-23.5 -95.5l-21 -87.5q-7 -26 -7 -43q0 -34 -23 -34q-3 0 -9 -1t-10 -1q-24 0 -40 14q-4 4 -4 15q0 10 4 26q2 11 7.5 24t6.5 18zM817 634q0 -18 -1.5 -23t-7.5 -7q-7 -2 -15 -11q-9 -11 -21 -19.5t-16 -13.5q-52 -69 -103.5 -148.5
t-113 -180.5t-102.5 -165q-28 -43 -49.5 -69.5t-27.5 -26.5q-22 0 -33 8q-16 12 -16 26q0 35 11 38q7 2 16.5 13t34.5 50l305 470q16 25 39 52t32 34q19 14 32 14t27 -12q9 -7 9 -29zM763 76q41 157 50 194q0 2 -2 2q-1 0 -7 -7q-53 -65 -88.5 -103.5t-46.5 -48t-12 -11.5
q-3 -7 -22 -7q-15 0 -22 7q-2 2 -8 5.5t-8 6.5q-11 12 -11 18q0 5 13 18q16 16 43 35q15 11 31 28q58 64 138 159q24 29 54 79q4 6 18 6q19 0 37.5 -10t18.5 -25q0 -3 -2 -9q-16 -40 -31 -89.5t-23.5 -82.5t-23.5 -95.5l-21 -87.5q-7 -26 -7 -43q0 -34 -23 -34q-3 0 -9 -1
t-10 -1q-24 0 -40 14q-4 4 -4 15q0 10 4 26q2 11 7.5 24t6.5 18zM1174 404q1 0 4 1.5t7 1.5q14 0 34 -10q24 -12 31 -24q17 -34 17 -77q0 -61 -33 -139q0 -1 -4 -12t-8.5 -21t-16.5 -32.5t-30 -49.5q-21 -32 -51 -51.5t-57 -19.5q-22 0 -56.5 21t-47.5 48q-11 22 -11 59
q0 62 39 149q30 65 113 163q7 8 30 8q13 0 21 -4q3 -1 7 -4t7.5 -5t4.5 -2zM1040 28q13 0 36 20.5t45 60.5q1 2 8.5 13.5t10.5 18.5q1 3 12 28t18.5 44.5t14.5 48t7 48.5q0 36 -21 50q-4 2 -6 2q-3 0 -8 -6q-79 -89 -115 -187q-4 -10 -5.5 -17t-2 -12t-1.5 -7q-8 -34 -8 -69
q0 -14 4 -22q8 -14 11 -14z" />
    <glyph glyph-name="onethird" unicode="&#x2153;" horiz-adv-x="965" 
d="M238 269q41 157 50 194q0 2 -2 2q-1 0 -7 -7q-53 -65 -88.5 -103.5t-46.5 -48t-12 -11.5q-4 -7 -22 -7q-15 0 -22 7q-2 2 -8 5.5t-8 6.5q-11 12 -11 18q0 5 13 18q16 16 43 35q15 11 31 28q58 64 138 159q24 29 54 79q4 6 18 6q19 0 37.5 -10t18.5 -25q0 -3 -2 -9
q-16 -40 -31 -89.5t-23.5 -82.5t-23.5 -95.5l-21 -87.5q-7 -26 -7 -43q0 -34 -23 -34q-3 0 -9 -1t-10 -1q-24 0 -40 14q-4 4 -4 15q0 10 4 26q2 11 7.5 24t6.5 18zM817 634q0 -18 -1.5 -23t-7.5 -7q-7 -2 -15 -11q-9 -11 -21 -19.5t-16 -13.5q-52 -69 -103.5 -148.5
t-113 -180.5t-102.5 -165q-28 -43 -49.5 -69.5t-27.5 -26.5q-22 0 -33 8q-16 12 -16 26q0 35 11 38q7 2 16.5 13t34.5 50l305 470q16 25 39 52t32 34q19 14 32 14t27 -12q9 -7 9 -29zM865 388q-59 -31 -59 -46q0 -6 -3 -9.5t-8 -6.5t-8 -7q-5 -6 -26 -6q-16 0 -22 6
q-17 17 -17 30t5.5 21.5t21.5 21.5t19 16t13.5 5.5t13.5 4.5q54 33 90 33q23 0 37 -10q3 -2 9 -4q19 -6 27 -22q4 -8 4 -16q0 -9 -7 -25q-1 -2 -3 -8t-4 -9q-33 -58 -73 -100q67 -14 67 -85q0 -36 -26 -90q-23 -49 -53 -78t-79 -29q-63 0 -134 84q-11 13 -11 25q0 17 23 17
q10 0 18 1t11 1q13 0 21 -9q3 -4 10 -10t10.5 -11t3.5 -10q0 -6 14.5 -17.5t26.5 -11.5q6 0 12 4q36 24 60 77q19 42 19 58q0 14 -8 26q-4 6 -12 6q-5 0 -15 -4q-3 -1 -10 -3t-11 -4q-46 -25 -65 -25q-10 0 -19 3t-14.5 12.5t-5.5 18.5q0 6 3 9q11 9 30 20q5 3 9 6.5t6 5.5
l3 3q69 46 112 132q3 6 3 9q0 2 -2 2q-3 0 -7 -2z" />
    <glyph glyph-name="twothirds" unicode="&#x2154;" horiz-adv-x="950" 
d="M300 596q-34 0 -77 -57q-2 -2 -9.5 -10t-9.5 -13q-6 -13 -20 -15q-5 -1 -10.5 -2t-6.5 -1q-19 0 -29 10q-13 13 -13 32q0 11 19 36q16 23 64 52q36 22 91 22q25 0 53.5 -24t28.5 -41q0 -90 -95 -191q-13 -14 -54 -54.5t-66 -67t-25 -31.5q0 -2 5 -3q9 -2 41 -2
q45 0 61 7.5t25 30.5q9 21 12 24q11 11 32 11q20 0 35 -17q5 -5 5 -15q0 -18 -10 -44.5t-15 -32.5q-11 -13 -39 -18t-92 -5q-109 0 -130 17q-29 23 -29 48q0 11 24 37q15 16 76 77q166 166 166 228q0 12 -8 12zM802 634q0 -18 -1.5 -23t-7.5 -7q-7 -2 -15 -11
q-9 -11 -21 -19.5t-16 -13.5q-52 -69 -103.5 -148.5t-113 -180.5t-102.5 -165q-28 -43 -49.5 -69.5t-27.5 -26.5q-22 0 -33 8q-16 12 -16 26q0 35 11 38q7 2 16.5 13t34.5 50l305 470q16 25 39 52t32 34q19 14 32 14t27 -12q9 -7 9 -29zM850 388q-59 -31 -59 -46
q0 -6 -3 -9.5t-8 -6.5t-8 -7q-4 -6 -26 -6q-16 0 -22 6q-17 17 -17 30t5.5 21.5t21.5 21.5t19 16t13.5 5.5t13.5 4.5q54 33 90 33q23 0 37 -10q3 -2 9 -4q19 -6 27 -22q4 -8 4 -16q0 -9 -7 -25q-1 -2 -3 -8t-4 -9q-33 -58 -73 -100q67 -14 67 -85q0 -36 -26 -90
q-23 -49 -53 -78t-79 -29q-63 0 -134 84q-11 13 -11 25q0 17 23 17q10 0 18 1t11 1q14 0 21 -9q3 -4 10 -10t10.5 -11t3.5 -10q0 -6 14.5 -17.5t26.5 -11.5q6 0 12 4q36 24 60 77q19 42 19 58q0 14 -8 26q-4 6 -12 6q-5 0 -15 -4q-3 -1 -10 -3t-11 -4q-46 -25 -65 -25
q-10 0 -19 3t-14.5 12.5t-5.5 18.5q0 6 3 9q11 9 30 20q5 3 9 6.5t6 5.5l3 3q69 46 112 132q3 6 3 9q0 2 -2 2q-3 0 -7 -2z" />
    <glyph glyph-name="uni2155" unicode="&#x2155;" horiz-adv-x="950" 
d="M238 269q41 157 50 194q0 2 -2 2q-1 0 -7 -7q-53 -65 -88.5 -103.5t-46.5 -48t-12 -11.5q-4 -7 -22 -7q-15 0 -22 7q-2 2 -8 5.5t-8 6.5q-11 12 -11 18q0 5 13 18q16 16 43 35q15 11 31 28q58 64 138 159q24 29 54 79q4 6 18 6q19 0 37.5 -10t18.5 -25q0 -3 -2 -9
q-16 -40 -31 -89.5t-23.5 -82.5t-23.5 -95.5l-21 -87.5q-7 -26 -7 -43q0 -34 -23 -34q-3 0 -9 -1t-10 -1q-24 0 -40 14q-4 4 -4 15q0 10 4 26q2 11 7.5 24t6.5 18zM817 634q0 -18 -1.5 -23t-7.5 -7q-7 -2 -15 -11q-9 -11 -21 -19.5t-16 -13.5q-52 -69 -103.5 -148.5
t-113 -180.5t-102.5 -165q-28 -43 -49.5 -69.5t-27.5 -26.5q-22 0 -33 8q-16 12 -16 26q0 35 11 38q7 2 16.5 13t34.5 50l305 470q16 25 39 52t32 34q19 14 32 14t27 -12q9 -7 9 -29zM799 282q22 9 49 9q58 0 86 -40q15 -21 15 -55q0 -52 -39 -123q-55 -103 -131 -103
q-60 0 -127 71q-19 21 -19 29q0 7 7 10q2 1 12 10t22 9q18 0 31 -9q13 -8 22 -23.5t13 -19.5q21 -21 33 -21q6 0 16 9q36 31 61 95q2 5 5 18t6 20q8 21 8 44q0 27 -14 27q-33 0 -85 -52q-10 -10 -23 -10q-16 0 -39 13q-14 8 -14 14q0 3 2 7q10 32 29.5 96t27.5 89
q2 7 17.5 15.5t27.5 8.5q7 0 11 -1t6 -2t3 -1q8 0 21 2q84 15 125 15q21 0 41 -15.5t20 -28.5q0 -8 -8.5 -15t-22.5 -7q-2 0 -13.5 2t-21.5 2q-78 0 -135 -17q-8 -2 -9 -8l-14 -44q-5 -16 -5 -18t3 -2z" />
    <glyph glyph-name="uni2156" unicode="&#x2156;" horiz-adv-x="950" 
d="M315 596q-34 0 -77 -57q-2 -2 -9.5 -10t-9.5 -13q-6 -13 -20 -15q-5 -1 -10.5 -2t-6.5 -1q-19 0 -29 10q-13 13 -13 32q0 11 19 36q16 23 64 52q36 22 91 22q25 0 53.5 -24t28.5 -41q0 -90 -95 -191q-13 -14 -54 -54.5t-66 -67t-25 -31.5q0 -2 5 -3q9 -2 41 -2
q45 0 61 7.5t25 30.5q9 21 12 24q11 11 32 11q20 0 35 -17q5 -5 5 -15q0 -18 -10 -44.5t-15 -32.5q-11 -13 -39 -18t-92 -5q-109 0 -130 17q-29 23 -29 48q0 11 24 37q15 16 76 77q166 166 166 228q0 12 -8 12zM830 634q0 -18 -1.5 -23t-7.5 -7q-7 -2 -15 -11
q-9 -11 -21 -19.5t-16 -13.5q-52 -69 -103.5 -148.5t-113 -180.5t-102.5 -165q-28 -43 -49.5 -69.5t-27.5 -26.5q-22 0 -33 8q-16 12 -16 26q0 35 11 38q7 2 16.5 13t34.5 50l305 470q16 25 39 52t32 34q19 14 32 14t27 -12q9 -7 9 -29zM799 282q22 9 49 9q58 0 86 -40
q15 -21 15 -55q0 -52 -39 -123q-55 -103 -131 -103q-60 0 -127 71q-19 21 -19 29q0 7 7 10q2 1 12 10t22 9q18 0 31 -9q13 -8 22 -23.5t13 -19.5q21 -21 33 -21q6 0 16 9q36 31 61 95q2 5 5 18t6 20q8 21 8 44q0 27 -14 27q-33 0 -85 -52q-10 -10 -23 -10q-16 0 -39 13
q-14 8 -14 14q0 3 2 7q10 32 29.5 96t27.5 89q2 7 17.5 15.5t27.5 8.5q7 0 11 -1t6 -2t3 -1q8 0 21 2q84 15 125 15q21 0 41 -15.5t20 -28.5q0 -8 -8.5 -15t-22.5 -7q-2 0 -13.5 2t-21.5 2q-78 0 -135 -17q-8 -2 -9 -8l-14 -44q-5 -16 -5 -18t3 -2z" />
    <glyph glyph-name="uni2157" unicode="&#x2157;" horiz-adv-x="950" 
d="M293 581q-59 -31 -59 -46q0 -6 -3 -9.5t-8 -6.5t-8 -7q-4 -6 -26 -6q-16 0 -22 6q-17 17 -17 30t5.5 21.5t21.5 21.5t19 16t13.5 5.5t13.5 4.5q54 33 90 33q23 0 37 -10q3 -2 9 -4q19 -6 27 -22q4 -8 4 -16q0 -9 -7 -25q-1 -2 -3 -8t-4 -9q-33 -58 -73 -100
q67 -14 67 -85q0 -36 -26 -90q-23 -49 -53 -78t-79 -29q-63 0 -134 84q-11 13 -11 25q0 17 23 17q10 0 18 1t11 1q13 0 21 -9q3 -4 10 -10t10.5 -11t3.5 -10q0 -6 14.5 -17.5t26.5 -11.5q6 0 12 4q36 24 60 77q19 42 19 58q0 14 -8 26q-4 6 -12 6q-5 0 -15 -4q-3 -1 -10 -3
t-11 -4q-46 -25 -65 -25q-10 0 -19 3t-14.5 12.5t-5.5 18.5q0 6 3 9q11 9 30 20q7 4 13 9l5 6q69 46 112 132q3 6 3 9q0 2 -2 2q-3 0 -7 -2zM817 634q0 -18 -1.5 -23t-7.5 -7q-7 -2 -15 -11q-9 -11 -21 -19.5t-16 -13.5q-52 -69 -103.5 -148.5t-113 -180.5t-102.5 -165
q-28 -43 -49.5 -69.5t-27.5 -26.5q-22 0 -33 8q-16 12 -16 26q0 35 11 38q7 2 16.5 13t34.5 50l305 470q16 25 39 52t32 34q19 14 32 14t27 -12q9 -7 9 -29zM799 282q22 9 49 9q58 0 86 -40q15 -21 15 -55q0 -52 -39 -123q-55 -103 -131 -103q-60 0 -127 71q-19 21 -19 29
q0 7 7 10q2 1 12 10t22 9q18 0 31 -9q13 -8 22 -23.5t13 -19.5q21 -21 33 -21q6 0 16 9q36 31 61 95q2 5 5 18t6 20q8 21 8 44q0 27 -14 27q-33 0 -85 -52q-10 -10 -23 -10q-16 0 -39 13q-14 8 -14 14q0 3 2 7q10 32 29.5 96t27.5 89q2 7 17.5 15.5t27.5 8.5q7 0 11 -1t6 -2
t3 -1q8 0 21 2q84 15 125 15q21 0 41 -15.5t20 -28.5q0 -8 -8.5 -15t-22.5 -7q-2 0 -13.5 2t-21.5 2q-78 0 -135 -17q-8 -2 -9 -8l-14 -44q-5 -16 -5 -18t3 -2z" />
    </font>
</defs>
</svg>
