<?xml version="1.0" standalone="no"?>
<!DOCTYPE svg PUBLIC "-//W3C//DTD SVG 1.1//EN" "http://www.w3.org/Graphics/SVG/1.1/DTD/svg11.dtd" >
<svg>
<metadata>
Created by FontForge 20120731 at Mon Jul 22 00:30:14 2019
 By www-data
Copyright (c) 2009 by Fontsmith Ltd. All rights reserved.
</metadata>
<defs>
<font id="MovistarHeadline" horiz-adv-x="424" >
  <font-face 
    font-family="Movistar Headline"
    font-weight="400"
    font-stretch="normal"
    units-per-em="1000"
    panose-1="2 0 5 3 4 0 0 2 0 4"
    ascent="750"
    descent="-250"
    x-height="490"
    cap-height="684"
    bbox="-29 -288 1255 1188.07"
    underline-thickness="50"
    underline-position="-50"
    unicode-range="U+0020-FB02"
  />
<missing-glyph horiz-adv-x="642" 
d="M86 660h470v-660h-470v660zM480 612h-320l161 -240zM510 90v480l-160 -239zM480 49l-159 239l-161 -239h320zM134 90l159 241l-159 239v-480z" />
    <glyph glyph-name="fi" unicode="fi" horiz-adv-x="576" 
d="M500 0h-81v428h-236v-428h-81v428h-85v48l85 15v66q0 45 10.5 76.5t30.5 51.5q21 21 50.5 31.5t73.5 10.5q21 0 46 -4t41 -9v-56h-54q-38 0 -59.5 -4t-35.5 -16q-13 -11 -17.5 -32t-4.5 -54v-62h264q31 0 42 -11.5t11 -37.5v-441zM452 604q-23 0 -36 12t-13 41v3
q0 29 13 41t36 12h6q23 0 36 -12t13 -41v-3q0 -29 -13 -41t-36 -12h-6z" />
    <glyph glyph-name="fl" unicode="fl" horiz-adv-x="562" 
d="M486 0h-81v658h-105q-38 0 -59.5 -4t-35.5 -16q-13 -11 -17.5 -32t-4.5 -54v-62h133v-62h-133v-428h-81v428h-85v48l85 15v63q0 45 10.5 76.5t30.5 51.5q46 45 164 45q11 0 28.5 -0.5t38 -1t40.5 -2t37 -3.5q20 -2 27.5 -12.5t7.5 -33.5v-674z" />
    <glyph glyph-name=".notdef" horiz-adv-x="642" 
d="M86 660h470v-660h-470v660zM480 612h-320l161 -240zM510 90v480l-160 -239zM480 49l-159 239l-161 -239h320zM134 90l159 241l-159 239v-480z" />
    <glyph glyph-name=".null" horiz-adv-x="0" 
 />
    <glyph glyph-name="nonmarkingreturn" horiz-adv-x="190" 
 />
    <glyph glyph-name="space" unicode=" " horiz-adv-x="190" 
 />
    <glyph glyph-name="nonbreakingspace" unicode="&#xa0;" horiz-adv-x="190" 
 />
    <glyph glyph-name="A" unicode="A" horiz-adv-x="641" 
d="M443 205h-263l-44 -139h55v-66h-191v66h57l203 618h75q14 0 18.5 -4.5t9.5 -16.5l218 -597h56v-66h-207v66h61zM202 274h217l-114 320z" />
    <glyph glyph-name="B" unicode="B" horiz-adv-x="623" 
d="M62 66h69v552h-69v66h254q63 0 102.5 -12.5t65.5 -36.5q45 -42 45 -121q0 -52 -25 -92t-74 -57q65 -12 104 -54t39 -112q0 -44 -10.5 -76.5t-30.5 -55.5q-31 -36 -82 -51.5t-123 -15.5h-265v66zM218 66h93q46 0 79 7t55 24q19 15 29.5 38.5t10.5 61.5q0 61 -36 93
q-21 18 -53.5 25t-81.5 7h-96v-256zM218 389h99q69 0 98 32q28 30 28 87q0 54 -27 81q-17 17 -43 23t-68 6h-87v-229z" />
    <glyph glyph-name="C" unicode="C" horiz-adv-x="579" 
d="M461 525q-2 4 -4.5 15.5t-5 25.5t-4 28t-1.5 23q-14 2 -34 3.5t-41 1.5q-113 0 -169.5 -66t-56.5 -214q0 -155 62 -221q32 -35 83.5 -48t124.5 -13h106v-61q-34 -6 -73 -9.5t-65 -3.5q-169 0 -243 83q-42 47 -63 116t-21 156q0 89 22 155.5t63 111t98 67t128 22.5
q38 0 77 -5t65 -13q16 -4 16 -21v-133h-64v0z" />
    <glyph glyph-name="D" unicode="D" horiz-adv-x="684" 
d="M62 0v66h69v552h-69v66h234q95 0 155 -19t99 -59q78 -81 78 -260q0 -189 -78 -271q-37 -38 -92.5 -56.5t-142.5 -18.5h-253zM218 68h98q60 0 101 13.5t67 41.5q32 35 44 90t12 133q0 74 -14 128t-47 87q-28 28 -70.5 41.5t-111.5 13.5h-79v-548z" />
    <glyph glyph-name="E" unicode="E" horiz-adv-x="603" 
d="M62 0v66h69v552h-69v66h461q15 0 19 -3t4 -10v-147h-59q-7 18 -11.5 44.5t-4.5 49.5h-253v-234h192q10 0 13 -1.5t3 -7.5v-62h-208v-247h258q0 23 4.5 50t11.5 45h59v-148q0 -7 -4 -10t-19 -3h-466z" />
    <glyph glyph-name="F" unicode="F" horiz-adv-x="562" 
d="M218 618v-234h194q10 0 13 -1.5t3 -7.5v-62h-210v-247h81v-66h-237v66h69v552h-69v66h460q15 0 19 -3t4 -10v-147h-59q-7 18 -11.5 44.5t-4.5 49.5h-252z" />
    <glyph glyph-name="G" unicode="G" horiz-adv-x="656" 
d="M491 527q-2 3 -4 14t-4.5 24.5t-4 28t-2.5 25.5q-18 2 -45.5 3.5t-51.5 1.5q-61 0 -102 -14t-70 -46q-63 -71 -63 -223q0 -143 46.5 -212t148.5 -69q34 0 75 7t73 18v181h-106v66h191v-332h-61q-10 12 -15 31q-34 -20 -81.5 -32.5t-91.5 -12.5q-68 0 -118.5 24
t-83.5 69.5t-49 111.5t-16 149q0 94 23 162.5t67 113.5q79 81 226 81q21 0 44 -1.5t45.5 -4t42.5 -6t35 -6.5q16 -4 16 -22v-130h-64z" />
    <glyph glyph-name="H" unicode="H" horiz-adv-x="738" 
d="M451 618v66h225v-66h-69v-552h69v-66h-225v66h69v247h-302v-247h69v-66h-225v66h69v552h-69v66h225v-66h-69v-234h302v234h-69z" />
    <glyph glyph-name="I" unicode="I" horiz-adv-x="353" 
d="M133 618h-69v66h225v-66h-69v-552h69v-66h-225v66h69v552z" />
    <glyph glyph-name="J" unicode="J" horiz-adv-x="449" 
d="M137 58q38 0 62.5 5.5t40.5 19.5q26 24 26 87v448h-170v66h257v-506q0 -54 -12.5 -91.5t-37.5 -60.5q-43 -40 -129 -40q-27 0 -58 2t-60 7v63h81z" />
    <glyph glyph-name="K" unicode="K" horiz-adv-x="665" 
d="M131 618h-69v66h225v-66h-69v-276l269 309q17 20 31.5 26.5t38.5 6.5h82v-66h-76l-197 -214l201 -338h80v-64q-23 -2 -51 -3.5t-43 -1.5q-29 0 -41.5 9t-25.5 31l-178 304l-90 -98v-177h69v-66h-225v66h69v552z" />
    <glyph glyph-name="L" unicode="L" horiz-adv-x="573" 
d="M468 66q0 23 4.5 50t11.5 45h59v-148q0 -7 -4 -10t-19 -3h-458v66h69v552h-69v66h225v-66h-69v-552h250z" />
    <glyph glyph-name="M" unicode="M" horiz-adv-x="882" 
d="M820 684v-66h-69v-552h69v-66h-219v66h69v431l-198 -345h-48q-14 0 -21.5 4t-14.5 16l-181 329v-435h69v-66h-214v66h69v552h-69v66h92q26 0 36.5 -5.5t20.5 -23.5l229 -422l234 420q10 17 20.5 24t33.5 7h92z" />
    <glyph glyph-name="N" unicode="N" horiz-adv-x="763" 
d="M154 684q23 0 33.5 -4t23.5 -22l360 -510v470h-69v66h213v-66h-69v-618h-64l-376 537v-471h69v-66h-213v66h69v552h-69v66h92v0z" />
    <glyph glyph-name="O" unicode="O" horiz-adv-x="662" 
d="M331 65q52 0 87.5 19t57.5 55t31.5 87t9.5 115t-9.5 115t-31.5 87t-57.5 55.5t-87.5 19.5t-87.5 -19.5t-57.5 -55.5t-31.5 -87t-9.5 -115t9.5 -115t31.5 -87t57.5 -55t87.5 -19zM331 -14q-133 0 -204 89t-71 266t71 266.5t204 89.5t204 -89.5t71 -266.5t-71 -266
t-204 -89z" />
    <glyph glyph-name="P" unicode="P" horiz-adv-x="601" 
d="M287 66v-66h-225v66h69v552h-69v66h274q69 0 110.5 -10.5t67.5 -35.5q53 -50 53 -153q0 -214 -207 -214q-38 0 -76 3.5t-66 7.5v-216h69zM218 340h107q46 0 74.5 8t45.5 25t25 46t8 67q0 71 -35 103q-17 15 -43.5 22t-69.5 7h-112v-278z" />
    <glyph glyph-name="Q" unicode="Q" horiz-adv-x="662" 
d="M606 341q0 -118 -36 -197.5t-96 -119.5q21 -3 44 -9t46.5 -13.5t44.5 -17.5t37 -22q-4 -14 -17 -35.5t-22 -33.5l-118 59q-23 11 -39.5 18t-33 10.5t-36.5 4.5t-49 1q-133 0 -204 89t-71 266t71 266.5t204 89.5t204 -89.5t71 -266.5zM331 65q52 0 87.5 19t57.5 55
t31.5 87t9.5 115t-9.5 115t-31.5 87t-57.5 55.5t-87.5 19.5t-87.5 -19.5t-57.5 -55.5t-31.5 -87t-9.5 -115t9.5 -115t31.5 -87t57.5 -55t87.5 -19z" />
    <glyph glyph-name="R" unicode="R" horiz-adv-x="656" 
d="M287 66v-66h-225v66h69v552h-69v66h277q69 0 110.5 -11t67.5 -36t39.5 -61t13.5 -88q0 -168 -133 -203l113 -219h76v-64q-23 -2 -45.5 -3.5t-39.5 -1.5q-29 0 -44 9t-26 31l-120 240h-133v-211h69zM218 346h110q46 0 74.5 8t45.5 25t25 45.5t8 64.5q0 33 -8.5 58.5
t-25.5 41.5q-17 15 -43.5 22t-69.5 7h-116v-272z" />
    <glyph glyph-name="S" unicode="S" horiz-adv-x="567" 
d="M155 68q18 -4 48 -7t62 -3q91 0 131 36q34 31 34 85q0 23 -5.5 41.5t-18.5 32.5t-36 25t-65 24l-52 16q-50 15 -82 32.5t-51 35.5q-26 25 -37.5 55.5t-11.5 68.5q0 43 13.5 76t39.5 57q32 30 76.5 43.5t107.5 13.5q43 0 86.5 -6.5t69.5 -14.5q8 -2 12 -6t4 -14v-119h-64
q-2 4 -4 13.5t-4 21t-3.5 23.5t-1.5 21q-20 3 -49.5 5t-48.5 2q-42 0 -73 -8t-51 -28q-27 -27 -27 -71q0 -22 6 -40.5t22 -34.5q14 -13 36.5 -25.5t62.5 -24.5l55 -17q52 -17 85.5 -34.5t54.5 -42.5q37 -43 37 -119q0 -45 -13.5 -78.5t-38.5 -57.5q-62 -60 -194 -60
q-53 0 -99 6t-74 14q-9 3 -12.5 7t-3.5 14v122h64q2 -4 4 -13.5t4 -21.5t3.5 -24t1.5 -21z" />
    <glyph glyph-name="T" unicode="T" horiz-adv-x="619" 
d="M564 684q15 0 19 -3t4 -10v-147h-59q-7 18 -11.5 44.5t-4.5 49.5h-159v-552h69v-66h-225v66h69v552h-159q0 -23 -4.5 -49.5t-11.5 -44.5h-59v147q0 7 4 10t19 3h509z" />
    <glyph glyph-name="U" unicode="U" horiz-adv-x="715" 
d="M461 618v66h212v-66h-69v-386q0 -65 -16.5 -110.5t-48.5 -75.5t-77.5 -45t-100.5 -15q-64 0 -112.5 16.5t-80.5 51.5q-29 31 -43 75.5t-14 110.5v378h-69v66h225v-66h-69v-375q0 -47 9 -79.5t29 -53.5q21 -23 53 -34.5t77 -11.5q81 0 123 42q20 21 30.5 52t10.5 79v381
h-69z" />
    <glyph glyph-name="V" unicode="V" horiz-adv-x="623" 
d="M561 618l-190 -618h-78q-16 0 -21.5 4.5t-10.5 17.5l-193 596h-64v66h83q17 0 27 -1t16.5 -5t10 -10.5t6.5 -16.5l178 -565l161 532h-60v66h193v-66h-58z" />
    <glyph glyph-name="W" unicode="W" horiz-adv-x="925" 
d="M863 618l-154 -618h-81q-16 0 -22.5 5t-9.5 17l-126 548l-119 -570h-84q-16 0 -22 5t-10 17l-167 596h-64v66h83q17 0 27.5 -1t17 -5t9.5 -10.5t6 -16.5l151 -565l116 569q4 17 11 23t27 6h69l138 -603l129 537h-60v66h193v-66h-58z" />
    <glyph glyph-name="X" unicode="X" horiz-adv-x="598" 
d="M289 270l-135 -255q-5 -10 -10 -12.5t-15 -2.5h-68q-10 0 -5 9l195 328l-159 281h-68v66h86q23 0 33.5 -4t19.5 -21l141 -250l137 260q5 10 10 12.5t15 2.5h68q9 0 5 -9l-197 -332l157 -277h75v-64q-20 -2 -44.5 -3t-38.5 -1q-27 0 -41.5 7.5t-28.5 31.5z" />
    <glyph glyph-name="Y" unicode="Y" horiz-adv-x="588" 
d="M4 618v66h74q29 0 40.5 -7t21.5 -25l161 -308l146 274h-53v66h190v-66h-55l-192 -342v-210h69v-66h-225v66h69v209l-186 343h-60z" />
    <glyph glyph-name="Z" unicode="Z" horiz-adv-x="580" 
d="M60 0q-3 10 -3 27q0 19 4.5 33t18.5 35l344 523h-295q0 -23 -4.5 -49.5t-11.5 -44.5h-58v147q0 7 4 10t19 3h443q3 -11 3 -26q0 -18 -4.5 -33t-18.5 -36l-344 -523h293q0 23 4.5 50.5t11.5 45.5h58v-149q0 -7 -4 -10t-19 -3h-441z" />
    <glyph glyph-name="a" unicode="a" horiz-adv-x="529" 
d="M358 232h-100q-71 0 -100 -22q-29 -21 -29 -66q0 -38 23 -62.5t79 -24.5q31 0 64.5 5.5t62.5 16.5v153zM360 29q-32 -19 -71 -31t-79 -12q-34 0 -63.5 9.5t-52 28.5t-35.5 48t-13 68q0 67 39 106q49 50 164 50q27 0 54.5 -1t54.5 -3v43q0 30 -5.5 46.5t-16.5 27.5
q-13 12 -35 16.5t-57 4.5h-152v52q39 11 87.5 16.5t89.5 5.5q92 0 135 -45q18 -19 26.5 -45.5t8.5 -66.5v-286h66v-60q-26 -3 -49 -5t-43 -2q-25 0 -37 9.5t-16 25.5z" />
    <glyph glyph-name="b" unicode="b" horiz-adv-x="540" 
d="M166 469q33 16 70.5 25.5t72.5 9.5q47 0 79.5 -17t54.5 -46q51 -71 51 -193q0 -124 -45.5 -193t-138.5 -69q-38 0 -78.5 13t-76.5 35q-1 -8 -4.5 -18.5t-6.5 -15.5h-59v658h-68v60q8 1 20.5 2t25.5 2t25.5 1.5t21.5 0.5q31 0 45 -14q11 -11 11 -40v-201zM286 430
q-32 0 -62.5 -5.5t-57.5 -13.5v-326q26 -11 59 -18t62 -7q31 0 54 9.5t38.5 31t23 58t7.5 90.5q0 45 -7.5 78t-19.5 55q-15 26 -38.5 37t-58.5 11z" />
    <glyph glyph-name="c" unicode="c" horiz-adv-x="465" 
d="M425 6q-29 -8 -67.5 -14t-69.5 -6q-119 0 -182 69q-30 33 -46.5 81.5t-16.5 109.5q0 64 18.5 113t50.5 81q31 32 77.5 48t100.5 16q35 0 66 -4.5t54 -9.5q10 -2 13 -6.5t3 -14.5v-111h-62q-2 4 -4 13.5t-4.5 20t-4 21.5t-1.5 20q-24 3 -49 3q-42 0 -74 -9.5t-53 -31.5
q-22 -23 -34.5 -60t-12.5 -88q0 -40 9 -79t34 -65q24 -25 61 -35.5t91 -10.5h103v-51z" />
    <glyph glyph-name="d" unicode="d" horiz-adv-x="551" 
d="M380 30q-35 -20 -73 -32t-74 -12q-93 0 -140 69t-47 193q0 119 51 187.5t142 68.5q33 0 69 -10t68 -26v190h-68v60q8 1 20.5 2t25.5 2t25.5 1.5t21.5 0.5q31 0 45 -14q11 -11 11 -40v-609h66v-60q-26 -3 -49 -5t-43 -2q-25 0 -36 9.5t-15 25.5v1zM255 60q27 0 61 6t60 17
v329q-30 8 -61 13t-55 5q-68 0 -99 -45t-31 -136q0 -54 8 -90.5t23.5 -58t39 -31t54.5 -9.5z" />
    <glyph glyph-name="e" unicode="e" horiz-adv-x="506" 
d="M127 220q2 -40 10.5 -69.5t28.5 -49.5q21 -23 56 -33.5t95 -10.5h124v-50q-32 -9 -74 -15t-80 -6q-63 0 -108 16.5t-73 46.5q-32 35 -47.5 85t-15.5 112q0 57 14 104.5t41.5 81.5t67.5 53t91 19q49 0 87 -17t63.5 -49t39 -77.5t13.5 -102.5v-29q0 -9 -11 -9h-322z
M383 284q-5 72 -35 112t-91 40q-33 0 -56.5 -12t-39.5 -33t-24 -48.5t-9 -58.5h255z" />
    <glyph glyph-name="f" unicode="f" horiz-adv-x="316" 
d="M316 490v-62h-133v-428h-81v428h-85v48l85 15v66q0 45 10.5 76.5t30.5 51.5q21 21 50.5 31.5t73.5 10.5q26 0 53 -4t43 -9v-56h-63q-38 0 -59.5 -4t-35.5 -16q-13 -11 -17.5 -32t-4.5 -54v-62h133z" />
    <glyph glyph-name="g" unicode="g" horiz-adv-x="513" 
d="M459 320q0 -85 -50.5 -134.5t-149.5 -49.5q-47 0 -83 12l-18 -75h152q102 0 144 -39q40 -37 40 -108q0 -44 -16.5 -75t-47 -51t-73 -29.5t-93.5 -9.5h-11q-100 0 -156 41.5t-56 112.5q0 55 44 105q-8 9 -8 27q0 43 56 120q-37 24 -55.5 63t-18.5 90q0 85 50.5 134.5
t149.5 49.5q12 0 23 -1t22 -3l48 129q17 -5 37.5 -13t34.5 -17l-63 -114q48 -22 73 -64t25 -101zM381 320q0 54 -26.5 85.5t-95.5 31.5t-95.5 -31.5t-26.5 -85.5t26.5 -85.5t95.5 -31.5t95.5 31.5t26.5 85.5zM146 -2q-11 0 -16 1v-2q-4 -18 -6.5 -34t-2.5 -31
q0 -48 32.5 -74t109.5 -26h2q77 0 113.5 21.5t36.5 67.5q0 17 -5 32.5t-16 24.5q-13 11 -34 15.5t-55 4.5h-159z" />
    <glyph glyph-name="h" unicode="h" horiz-adv-x="576" 
d="M166 463q37 18 78 29.5t83 11.5t73 -11.5t50 -31.5t27 -47.5t8 -69.5v-283h65v-60q-8 -1 -20 -2t-24.5 -2t-24.5 -1.5t-21 -0.5q-31 0 -45 14q-11 11 -11 40v276q0 31 -5 50.5t-17 31.5t-32.5 17t-48.5 5t-62.5 -5t-72.5 -14v-410h-81v658h-68v60q8 1 20.5 2t25.5 2
t25.5 1.5t21.5 0.5q31 0 45 -14q11 -11 11 -40v-207z" />
    <glyph glyph-name="i" unicode="i" horiz-adv-x="256" 
d="M132 591q-23 0 -36 12t-13 41v3q0 29 13 41t36 12h6q23 0 36 -12t13 -41v-3q0 -29 -13 -41t-36 -12h-6zM180 0h-81v428h-70v60q8 1 21 2t26.5 2t26 1.5t21.5 0.5q31 0 45 -14q11 -11 11 -40v-440z" />
    <glyph glyph-name="j" unicode="j" horiz-adv-x="256" 
d="M132 591q-23 0 -36 12t-13 41v3q0 29 13 41t36 12h6q23 0 36 -12t13 -41v-3q0 -29 -13 -41t-36 -12h-6zM180 -64q0 -45 -7.5 -75t-24.5 -50q-33 -40 -104 -40q-17 0 -37.5 2t-34.5 5v61h41q27 0 42 4t25 15q19 20 19 81v489h-70v60q8 1 21 2t26.5 2t26 1.5t21.5 0.5
q31 0 45 -14q11 -11 11 -40v-504z" />
    <glyph glyph-name="k" unicode="k" horiz-adv-x="534" 
d="M166 256l180 200q20 23 35 28.5t42 5.5h65v-62h-69l-117 -121l155 -246h62v-58q-7 -1 -17.5 -2t-22 -2t-21 -1.5t-15.5 -0.5q-23 0 -35 6t-24 26l-137 221l-81 -80v-170h-81v658h-68v60q8 1 20.5 2t25.5 2t25.5 1.5t21.5 0.5q31 0 45 -14q11 -11 11 -40v-414z" />
    <glyph glyph-name="l" unicode="l" horiz-adv-x="242" 
d="M166 0h-81v658h-68v60q8 1 20.5 2t25.5 2t25.5 1.5t21.5 0.5q31 0 45 -14q11 -11 11 -40v-670z" />
    <glyph glyph-name="m" unicode="m" horiz-adv-x="874" 
d="M702 325q0 31 -5 50.5t-17 31.5t-32.5 17t-43.5 5q-26 0 -58 -4.5t-73 -16.5q5 -14 6.5 -30.5t1.5 -36.5v-341h-81v325q0 31 -5 50.5t-17 31.5t-32.5 17t-43.5 5q-59 0 -125 -19v-410h-81v428h-68v59q26 3 50 5t44 2q25 0 37 -7.5t17 -24.5q30 17 70.5 29.5t80.5 12.5
q38 0 70 -11.5t54 -38.5q99 50 178 50q38 0 69 -11.5t50 -31.5t27 -47.5t8 -69.5v-283h65v-60q-8 -1 -20 -2t-24.5 -2t-24.5 -1.5t-21 -0.5q-31 0 -45 14q-11 11 -11 40v276z" />
    <glyph glyph-name="n" unicode="n" horiz-adv-x="587" 
d="M561 61v-60q-8 -1 -20 -2t-24.5 -2t-24.5 -1.5t-21 -0.5q-31 0 -45 14q-11 11 -11 40v276q0 31 -5 50.5t-17 31.5t-32.5 17t-48.5 5t-62.5 -5t-72.5 -14v-410h-81v428h-68v59q26 3 50 5t44 2q25 0 37 -7t17 -24q37 18 78.5 29.5t83.5 11.5t73 -11.5t50 -31.5t27 -47.5
t8 -69.5v-283h65z" />
    <glyph glyph-name="o" unicode="o" horiz-adv-x="534" 
d="M491 245q0 -121 -57 -190t-167 -69t-167 69t-57 190t57 190t167 69t167 -69t57 -190zM407 245q0 91 -32 139t-108 48t-108 -48t-32 -139t32 -139t108 -48t108 48t32 139z" />
    <glyph glyph-name="p" unicode="p" horiz-adv-x="550" 
d="M316 -14q-35 0 -71 10t-68 29v-250h-81v653h-68v59q26 3 50 5t44 2q25 0 37 -6.5t17 -23.5q33 18 68 29t73 11q91 0 139 -68.5t48 -187.5q0 -124 -47.5 -193t-140.5 -69zM295 430q-26 0 -57 -6.5t-61 -14.5v-326q26 -11 59 -17t60 -6q31 0 54 9.5t38.5 31t23.5 58t8 90.5
q0 98 -32.5 139.5t-92.5 41.5z" />
    <glyph glyph-name="q" unicode="q" horiz-adv-x="539" 
d="M377 26q-35 -19 -72.5 -29.5t-72.5 -10.5q-93 0 -139.5 69t-46.5 193q0 121 53.5 188.5t152.5 67.5q65 0 135 -44l10 30h61v-659h68v-60q-8 -1 -20.5 -2t-25.5 -2t-25.5 -1.5t-21.5 -0.5q-31 0 -45 14q-11 11 -11 40v207zM256 59q26 0 60.5 7t60.5 18v324
q-32 11 -62.5 16.5t-55.5 5.5q-36 0 -60.5 -13t-39.5 -37t-22 -57.5t-7 -73.5q0 -97 28.5 -143.5t97.5 -46.5z" />
    <glyph glyph-name="r" unicode="r" horiz-adv-x="351" 
d="M177 0h-81v428h-68v59q26 3 50 5t44 2q25 0 38 -7.5t16 -31.5q15 9 33.5 18t37.5 15.5t37.5 11t32.5 4.5q12 0 18 -4.5t6 -16.5v-61h-26q-44 0 -75 -3t-63 -10v-409z" />
    <glyph glyph-name="s" unicode="s" horiz-adv-x="473" 
d="M124 129q3 -9 7 -30t6 -37q16 -5 45 -8t53 -3q69 0 97 24q11 9 16 23t5 30q0 34 -22.5 51t-70.5 28l-58 15q-39 10 -65 21t-43 28q-18 18 -26.5 41t-8.5 49q0 32 11 58t33 44q26 23 62 32t82 9q30 0 69.5 -3.5t67.5 -10.5q12 -3 15.5 -8.5t3.5 -14.5v-97h-60
q-4 9 -7.5 29t-5.5 35q-18 2 -40 3.5t-42 1.5q-115 0 -115 -72q0 -31 22.5 -47t70.5 -28l60 -15q42 -11 66 -22.5t41 -28.5q35 -35 35 -93q0 -67 -42 -104q-49 -43 -150 -43q-39 0 -81.5 5t-72.5 13q-11 3 -14.5 8.5t-3.5 14.5v102h60z" />
    <glyph glyph-name="t" unicode="t" horiz-adv-x="365" 
d="M98 604q17 5 39.5 9t41.5 5v-128h133v-62h-133v-276q0 -28 2.5 -45.5t11.5 -28.5q8 -11 23.5 -16t42.5 -5h91v-53q-20 -8 -52 -13t-58 -5q-38 0 -63.5 8.5t-42.5 24.5q-20 19 -28 48t-8 77v284h-85v48l85 15v113z" />
    <glyph glyph-name="u" unicode="u" horiz-adv-x="583" 
d="M172 165q0 -60 22 -82q12 -12 32.5 -17t48.5 -5t61 4.5t70 14.5v348h-65v62h146v-429h68v-58q-26 -3 -50 -5t-44 -2q-25 0 -37 9t-16 22q-37 -18 -77 -29.5t-82 -11.5t-73 11.5t-50 31.5t-27 47.5t-8 69.5v282h-65v60q17 2 45 4t45 2q31 0 45 -14q11 -11 11 -40v-275z
" />
    <glyph glyph-name="v" unicode="v" horiz-adv-x="525" 
d="M347 487h172v-59h-47l-157 -428h-56q-23 0 -30.5 6.5t-14.5 25.5l-144 396h-64v59q20 2 39.5 4t34.5 2q29 0 42.5 -6.5t22.5 -32.5l131 -376l119 350h-48v59z" />
    <glyph glyph-name="w" unicode="w" horiz-adv-x="759" 
d="M437 487l106 -411l93 352h-47v59h164v-59h-45l-120 -428h-58q-23 0 -33 6.5t-15 25.5l-96 369l-90 -401h-62q-22 0 -32 7t-15 25l-121 396h-60v59q20 2 39 4t32 2q30 0 44 -7t21 -32l106 -375l81 379q4 17 11.5 23t24.5 6h72z" />
    <glyph glyph-name="x" unicode="x" horiz-adv-x="505" 
d="M243 190l-102 -175q-6 -10 -11 -12.5t-15 -2.5h-61q-9 0 -4 9l157 236l-118 183h-61v59q17 2 37.5 3.5t33.5 1.5t21.5 -1.5t14.5 -5.5t11.5 -10.5t12.5 -16.5l102 -157l103 174q6 10 11 12.5t15 2.5h61q9 0 4 -9l-158 -235l121 -185h59v-60q-17 -2 -36.5 -3t-32.5 -1
q-25 0 -36 7.5t-25 27.5z" />
    <glyph glyph-name="y" unicode="y" horiz-adv-x="564" 
d="M173 165q0 -60 22 -82q12 -12 32.5 -17t48.5 -5t61 4.5t70 14.5v348h-65v62h146v-524q0 -57 -12.5 -94.5t-36.5 -62.5q-47 -48 -149 -48q-27 0 -60 3.5t-59 8.5v56h94q82 0 112 30q17 17 23.5 43.5t6.5 71.5v52q-37 -18 -76.5 -29t-80.5 -11q-42 0 -73 11.5t-50 31.5
t-27 47.5t-8 69.5v282h-65v60q17 2 45 4t45 2q31 0 45 -14q11 -11 11 -40v-275z" />
    <glyph glyph-name="z" unicode="z" horiz-adv-x="488" 
d="M60 0q-2 5 -2.5 12t-0.5 15q0 19 6 32.5t20 31.5l260 337h-211q-2 -15 -5.5 -37t-7.5 -33h-61v116q0 16 17 16h361q2 -5 2.5 -12t0.5 -15q0 -17 -6 -31t-20 -33l-260 -338h215q0 7 1.5 17.5t3 20.5t4 19t4.5 15h61v-117q0 -16 -17 -16h-365z" />
    <glyph glyph-name="ampersand" unicode="&#x26;" horiz-adv-x="707" 
d="M256 -14q-48 0 -88 14t-68.5 39t-44 60.5t-15.5 79.5q0 69 40 118t107 89q-26 30 -42 52t-25.5 41t-13 36.5t-3.5 37.5q0 32 12.5 58.5t34 45.5t50 29.5t61.5 10.5q36 0 65 -10.5t49 -29t31 -44.5t11 -56q0 -27 -8.5 -49.5t-25 -43t-41.5 -40.5t-57 -42l177 -200
q29 57 40.5 130t11.5 156q0 14 5 18t16 4h119v-62h-78q-2 -84 -18.5 -159.5t-51.5 -135.5l61 -69h88v-63q-6 -1 -17.5 -2.5t-23.5 -2.5t-22.5 -1.5t-15.5 -0.5q-26 0 -41 7t-34 30l-38 42q-38 -41 -89.5 -64t-117.5 -23zM222 346q-58 -42 -78 -81.5t-20 -79.5
q0 -61 37.5 -96t106.5 -35q48 0 85.5 18t66.5 50zM348 555q0 32 -22 56t-64 24q-36 0 -61 -21.5t-25 -60.5q0 -32 17.5 -59.5t56.5 -71.5q51 38 74.5 67.5t23.5 65.5z" />
    <glyph glyph-name="at" unicode="@" horiz-adv-x="778" 
d="M555 159q-32 0 -55 8t-36 19q-25 -14 -53 -22t-57 -8q-62 0 -93.5 32t-31.5 83q0 26 7.5 45t21.5 33q37 36 129 36h70v3q0 23 -3.5 38t-12.5 24q-11 11 -28 14.5t-48 3.5h-97v46q22 6 53 10t54 4q40 0 68.5 -7.5t46.5 -26.5q14 -14 22.5 -34.5t8.5 -52.5v-191
q15 -3 29 -3q26 0 45.5 8t32.5 28q27 42 27 114q0 49 -14.5 97t-46.5 86.5t-83.5 62.5t-124.5 24q-133 0 -206 -77t-73 -218t81 -214q43 -39 107 -58t155 -19h156v-44q-18 -3 -41 -6.5t-47.5 -5.5t-48 -3.5t-41.5 -1.5q-93 0 -168.5 23t-128.5 74q-45 43 -69.5 106
t-24.5 151q0 82 25.5 148t71 112.5t109.5 71.5t142 25q81 0 143.5 -25t106 -68.5t66 -102.5t22.5 -126q0 -58 -13 -100t-36 -69q-20 -23 -48.5 -35t-70.5 -12zM370 211q19 0 41.5 5t45.5 13v105h-71q-26 0 -45 -4t-30 -15q-16 -16 -16 -43q0 -33 18.5 -47t56.5 -14z" />
    <glyph glyph-name="exclam" unicode="!" horiz-adv-x="275" 
d="M168 196q0 -10 -10 -10h-51l-14 498h90zM134 -14q-23 0 -36.5 12.5t-13.5 41.5v4q0 29 13.5 41.5t36.5 12.5h7q23 0 36.5 -12.5t13.5 -41.5v-4q0 -29 -13.5 -41.5t-36.5 -12.5h-7z" />
    <glyph glyph-name="exclamdown" unicode="&#xa1;" horiz-adv-x="275" 
d="M107.01 294.012q0 10 10 10h50.9971l13.999 -497.97h-89.9951zM141.008 503.999q22.999 0 36.498 -12.499t13.499 -41.498v-3.99902q0 -28.998 -13.499 -41.498q-13.499 -12.499 -36.498 -12.499h-6.99902q-22.999 0 -36.498 12.499q-13.499 12.5 -13.499 41.498v3.99902
q0 28.999 13.499 41.498t36.498 12.499h6.99902z" />
    <glyph glyph-name="question" unicode="?" horiz-adv-x="414" 
d="M44 682q14 3 32 6t37.5 5t39 3t36.5 1q52 0 89.5 -12.5t59.5 -33.5q21 -20 33 -48t12 -64q0 -27 -4.5 -49.5t-15.5 -44.5t-29 -46t-45 -53q-27 -30 -43 -51.5t-25 -39t-12 -33.5t-4 -35h-57q-2 7 -3.5 16t-1.5 17q0 18 3.5 33.5t11 31t19.5 33t29 39.5l10 13
q23 30 38.5 52t25 40.5t13.5 35.5t4 35q0 45 -27 67q-18 15 -46.5 20t-66.5 5h-113v57zM175 -14q-23 0 -36.5 12.5t-13.5 41.5v4q0 29 13.5 41.5t36.5 12.5h7q23 0 36.5 -12.5t13.5 -41.5v-4q0 -29 -13.5 -41.5t-36.5 -12.5h-7z" />
    <glyph glyph-name="questiondown" unicode="&#xbf;" horiz-adv-x="414" 
d="M370.003 -191.958q-13.999 -3 -31.998 -6t-37.498 -5t-38.9971 -2.99902q-19.499 -1 -36.498 -1q-51.9971 0 -89.4951 12.499q-37.4971 12.499 -59.4961 33.498q-20.999 19.998 -32.998 47.9971q-11.999 27.998 -11.999 63.9961q0 26.998 4.5 49.4971
q4.49902 22.498 15.499 44.4971q10.999 21.998 28.998 45.9971q17.999 23.998 44.9971 52.9971q26.998 29.998 42.9971 51.4961q15.999 21.499 24.999 38.998q8.99902 17.499 11.999 33.498t4 34.998h56.9961q2 -7 3.5 -15.999q1.5 -9 1.5 -16.999q0 -17.999 -3.5 -33.498
t-10.999 -30.998q-7.5 -15.499 -19.499 -32.998t-28.998 -39.498l-9.99902 -12.999q-22.999 -29.998 -38.498 -51.9971q-15.499 -21.998 -24.999 -40.4971q-9.49902 -18.499 -13.499 -35.498q-3.99902 -16.999 -3.99902 -34.998q0 -44.9971 26.998 -66.9951
q17.999 -15 46.4971 -19.999q28.498 -5 66.4961 -5h112.993v-56.9961zM239.011 503.999q22.999 0 36.498 -12.499t13.499 -41.498v-3.99902q0 -28.998 -13.499 -41.498q-13.499 -12.499 -36.498 -12.499h-7q-22.998 0 -36.4971 12.499q-13.5 12.5 -13.5 41.498v3.99902
q0 28.999 13.5 41.498q13.499 12.499 36.4971 12.499h7z" />
    <glyph glyph-name="asterisk" unicode="*" horiz-adv-x="438" 
d="M219 443l-83 -129l-56 44l99 117l-145 43l24 68l136 -63l-12 161h72l-10 -161l136 63l24 -68l-145 -43l99 -117l-56 -44z" />
    <glyph glyph-name="period" unicode="." horiz-adv-x="227" 
d="M110 -14q-23 0 -36.5 12.5t-13.5 41.5v4q0 29 13.5 41.5t36.5 12.5h7q23 0 36.5 -12.5t13.5 -41.5v-4q0 -29 -13.5 -41.5t-36.5 -12.5h-7z" />
    <glyph glyph-name="comma" unicode="," horiz-adv-x="227" 
d="M103 -141v125q-22 5 -34.5 18t-12.5 39v3q0 30 14 42t37 12h1q29 0 43 -15.5t14 -53.5q0 -16 -2 -37t-5 -42.5t-6.5 -41.5t-7.5 -34q-2 -8 -6 -11.5t-15 -3.5h-20z" />
    <glyph glyph-name="colon" unicode=":" horiz-adv-x="227" 
d="M110 -14q-23 0 -36.5 12.5t-13.5 41.5v4q0 29 13.5 41.5t36.5 12.5h7q23 0 36.5 -12.5t13.5 -41.5v-4q0 -29 -13.5 -41.5t-36.5 -12.5h-7zM110 296q-23 0 -36.5 12.5t-13.5 41.5v4q0 29 13.5 41.5t36.5 12.5h7q23 0 36.5 -12.5t13.5 -41.5v-4q0 -29 -13.5 -41.5
t-36.5 -12.5h-7z" />
    <glyph glyph-name="semicolon" unicode=";" horiz-adv-x="227" 
d="M110 296q-23 0 -36.5 12.5t-13.5 41.5v4q0 29 13.5 41.5t36.5 12.5h7q23 0 36.5 -12.5t13.5 -41.5v-4q0 -29 -13.5 -41.5t-36.5 -12.5h-7zM106 -141v125q-22 5 -34.5 18t-12.5 39v3q0 30 14 42t37 12h1q29 0 43 -15.5t14 -53.5q0 -16 -2 -37t-5 -42.5t-6.5 -41.5
t-7.5 -34q-2 -8 -6 -11.5t-15 -3.5h-20z" />
    <glyph glyph-name="ellipsis" unicode="&#x2026;" horiz-adv-x="681" 
d="M110 -14q-23 0 -36.5 12.5t-13.5 41.5v4q0 29 13.5 41.5t36.5 12.5h7q23 0 36.5 -12.5t13.5 -41.5v-4q0 -29 -13.5 -41.5t-36.5 -12.5h-7zM337 -14q-23 0 -36.5 12.5t-13.5 41.5v4q0 29 13.5 41.5t36.5 12.5h7q23 0 36.5 -12.5t13.5 -41.5v-4q0 -29 -13.5 -41.5
t-36.5 -12.5h-7zM564 -14q-23 0 -36.5 12.5t-13.5 41.5v4q0 29 13.5 41.5t36.5 12.5h7q23 0 36.5 -12.5t13.5 -41.5v-4q0 -29 -13.5 -41.5t-36.5 -12.5h-7z" />
    <glyph glyph-name="periodcentered" unicode="&#xb7;" horiz-adv-x="227" 
d="M110 293q-23 0 -36.5 12.5t-13.5 41.5v4q0 29 13.5 41.5t36.5 12.5h7q23 0 36.5 -12.5t13.5 -41.5v-4q0 -29 -13.5 -41.5t-36.5 -12.5h-7z" />
    <glyph glyph-name="bullet" unicode="&#x2022;" horiz-adv-x="358" 
d="M54 358q0 66 28.5 94.5t83.5 28.5h26q55 0 83.5 -28.5t28.5 -94.5v-12q0 -66 -28.5 -94.5t-83.5 -28.5h-26q-55 0 -83.5 28.5t-28.5 94.5v12z" />
    <glyph glyph-name="slash" unicode="/" horiz-adv-x="457" 
d="M120 -14h-76l293 711h76z" />
    <glyph glyph-name="parenleft" unicode="(" horiz-adv-x="329" 
d="M74 258q0 154 52 276t152 208l41 -42q-33 -38 -61 -83.5t-48 -100t-31 -118.5t-11 -140t11 -140t31 -118.5t48 -100t61 -83.5l-41 -42q-100 86 -152 208t-52 276z" />
    <glyph glyph-name="brokenbar" unicode="&#xa6;" horiz-adv-x="239" 
d="M85 -253v389h69v-389h-69zM85 367v389h69v-389h-69z" />
    <glyph glyph-name="parenright" unicode=")" horiz-adv-x="329" 
d="M255 258q0 -154 -52 -276t-152 -208l-41 42q33 38 61 83.5t48 100t31 118.5t11 140t-11 140t-31 118.5t-48 100t-61 83.5l41 42q100 -86 152 -208t52 -276z" />
    <glyph glyph-name="bracketleft" unicode="[" horiz-adv-x="352" 
d="M122 -207v931h196v-66h-111v-799h111v-66h-196z" />
    <glyph glyph-name="backslash" unicode="\" horiz-adv-x="457" 
d="M44 697h76l293 -711h-76z" />
    <glyph glyph-name="bracketright" unicode="]" horiz-adv-x="352" 
d="M34 -207v66h111v799h-111v66h196v-931h-196z" />
    <glyph glyph-name="braceleft" unicode="{" horiz-adv-x="366" 
d="M56 291q27 6 46.5 14.5t32 23.5t18.5 38t6 58v178q0 63 28.5 92t96.5 29h42v-66h-25q-35 0 -47 -10.5t-12 -47.5v-176q0 -39 -6.5 -66t-19 -46t-30.5 -31.5t-41 -22.5q23 -11 41 -23t30.5 -31t19 -46t6.5 -66v-175q0 -37 12 -47.5t47 -10.5h25v-66h-42q-68 0 -96.5 29
t-28.5 92v177q0 34 -6 57.5t-18.5 38.5t-32 23.5t-46.5 14.5v66z" />
    <glyph glyph-name="bar" unicode="|" horiz-adv-x="239" 
d="M85 -253v1009h69v-1009h-69z" />
    <glyph glyph-name="braceright" unicode="}" horiz-adv-x="366" 
d="M310 226q-27 -6 -46.5 -14.5t-32 -23.5t-18.5 -38.5t-6 -57.5v-178q0 -63 -28.5 -92t-96.5 -29h-42v66h25q35 0 47 10.5t12 47.5v176q0 39 6.5 66t19 46t30.5 31t41 23q-23 10 -41 22.5t-30.5 31.5t-19 46t-6.5 66v175q0 37 -12 47.5t-47 10.5h-25v66h42q68 0 96.5 -29
t28.5 -92v-177q0 -35 6 -58t18.5 -38t32 -23.5t46.5 -14.5v-66z" />
    <glyph glyph-name="hyphen" unicode="-" horiz-adv-x="317" 
d="M66 226v71h185v-71h-185z" />
    <glyph glyph-name="uni00AD" unicode="&#xad;" horiz-adv-x="317" 
d="M66 226v71h185v-71h-185z" />
    <glyph glyph-name="endash" unicode="&#x2013;" horiz-adv-x="500" 
d="M0 226v71h500v-71h-500z" />
    <glyph glyph-name="emdash" unicode="&#x2014;" horiz-adv-x="1000" 
d="M0 226v71h1000v-71h-1000z" />
    <glyph glyph-name="underscore" unicode="_" horiz-adv-x="423" 
d="M24 -108v63h375v-63h-375z" />
    <glyph glyph-name="dagger" unicode="&#x2020;" horiz-adv-x="523" 
d="M30 364v83l200 -10l-10 247h83l-10 -247l200 10v-83l-200 10l10 -599h-83l10 599z" />
    <glyph glyph-name="daggerdbl" unicode="&#x2021;" horiz-adv-x="523" 
d="M293 85l200 10v-83l-200 10l10 -247h-83l10 247l-200 -10v83l200 -10v289l-200 -10v83l200 -10l-10 247h83l-10 -247l200 10v-83l-200 10v-289z" />
    <glyph glyph-name="section" unicode="&#xa7;" horiz-adv-x="512" 
d="M70 365q0 27 10 48t27 37q-37 33 -37 98q0 74 46 111.5t143 37.5q48 0 87.5 -6.5t71.5 -15.5q9 -3 12 -7t3 -12v-100h-63q-4 10 -7.5 30t-5.5 35q-8 2 -20 3.5t-25 3t-25.5 2.5t-21.5 1q-68 0 -94 -20.5t-26 -54.5q0 -32 18 -48.5t61 -26.5l76 -17q76 -18 109 -51t33 -95
q0 -28 -10.5 -48.5t-27.5 -36.5q19 -17 28.5 -41t9.5 -57q0 -74 -46 -111.5t-143 -37.5q-48 0 -87.5 6.5t-71.5 15.5q-9 3 -12 7t-3 12v100h63q4 -10 7.5 -30t5.5 -35q8 -2 20 -3.5t25 -3t25.5 -2.5t21.5 -1q68 0 94 20t26 55q0 32 -18 48.5t-61 26.5l-76 17q-38 9 -65 21.5
t-44 29.5t-25 40.5t-8 54.5zM349 264q8 11 13 23.5t5 29.5q0 29 -20 46t-67 28l-76 17q-11 2 -21.5 4.5t-19.5 6.5q-18 -23 -18 -53q0 -29 20 -46t67 -28l76 -17z" />
    <glyph glyph-name="paragraph" unicode="&#xb6;" horiz-adv-x="602" 
d="M541 684v-66h-70v-821h-72v821h-79v-821h-72v529q-87 0 -138.5 46t-51.5 133q0 76 42 123q26 28 66.5 42t93.5 14h281z" />
    <glyph glyph-name="registered" unicode="&#xae;" horiz-adv-x="768" 
d="M372 231v-48h-119v48h30v230h-30v49h128q35 0 57.5 -6.5t37.5 -20.5q23 -22 23 -70q0 -37 -14.5 -62.5t-41.5 -35.5l47 -84h37v-46q-9 -2 -25.5 -3t-26.5 -1q-14 0 -21.5 5.5t-13.5 18.5l-54 103h-44v-77h30zM342 357h36q37 0 50 13q13 12 13 43q0 25 -13 37
q-12 11 -50 11h-36v-104zM728 342q0 -73 -23 -138t-66.5 -113.5t-108 -76.5t-146.5 -28q-83 0 -147 28t-107.5 76.5t-66.5 113.5t-23 138t23 137.5t66.5 113t107.5 76.5t147 28q82 0 146.5 -28t108 -76.5t66.5 -113t23 -137.5zM658 342q0 68 -19 122.5t-54.5 92t-86.5 57.5
t-114 20t-114 -20t-86.5 -57.5t-54.5 -92t-19 -122.5t19 -122.5t54.5 -92.5t86.5 -58t114 -20t114 20t86.5 58t54.5 92.5t19 122.5z" />
    <glyph glyph-name="copyright" unicode="&#xa9;" horiz-adv-x="768" 
d="M728 342q0 -73 -23 -138t-66.5 -113.5t-108 -76.5t-146.5 -28q-83 0 -147 28t-107.5 76.5t-66.5 113.5t-23 138t23 137.5t66.5 113t107.5 76.5t147 28q82 0 146.5 -28t108 -76.5t66.5 -113t23 -137.5zM658 342q0 68 -19 122.5t-54.5 92t-86.5 57.5t-114 20t-114 -20
t-86.5 -57.5t-54.5 -92t-19 -122.5t19 -122.5t54.5 -92.5t86.5 -58t114 -20t114 20t86.5 58t54.5 92.5t19 122.5zM430 413q-4 7 -7 22.5t-4 24.5q-5 1 -11.5 1h-11.5q-49 0 -69 -28.5t-20 -87.5q0 -35 6.5 -57.5t20.5 -35.5t35.5 -18t52.5 -5h50v-44q-12 -3 -33.5 -6.5
t-41.5 -3.5q-82 0 -117 46t-35 123q0 83 38 127t110 44q17 0 38 -3t32 -7q10 -4 11.5 -8.5t1.5 -12.5v-71h-46z" />
    <glyph glyph-name="trademark" unicode="&#x2122;" horiz-adv-x="763" 
d="M739 684v-50h-34v-232h34v-50h-128v50h33v149l-66 -93h-37q-14 0 -19 2.5t-11 11.5l-53 83v-153h31v-50h-122v50h34v232h-34v50h50q16 0 23 -3.5t18 -20.5l93 -151l99 151q11 16 18 20t24 4h47zM301 684q16 0 22 -3t6 -16v-82h-53q-1 5 -2.5 23.5t-2.5 31.5h-65v-236h33
v-50h-133v50h33v236h-65q-2 -13 -3.5 -31.5t-2.5 -23.5h-52v82q0 13 5.5 16t22.5 3h257z" />
    <glyph glyph-name="quotedblleft" unicode="&#x201c;" horiz-adv-x="385" 
d="M288 697v-125q22 -5 34.5 -18t12.5 -39v-3q0 -30 -14 -42t-37 -12h-1q-29 0 -43 15.5t-14 53.5q0 16 2 37t5 42.5t6.5 41.5t7.5 34q2 8 6 11.5t15 3.5h20zM122 697v-125q22 -5 34.5 -18t12.5 -39v-3q0 -30 -14 -42t-37 -12h-1q-29 0 -43 15.5t-14 53.5q0 16 2 37t5 42.5
t6.5 41.5t7.5 34q2 8 6 11.5t15 3.5h20z" />
    <glyph glyph-name="quotedblright" unicode="&#x201d;" horiz-adv-x="385" 
d="M97 458v125q-22 5 -34.5 18t-12.5 39v3q0 30 14 42t37 12h1q29 0 43 -15.5t14 -53.5q0 -16 -2 -37t-5 -42.5t-6.5 -41.5t-7.5 -34q-2 -8 -6 -11.5t-15 -3.5h-20zM263 458v125q-22 5 -34.5 18t-12.5 39v3q0 30 14 42t37 12h1q29 0 43 -15.5t14 -53.5q0 -16 -2 -37
t-5 -42.5t-6.5 -41.5t-7.5 -34q-2 -8 -6 -11.5t-15 -3.5h-20z" />
    <glyph glyph-name="quoteleft" unicode="&#x2018;" horiz-adv-x="219" 
d="M122 697v-125q22 -5 34.5 -18t12.5 -39v-3q0 -30 -14 -42t-37 -12h-1q-29 0 -43 15.5t-14 53.5q0 16 2 37t5 42.5t6.5 41.5t7.5 34q2 8 6 11.5t15 3.5h20z" />
    <glyph glyph-name="quoteright" unicode="&#x2019;" horiz-adv-x="219" 
d="M97 458v125q-22 5 -34.5 18t-12.5 39v3q0 30 14 42t37 12h1q29 0 43 -15.5t14 -53.5q0 -16 -2 -37t-5 -42.5t-6.5 -41.5t-7.5 -34q-2 -8 -6 -11.5t-15 -3.5h-20z" />
    <glyph glyph-name="guillemotleft" unicode="&#xab;" horiz-adv-x="560" 
d="M275 80l-37 -27l-130 149q-19 22 -26.5 34.5t-7.5 26.5t7.5 26.5t26.5 34.5l130 149l37 -27l-123 -183zM500 80l-37 -27l-130 149q-19 22 -26.5 34.5t-7.5 26.5t7.5 26.5t26.5 34.5l130 149l37 -27l-123 -183z" />
    <glyph glyph-name="guillemotright" unicode="&#xbb;" horiz-adv-x="560" 
d="M183 263l-123 183l37 27l130 -149q19 -22 26.5 -34.5t7.5 -26.5t-7.5 -26.5t-26.5 -34.5l-130 -149l-37 27zM408 263l-123 183l37 27l130 -149q19 -22 26.5 -34.5t7.5 -26.5t-7.5 -26.5t-26.5 -34.5l-130 -149l-37 27z" />
    <glyph glyph-name="guilsinglleft" unicode="&#x2039;" horiz-adv-x="335" 
d="M275 80l-37 -27l-130 149q-19 22 -26.5 34.5t-7.5 26.5t7.5 26.5t26.5 34.5l130 149l37 -27l-123 -183z" />
    <glyph glyph-name="guilsinglright" unicode="&#x203a;" horiz-adv-x="335" 
d="M183 263l-123 183l37 27l130 -149q19 -22 26.5 -34.5t7.5 -26.5t-7.5 -26.5t-26.5 -34.5l-130 -149l-37 27z" />
    <glyph glyph-name="quotesinglbase" unicode="&#x201a;" horiz-adv-x="219" 
d="M97 -153v125q-22 5 -34.5 18t-12.5 39v3q0 30 14 42t37 12h1q29 0 43 -15.5t14 -53.5q0 -16 -2 -37t-5 -42.5t-6.5 -41.5t-7.5 -34q-2 -8 -6 -11.5t-15 -3.5h-20z" />
    <glyph glyph-name="quotedblbase" unicode="&#x201e;" horiz-adv-x="385" 
d="M97 -153v125q-22 5 -34.5 18t-12.5 39v3q0 30 14 42t37 12h1q29 0 43 -15.5t14 -53.5q0 -16 -2 -37t-5 -42.5t-6.5 -41.5t-7.5 -34q-2 -8 -6 -11.5t-15 -3.5h-20zM263 -153v125q-22 5 -34.5 18t-12.5 39v3q0 30 14 42t37 12h1q29 0 43 -15.5t14 -53.5q0 -16 -2 -37
t-5 -42.5t-6.5 -41.5t-7.5 -34q-2 -8 -6 -11.5t-15 -3.5h-20z" />
    <glyph glyph-name="ordfeminine" unicode="&#xaa;" horiz-adv-x="440" 
d="M268 499h-68q-33 0 -53.5 -11.5t-20.5 -40.5q0 -25 15.5 -39t47.5 -14q18 0 41.5 5t37.5 13v87zM380 394v-49q-11 -2 -30.5 -2.5t-34.5 -0.5q-20 0 -32 6t-14 20q-21 -13 -47.5 -21t-51.5 -8q-51 0 -81 28.5t-30 75.5q0 57 37.5 82t97.5 25h74v35q0 32 -18 44.5t-63 12.5
h-91v46q24 4 55 6.5t59 2.5q125 0 125 -113v-190h45z" />
    <glyph glyph-name="ordmasculine" unicode="&#xba;" horiz-adv-x="440" 
d="M378 520q0 -36 -9 -68.5t-28.5 -57t-49.5 -39t-71 -14.5t-71 14.5t-49.5 39t-28.5 57t-9 68.5t9 68.5t28.5 57t49.5 39t71 14.5t71 -14.5t49.5 -39t28.5 -57t9 -68.5zM306 520q0 60 -21 88.5t-65 28.5t-65 -28.5t-21 -88.5t21 -88.5t65 -28.5t65 28.5t21 88.5z" />
    <glyph glyph-name="zero" unicode="0" horiz-adv-x="566" 
d="M520 341q0 -85 -13 -151t-41.5 -111.5t-73.5 -69t-108 -23.5t-108 23.5t-73.5 69t-41.5 111.5t-13 151t13 151t41.5 111.5t73.5 69.5t108 24t108 -24t73.5 -69.5t41.5 -111.5t13 -151zM434 341q0 71 -7.5 123.5t-24.5 87.5t-46 52.5t-72 17.5t-72 -17.5t-46 -52.5
t-24.5 -87.5t-7.5 -123.5t7.5 -123.5t24.5 -87.5t46 -52t72 -17t72 17t46 52t24.5 87.5t7.5 123.5z" />
    <glyph glyph-name="one" unicode="1" horiz-adv-x="379" 
d="M349 67v-67h-303v67h120v554h-118v60q15 1 35.5 3t41 3t38 2t26.5 1q34 0 46.5 -11.5t12.5 -42.5v-569h101z" />
    <glyph glyph-name="two" unicode="2" horiz-adv-x="488" 
d="M371 70q1 20 6 48.5t11 46.5h54v-151q0 -8 -5.5 -11t-22.5 -3h-381q-2 5 -2.5 12.5t-0.5 12.5q0 22 9 42.5t33 49.5l153 184q33 39 55 69.5t35.5 56.5t19.5 49.5t6 47.5q0 47 -26 71q-18 17 -48 22.5t-78 5.5h-133v59q38 7 82 11t79 4q57 0 98 -12.5t68 -39.5
q43 -43 43 -123q0 -33 -8.5 -62.5t-26.5 -60.5t-46.5 -67t-68.5 -82l-156 -180h251z" />
    <glyph glyph-name="three" unicode="3" horiz-adv-x="503" 
d="M42 536v133q0 8 5.5 11.5t22.5 3.5h367q2 -4 2.5 -10t0.5 -11q0 -14 -2 -25.5t-6.5 -22t-11.5 -21.5t-17 -24l-149 -186q45 -4 82.5 -17t65 -36.5t42.5 -57.5t15 -79q0 -51 -16 -88t-43 -63q-32 -30 -81 -43.5t-106 -13.5q-15 0 -34.5 0.5t-40.5 2t-41.5 4t-36.5 5.5v62
h106q63 0 106 7.5t66 28.5q19 17 27.5 42t8.5 54q0 56 -34 89q-22 21 -58.5 30.5t-93.5 9.5h-33q-1 5 -1.5 9.5t-0.5 8.5q0 17 7 32t24 36l167 209h-239q0 -16 -4 -36.5t-12 -43.5h-54z" />
    <glyph glyph-name="four" unicode="4" horiz-adv-x="546" 
d="M45 176q-3 10 -3 25q0 14 3.5 28t11.5 37l138 402q4 11 8.5 13.5t15.5 2.5h60l-149 -442h224v183h81v-183h77v-66h-77v-176h-81v176h-309z" />
    <glyph glyph-name="five" unicode="5" horiz-adv-x="506" 
d="M148 616l-2 -213h60q69 0 118 -13t79 -42q55 -52 55 -154q0 -45 -14.5 -82t-40.5 -63q-32 -33 -80 -48t-110 -15q-35 0 -76.5 4t-74.5 9v61h126q59 0 95.5 9.5t56.5 29.5q33 32 33 98q0 69 -33 101q-21 20 -56.5 28.5t-89.5 8.5h-101q-13 0 -17 3t-4 12l4 334h314
q17 0 22.5 -3.5t5.5 -11.5v-133h-54q-5 16 -10.5 39.5t-5.5 40.5h-200z" />
    <glyph glyph-name="six" unicode="6" horiz-adv-x="544" 
d="M143 406q38 13 82 21.5t82 8.5q51 0 87 -15t59 -42.5t33.5 -66.5t10.5 -87q0 -54 -14.5 -98t-42.5 -75.5t-67.5 -48.5t-90.5 -17q-61 0 -104 22t-70 64t-39 102t-12 135v27q0 97 18.5 169.5t59.5 118.5q65 73 196 73q26 0 57.5 -3.5t53.5 -8.5v-62h-88q-60 0 -97 -11.5
t-60 -36.5q-26 -27 -38.5 -68t-15.5 -101zM141 296q0 -54 6.5 -98.5t23 -76t44.5 -48.5t71 -17q62 0 96.5 44.5t34.5 118.5q0 77 -31.5 112.5t-103.5 35.5q-32 0 -70.5 -6t-70.5 -14v-51z" />
    <glyph glyph-name="seven" unicode="7" horiz-adv-x="540" 
d="M127 616q-1 -20 -6 -49t-11 -47h-54v150q0 8 5.5 11t22.5 3h414q4 -10 4 -25q0 -14 -3.5 -28.5t-11.5 -34.5l-211 -576q-5 -11 -10.5 -15.5t-19.5 -4.5h-69l241 616h-291z" />
    <glyph glyph-name="eight" unicode="8" horiz-adv-x="541" 
d="M78 526q0 38 14.5 69.5t40 54t61 35t77.5 12.5q45 0 80.5 -12t59.5 -34t37 -51.5t13 -64.5q0 -57 -31 -99.5t-79 -74.5q28 -15 54.5 -33t47 -39.5t32.5 -48.5t12 -61q0 -44 -16.5 -79.5t-46.5 -60.5t-72 -39t-93 -14q-48 0 -89 13t-71.5 38t-47.5 59.5t-17 78.5
q0 64 37 112t98 82q-43 28 -72 64.5t-29 92.5zM126 178q0 -54 37.5 -87t109.5 -33q63 0 102.5 32.5t39.5 87.5q0 29 -15.5 51t-41 40t-57 34.5t-64.5 33.5q-54 -32 -82.5 -70.5t-28.5 -88.5zM384 533q0 45 -28.5 70t-82.5 25q-51 0 -82.5 -24t-31.5 -74q0 -24 11 -44
t30 -36.5t43.5 -31t51.5 -28.5q42 33 65.5 69t23.5 74z" />
    <glyph glyph-name="nine" unicode="9" horiz-adv-x="544" 
d="M401 277q-38 -13 -82 -21.5t-82 -8.5q-51 0 -87 15t-59 42.5t-33.5 66.5t-10.5 87q0 54 14.5 98t42.5 75.5t67.5 48.5t90.5 17q61 0 104 -22t70 -64t39 -102t12 -135v-27q0 -97 -18.5 -169.5t-59.5 -118.5q-65 -73 -196 -73q-26 0 -57.5 3.5t-53.5 8.5v62h88
q60 0 97 11.5t60 36.5q26 27 38.5 68t15.5 101zM403 387q0 54 -6.5 98t-23 75.5t-44.5 49t-71 17.5q-62 0 -96.5 -44.5t-34.5 -118.5q0 -77 31.5 -112.5t103.5 -35.5q32 0 70.5 6t70.5 14v51z" />
    <glyph glyph-name="dollar" unicode="$" horiz-adv-x="568" 
d="M151 68q18 -4 50.5 -7t64.5 -3q91 0 131 36q34 31 34 85q0 23 -5.5 41.5t-18.5 32.5t-36 25t-65 24l-52 16q-50 15 -82 32.5t-51 35.5q-26 25 -37.5 55.5t-11.5 68.5q0 43 13.5 76t39.5 57t59 37t78 18v115h65v-113q39 -2 76.5 -8t61.5 -13q8 -2 12 -6t4 -14v-119h-59
q-2 4 -4 13.5t-4 21t-3.5 23.5t-1.5 21q-10 1 -23.5 2.5t-28 2.5t-28.5 1.5t-23 0.5q-42 0 -73 -8t-51 -28q-27 -27 -27 -71q0 -22 6 -40t22 -34q14 -13 36.5 -25.5t62.5 -24.5l55 -17q52 -17 85.5 -34.5t54.5 -42.5q37 -43 37 -120q0 -45 -13.5 -78.5t-38.5 -57.5
q-23 -23 -57 -37t-78 -19v-117h-65v113q-51 1 -95.5 6.5t-71.5 13.5q-9 3 -12.5 7t-3.5 14v122h59q2 -4 4 -13.5t4 -21.5t3.5 -24t1.5 -21z" />
    <glyph glyph-name="cent" unicode="&#xa2;" horiz-adv-x="534" 
d="M270 -128v117q-99 13 -148.5 82t-49.5 175q0 63 18 111t48 80q25 27 59 42.5t73 21.5v116h65v-114q31 -2 60 -6.5t50 -9.5q9 -2 12 -6.5t3 -12.5v-114h-57q-2 5 -4 14.5t-3.5 21t-3 22t-2.5 18.5q-14 2 -37.5 3.5t-41.5 1.5q-74 0 -114.5 -45t-40.5 -140q0 -50 11 -87
t35 -61q23 -23 58 -34t89 -11h107v-51q-26 -8 -57 -13t-64 -7v-114h-65z" />
    <glyph glyph-name="Euro" unicode="&#x20ac;" horiz-adv-x="597" 
d="M209 233q7 -45 23 -78t44.5 -54.5t71 -32t102.5 -10.5h93v-59q-34 -6 -67.5 -9.5t-59.5 -3.5q-69 0 -120.5 16.5t-86.5 48t-56 77.5t-30 105h-77v48l71 7q-1 13 -1 26v27v21h-70v48l74 7q14 135 83.5 207.5t199.5 72.5q35 0 69.5 -4.5t60.5 -12.5q11 -3 13.5 -8t2.5 -13
v-134l-58 -1q-2 4 -4.5 16t-5 26.5t-4 29.5t-1.5 24q-14 2 -34 3t-35 1q-94 0 -141.5 -50t-59.5 -153h193v-59h-197v-20v-26t1 -24h196v-59h-190z" />
    <glyph glyph-name="florin" unicode="&#x192;" horiz-adv-x="568" 
d="M324 -69q0 -45 -10.5 -76.5t-30.5 -51.5q-21 -21 -50.5 -31.5t-73.5 -10.5q-26 0 -53 4t-43 9v56h63q38 0 59.5 4t35.5 16q13 11 17.5 32t4.5 54v352h-85v48l85 15v206q0 45 10.5 76.5t30.5 51.5q21 21 50.5 31.5t73.5 10.5q26 0 53 -4t43 -9v-56h-63q-38 0 -59.5 -4
t-35.5 -16q-13 -11 -17.5 -32t-4.5 -54v-202h133v-62h-133v-357z" />
    <glyph glyph-name="sterling" unicode="&#xa3;" horiz-adv-x="579" 
d="M153 388q-5 26 -7.5 52t-2.5 52q0 99 55 151q57 54 173 54q29 0 67 -4.5t64 -11.5v-58h-108q-51 0 -83 -8.5t-51 -26.5q-31 -30 -31 -97q0 -25 2.5 -50.5t7.5 -51.5h178v-59h-169q3 -20 5 -39.5t2 -38.5q0 -48 -25 -91.5t-73 -93.5h301q0 10 2 23t4 26.5t5 26t6 21.5h54
v-150q0 -8 -5.5 -11t-22.5 -3h-425q-2 7 -3 14.5t-1 14.5q0 11 1.5 20t6 18t12 20t19.5 27q15 19 25.5 35t18 31t11 31t3.5 36t-2 41t-5 42h-110v46z" />
    <glyph glyph-name="yen" unicode="&#xa5;" horiz-adv-x="608" 
d="M32 618v66h76q28 0 39 -6t21 -26l143 -308l128 274h-53v66h190v-66h-55l-149 -292h113v-59h-138v-59h138v-59h-138v-83h69v-66h-225v66h69v83h-135v59h135v59h-135v59h109l-142 292h-60z" />
    <glyph glyph-name="numbersign" unicode="#" horiz-adv-x="568" 
d="M326 220h-126l-36 -220h-66l36 220h-69v60h79l21 123h-100v60h109l37 221h66l-37 -221h125l38 221h66l-38 -221h73v-60h-82l-20 -123h102v-60h-112l-36 -220h-66zM210 280h126l21 123h-127z" />
    <glyph glyph-name="percent" unicode="%" horiz-adv-x="941" 
d="M332 -14h-76l353 711h76zM384 489q0 -42 -8.5 -80t-27 -66.5t-49 -45t-74.5 -16.5t-74.5 16.5t-49 45t-27 66.5t-8.5 80t8.5 79.5t27 66t49 45.5t74.5 17t74.5 -17t49 -45.5t27 -66t8.5 -79.5zM308 489q0 74 -19 108.5t-64 34.5t-64 -34.5t-19 -108.5t19 -108.5t64 -34.5
t64 34.5t19 108.5zM875 194q0 -42 -8.5 -80t-27 -66.5t-49 -45t-74.5 -16.5t-74.5 16.5t-49 45t-27 66.5t-8.5 80t8.5 79.5t27 66t49 45.5t74.5 17t74.5 -17t49 -45.5t27 -66t8.5 -79.5zM799 194q0 74 -19 108.5t-64 34.5t-64 -34.5t-19 -108.5t19 -108.5t64 -34.5t64 34.5
t19 108.5z" />
    <glyph glyph-name="perthousand" unicode="&#x2030;" horiz-adv-x="1321" 
d="M332 -14h-76l353 711h76zM384 489q0 -42 -8.5 -80t-27 -66.5t-49 -45t-74.5 -16.5t-74.5 16.5t-49 45t-27 66.5t-8.5 80t8.5 79.5t27 66t49 45.5t74.5 17t74.5 -17t49 -45.5t27 -66t8.5 -79.5zM308 489q0 74 -19 108.5t-64 34.5t-64 -34.5t-19 -108.5t19 -108.5t64 -34.5
t64 34.5t19 108.5zM875 194q0 -42 -8.5 -80t-27 -66.5t-49 -45t-74.5 -16.5t-74.5 16.5t-49 45t-27 66.5t-8.5 80t8.5 79.5t27 66t49 45.5t74.5 17t74.5 -17t49 -45.5t27 -66t8.5 -79.5zM799 194q0 74 -19 108.5t-64 34.5t-64 -34.5t-19 -108.5t19 -108.5t64 -34.5t64 34.5
t19 108.5zM1255 194q0 -42 -8.5 -80t-27 -66.5t-49 -45t-74.5 -16.5t-74.5 16.5t-49 45t-27 66.5t-8.5 80t8.5 79.5t27 66t49 45.5t74.5 17t74.5 -17t49 -45.5t27 -66t8.5 -79.5zM1179 194q0 74 -19 108.5t-64 34.5t-64 -34.5t-19 -108.5t19 -108.5t64 -34.5t64 34.5
t19 108.5z" />
    <glyph glyph-name="plus" unicode="+" horiz-adv-x="508" 
d="M286 356h130v-65h-130v-130h-65v130h-129v65h129v129h65v-129z" />
    <glyph glyph-name="minus" unicode="&#x2212;" horiz-adv-x="508" 
d="M92 291v65h324v-65h-324z" />
    <glyph glyph-name="multiply" unicode="&#xd7;" horiz-adv-x="508" 
d="M253 369l92 92l46 -46l-92 -92l92 -92l-46 -46l-92 92l-91 -91l-46 46l91 91l-91 91l46 46z" />
    <glyph glyph-name="less" unicode="&#x3c;" horiz-adv-x="508" 
d="M92 356l324 165v-75l-249 -123l249 -122v-75l-324 165v65z" />
    <glyph glyph-name="divide" unicode="&#xf7;" horiz-adv-x="508" 
d="M92 291v65h324v-65h-324zM251 101q-23 0 -36.5 12.5t-13.5 41.5v2q0 29 13.5 41.5t36.5 12.5h5q23 0 36.5 -12.5t13.5 -41.5v-2q0 -29 -13.5 -41.5t-36.5 -12.5h-5zM251 436q-23 0 -36.5 12.5t-13.5 41.5v2q0 29 13.5 41.5t36.5 12.5h5q23 0 36.5 -12.5t13.5 -41.5v-2
q0 -29 -13.5 -41.5t-36.5 -12.5h-5z" />
    <glyph glyph-name="equal" unicode="=" horiz-adv-x="508" 
d="M92 381v65h324v-65h-324zM92 201v65h324v-65h-324z" />
    <glyph glyph-name="logicalnot" unicode="&#xac;" horiz-adv-x="508" 
d="M416 201h-65v180h-259v65h324v-245z" />
    <glyph glyph-name="greater" unicode="&#x3e;" horiz-adv-x="508" 
d="M416 291l-324 -165v75l249 122l-249 123v75l324 -165v-65z" />
    <glyph glyph-name="notequal" unicode="&#x2260;" horiz-adv-x="508" 
d="M240 201l-46 -136h-64l46 136h-84v65h107l39 115h-146v65h169l47 137h64l-47 -137h91v-65h-114l-39 -115h153v-65h-176z" />
    <glyph glyph-name="approxequal" unicode="&#x2248;" horiz-adv-x="508" 
d="M414 456q-2 -47 -22 -71.5t-51 -24.5q-19 0 -41.5 5.5t-45.5 12t-44 12t-37 5.5q-14 0 -21 -8t-12 -28l-45 5q2 47 22 71.5t51 24.5q19 0 41.5 -5.5t45.5 -12t44 -12t37 -5.5q14 0 21 8t12 28zM414 277q-2 -47 -22 -71.5t-51 -24.5q-19 0 -41.5 5.5t-45.5 12t-44 12
t-37 5.5q-14 0 -21 -8t-12 -28l-45 5q2 47 22 71.5t51 24.5q19 0 41.5 -5.5t45.5 -12t44 -12t37 -5.5q14 0 21 8t12 28z" />
    <glyph glyph-name="plusminus" unicode="&#xb1;" horiz-adv-x="508" 
d="M286 356h130v-65h-130v-130h-65v130h-129v65h129v129h65v-129zM92 0v65h324v-65h-324z" />
    <glyph glyph-name="lessequal" unicode="&#x2264;" horiz-adv-x="508" 
d="M92 0v65h324v-65h-324zM92 356l324 165v-75l-249 -123l249 -122v-75l-324 165v65z" />
    <glyph glyph-name="greaterequal" unicode="&#x2265;" horiz-adv-x="508" 
d="M416 291l-324 -165v75l249 122l-249 123v75l324 -165v-65zM92 0v65h324v-65h-324z" />
    <glyph glyph-name="asciicircum" unicode="^" horiz-adv-x="508" 
d="M452 401h-74l-124 211l-124 -211h-74l172 283h52z" />
    <glyph glyph-name="asciitilde" unicode="~" horiz-adv-x="508" 
d="M438 418q-2 -41 -24 -69.5t-67 -28.5q-20 0 -43.5 5t-48 10.5t-47.5 10.5t-41 5q-23 0 -33.5 -7t-15.5 -27l-49 5q2 41 24 69t67 28q19 0 43.5 -5t49.5 -10.5t47.5 -10.5t39.5 -5q23 0 33.5 7.5t15.5 27.5z" />
    <glyph glyph-name="lozenge" unicode="&#x25ca;" horiz-adv-x="568" 
d="M531 342q0 -15 -7 -29t-20 -33l-182 -280h-77l-182 280q-13 19 -20 33t-7 29t7 29t20 33l182 280h77l182 -280q13 -19 20 -33t7 -29zM283 613l-176 -271l176 -271l177 271z" />
    <glyph glyph-name="degree" unicode="&#xb0;" horiz-adv-x="452" 
d="M135 517q0 -51 20.5 -83t70.5 -32t70.5 32t20.5 83t-20.5 83t-70.5 32t-70.5 -32t-20.5 -83zM392 517q0 -40 -11 -73t-32.5 -57t-52.5 -37t-70 -13t-70 13t-52.5 37t-32.5 57t-11 73t11 73t32.5 57t52.5 37t70 13t70 -13t52.5 -37t32.5 -57t11 -73z" />
    <glyph glyph-name="quotesingle" unicode="'" horiz-adv-x="241" 
d="M90 460l-9 198q-1 15 5.5 20.5t22.5 5.5h52l-14 -210q-1 -9 -4.5 -11.5t-14.5 -2.5h-38z" />
    <glyph glyph-name="quotedbl" unicode="&#x22;" horiz-adv-x="402" 
d="M90 460l-9 198q-1 15 5.5 20.5t22.5 5.5h52l-14 -210q-1 -9 -4.5 -11.5t-14.5 -2.5h-38zM251 460l-9 198q-1 15 5.5 20.5t22.5 5.5h52l-14 -210q-1 -9 -4.5 -11.5t-14.5 -2.5h-38z" />
    <glyph glyph-name="radical" unicode="&#x221a;" horiz-adv-x="665" 
d="M80 428v62h91q20 0 29.5 -5t15.5 -23l132 -390l207 658h72l-235 -730h-64q-18 0 -25.5 4.5t-13.5 21.5l-139 402h-70z" />
    <glyph glyph-name="currency" unicode="&#xa4;" horiz-adv-x="568" 
d="M456 349q0 -61 -28 -106l75 -75l-44 -44l-73 72q-20 -14 -46 -22t-56 -8q-31 0 -57 8t-46 22l-72 -72l-44 44l75 75q-28 45 -28 106q0 59 28 106l-75 75l44 44l72 -73q42 31 103 31q60 0 102 -31l73 73l44 -44l-75 -75q28 -47 28 -106zM182 349q0 -52 23 -85.5t79 -33.5
t79 33.5t23 85.5t-23 85.5t-79 33.5t-79 -33.5t-23 -85.5z" />
    <glyph glyph-name="infinity" unicode="&#x221e;" horiz-adv-x="655" 
d="M309 312q-12 31 -22.5 57t-23.5 45.5t-29.5 30.5t-39.5 11q-42 0 -62 -32t-20 -81q0 -48 22.5 -77.5t59.5 -29.5q35 0 63.5 23.5t51.5 52.5zM326 261q-35 -48 -69 -68.5t-70 -20.5q-25 0 -49.5 9.5t-44 30.5t-31.5 54t-12 80q0 45 12 77.5t32.5 54.5t47.5 32.5t57 10.5
q39 0 72.5 -18.5t56.5 -66.5q35 48 69 68.5t70 20.5q25 0 49.5 -10t44 -31t31.5 -54t12 -79q0 -45 -12 -77.5t-32.5 -54.5t-47.5 -32.5t-57 -10.5q-39 0 -72.5 18.5t-56.5 66.5zM345 385q12 -31 22.5 -57t23.5 -45.5t29.5 -30.5t39.5 -11q42 0 62 32t20 81q0 48 -22.5 77.5
t-59.5 29.5q-35 0 -63.5 -23.5t-51.5 -52.5z" />
    <glyph glyph-name="mu" unicode="&#xb5;" horiz-adv-x="588" 
d="M177 156q0 -52 22 -73q12 -12 32.5 -17t48.5 -5t61 4.5t70 14.5v348h-65v62h146v-429h67v-58q-26 -3 -49.5 -5t-43.5 -2q-25 0 -37 9t-16 22q-37 -18 -77 -29.5t-82 -11.5q-43 0 -77 13v-224h-81v653h-66v60q17 2 45.5 4t45.5 2q31 0 45 -14q11 -11 11 -40v-284z" />
    <glyph glyph-name="partialdiff" unicode="&#x2202;" horiz-adv-x="568" 
d="M415 406q-3 60 -15.5 101t-38.5 68q-23 25 -60 36.5t-97 11.5h-88v62q22 5 53.5 8.5t57.5 3.5q131 0 196 -73q41 -46 59.5 -118.5t18.5 -169.5v-27q0 -75 -12 -135t-39 -102t-70 -64t-104 -22q-51 0 -90.5 17t-67.5 48.5t-42.5 75.5t-14.5 98q0 48 10.5 87t33.5 66.5
t59 42.5t87 15q38 0 82 -8.5t82 -21.5zM417 347q-32 8 -70.5 14t-70.5 6q-72 0 -103.5 -35.5t-31.5 -112.5q0 -74 34.5 -118.5t96.5 -44.5q43 0 71 17t44.5 48.5t23 76t6.5 98.5v51z" />
    <glyph glyph-name="summation" unicode="&#x2211;" horiz-adv-x="637" 
d="M497 -159q0 26 2.5 52.5t5.5 42.5h62v-148q0 -7 -4.5 -10t-19.5 -3h-465q-18 0 -25 5t-7 18v13q0 19 5 32t23 37l253 330q10 13 10.5 19.5t-7.5 17.5l-249 332q-9 12 -14.5 20.5t-8.5 16t-4 15t-1 17.5v13q0 13 7 18t25 5h445q15 0 19.5 -3t4.5 -10v-147h-62
q-3 16 -5.5 42t-2.5 52h-331l228 -307q20 -28 28 -42.5t8 -30.5q0 -14 -7.5 -28.5t-27.5 -40.5l-247 -328h362z" />
    <glyph glyph-name="product" unicode="&#x220f;" horiz-adv-x="693" 
d="M651 618h-82v-843h-87v843h-271v-843h-87v843h-82v66h609v-66z" />
    <glyph glyph-name="pi" unicode="&#x3c0;" horiz-adv-x="602" 
d="M411 428h-232v-428h-81v428h-73v62h540v-62h-73v-367h65v-60q-8 -1 -20 -2t-24.5 -2t-24.5 -1.5t-21 -0.5q-31 0 -45 14q-11 11 -11 40v379z" />
    <glyph glyph-name="integral" unicode="&#x222b;" horiz-adv-x="568" 
d="M324 -69q0 -45 -10.5 -76.5t-30.5 -51.5q-21 -21 -50.5 -31.5t-73.5 -10.5q-26 0 -53 4t-43 9v56h63q38 0 59.5 4t35.5 16q13 11 17.5 32t4.5 54v621q0 45 10.5 76.5t30.5 51.5q21 21 50.5 31.5t73.5 10.5q26 0 53 -4t43 -9v-56h-63q-38 0 -59.5 -4t-35.5 -16
q-13 -11 -17.5 -32t-4.5 -54v-621z" />
    <glyph glyph-name="Omega" unicode="&#x3a9;" horiz-adv-x="692" 
d="M346 620q-51 0 -88 -18t-61 -50.5t-35.5 -76.5t-11.5 -95q0 -86 31 -156t95 -132q18 -18 22 -26.5t4 -25.5v-40h-225v66h138q-74 57 -113.5 140t-39.5 180q0 69 20 126t57 98t89.5 64t117.5 23t117.5 -23t89.5 -64t57 -98t20 -126q0 -97 -39.5 -180t-113.5 -140h138v-66
h-225v40q0 17 4 25.5t22 26.5q64 62 95 132t31 156q0 51 -11.5 95t-35.5 76.5t-61 50.5t-88 18z" />
    <glyph glyph-name="Omega" unicode="&#x2126;" horiz-adv-x="692" 
d="M346 620q-51 0 -88 -18t-61 -50.5t-35.5 -76.5t-11.5 -95q0 -86 31 -156t95 -132q18 -18 22 -26.5t4 -25.5v-40h-225v66h138q-74 57 -113.5 140t-39.5 180q0 69 20 126t57 98t89.5 64t117.5 23t117.5 -23t89.5 -64t57 -98t20 -126q0 -97 -39.5 -180t-113.5 -140h138v-66
h-225v40q0 17 4 25.5t22 26.5q64 62 95 132t31 156q0 51 -11.5 95t-35.5 76.5t-61 50.5t-88 18z" />
    <glyph glyph-name="Delta" unicode="&#x394;" horiz-adv-x="625" 
d="M44 0v30q0 14 2.5 25t7.5 27l208 602h83q11 0 14 -2.5t7 -13.5l202 -571q6 -18 9.5 -35.5t3.5 -31.5v-30h-537zM308 598l-177 -532h359z" />
    <glyph glyph-name="Delta" unicode="&#x2206;" horiz-adv-x="625" 
d="M44 0v30q0 14 2.5 25t7.5 27l208 602h83q11 0 14 -2.5t7 -13.5l202 -571q6 -18 9.5 -35.5t3.5 -31.5v-30h-537zM308 598l-177 -532h359z" />
    <glyph glyph-name="litre" unicode="&#x2113;" horiz-adv-x="249" 
d="M168 0h-81v658h-68v60q8 1 20.5 2t25.5 2t25.5 1.5t21.5 0.5q31 0 45 -14q11 -11 11 -40v-670z" />
    <glyph glyph-name="estimated" unicode="&#x212e;" horiz-adv-x="894" 
d="M202 333q-7 0 -7 -6v-194q0 -7 3 -12t8 -11q45 -47 108 -74.5t135 -27.5q78 0 143.5 31t110.5 85h59q-56 -63 -137 -100.5t-177 -37.5q-82 0 -154.5 28t-126.5 76t-85.5 112.5t-31.5 138.5t31.5 139t85.5 113t126.5 76t154.5 28q81 0 153 -28t126 -76t85.5 -113
t31.5 -139v-8h-642zM699 554q0 12 -12 24q-46 46 -107.5 72t-130.5 26q-72 0 -134 -26.5t-109 -74.5q-11 -13 -11 -26v-191q0 -6 7 -6h490q7 0 7 6v196z" />
    <glyph glyph-name="numero" unicode="&#x2116;" horiz-adv-x="1120" 
d="M1080 418q0 -40 -10.5 -74.5t-32 -59.5t-54 -39t-75.5 -14q-44 0 -76 14t-53.5 39t-32 59.5t-10.5 74.5t10.5 74.5t32 59.5t53.5 39t76 14q43 0 75.5 -14t54 -39t32 -59.5t10.5 -74.5zM1007 418q0 60 -23.5 91.5t-75.5 31.5t-75.5 -31.5t-23.5 -91.5t23.5 -91.5
t75.5 -31.5t75.5 31.5t23.5 91.5zM154 668q23 0 33.5 -4t23.5 -22l360 -510v470h-69v66h213v-66h-69v-618h-64l-376 537v-471h69v-66h-213v66h69v552h-69v66h92v0z" />
    <glyph glyph-name="fraction" unicode="&#x2044;" horiz-adv-x="407" 
d="M65 -14h-76l353 711h76z" />
    <glyph glyph-name="onesuperior" unicode="&#xb9;" horiz-adv-x="500" 
d="M364 407v-59h-228v59h85v279h-81v58q25 2 55 3t52 1q24 0 34.5 -8t10.5 -28v-305h72z" />
    <glyph glyph-name="twosuperior" unicode="&#xb2;" horiz-adv-x="500" 
d="M189 407h130q2 33 8 52h49v-101q0 -10 -6 -10h-252q-1 5 -1.5 12t-0.5 12q0 21 7.5 37t32.5 43l77 87q29 33 43.5 55.5t14.5 49.5q0 23 -14 35q-18 15 -65 15h-83v51q23 4 52.5 6.5t55.5 2.5q60 0 94 -27t34 -73q0 -20 -3.5 -35.5t-14 -33t-29 -39.5t-48.5 -53z" />
    <glyph glyph-name="threesuperior" unicode="&#xb3;" horiz-adv-x="500" 
d="M161 687q-1 -6 -3.5 -18t-4.5 -20h-47v86q0 10 6 10h251q2 -10 2 -19q0 -17 -5 -29.5t-20 -32.5l-65 -85q48 -8 74.5 -35.5t26.5 -75.5q0 -55 -33 -90q-40 -40 -119 -40q-10 0 -24 1t-29 2.5t-29 3t-24 3.5v50h89q59 0 81 21q17 17 17 48q0 37 -23 52t-78 15q-2 8 -2 17
q0 11 4.5 20t15.5 24l67 92h-128z" />
    <glyph glyph-name="onehalf" unicode="&#xbd;" horiz-adv-x="980" 
d="M342 -14h-76l353 711h76zM331 349v-59h-228v59h85v279h-81v58q25 2 55 3t52 1q24 0 34.5 -8t10.5 -28v-305h72zM684 60h130q2 33 8 52h49v-101q0 -10 -6 -10h-252q-1 5 -1.5 12t-0.5 12q0 21 7.5 37t32.5 43l77 87q29 33 43.5 55.5t14.5 49.5q0 23 -14 35q-18 15 -65 15
h-83v51q23 4 52.5 6.5t55.5 2.5q60 0 94 -27t34 -73q0 -20 -3.5 -35.5t-14 -33t-29 -39.5t-48.5 -53z" />
    <glyph glyph-name="onequarter" unicode="&#xbc;" horiz-adv-x="980" 
d="M584 96q-3 9 -3 20t2 20.5t7 23.5l79 222q3 8 6.5 11.5t12.5 3.5h53l-86 -246h106v106h68v-106h55v-55h-55v-96h-68v96h-177zM346 -14h-76l353 711h76zM334 348v-59h-228v59h85v279h-81v58q25 2 55 3t52 1q24 0 34.5 -8t10.5 -28v-305h72z" />
    <glyph glyph-name="threequarters" unicode="&#xbe;" horiz-adv-x="980" 
d="M595 96q-3 9 -3 20t2 20.5t7 23.5l79 222q3 8 6.5 11.5t12.5 3.5h53l-86 -246h106v106h68v-106h55v-55h-55v-96h-68v96h-177zM357 -14h-76l353 711h76zM159 626q-1 -6 -3.5 -18t-4.5 -20h-47v86q0 10 6 10h251q2 -10 2 -19q0 -17 -5 -29.5t-20 -32.5l-65 -85
q48 -8 74.5 -35.5t26.5 -75.5q0 -55 -33 -90q-40 -40 -119 -40q-10 0 -24 1t-29 2.5t-29 3t-24 3.5v50h89q59 0 81 21q17 17 17 48q0 37 -23 52t-78 15q-2 8 -2 17q0 11 4.5 20t15.5 24l67 92h-128z" />
    <glyph glyph-name="grave" unicode="`" 
d="M287 579l-182 132l32 44q9 13 17.5 12t20.5 -12l143 -137z" />
    <glyph glyph-name="acute" unicode="&#xb4;" 
d="M105 618l143 137q12 11 20.5 12t17.5 -12l32 -44l-182 -132z" />
    <glyph glyph-name="dieresis" unicode="&#xa8;" 
d="M109 607q-23 0 -37.5 12.5t-14.5 43.5v2q0 31 14.5 43.5t37.5 12.5h6q23 0 37.5 -12.5t14.5 -43.5v-2q0 -31 -14.5 -43.5t-37.5 -12.5h-6zM309 607q-23 0 -37.5 12.5t-14.5 43.5v2q0 31 14.5 43.5t37.5 12.5h6q23 0 37.5 -12.5t14.5 -43.5v-2q0 -31 -14.5 -43.5
t-37.5 -12.5h-6z" />
    <glyph glyph-name="circumflex" unicode="&#x2c6;" 
d="M220 753q19 0 29 -5.5t24 -23.5l91 -111l-33 -28l-119 103l-119 -103l-33 28l91 111q14 18 24 23.5t29 5.5h16z" />
    <glyph glyph-name="tilde" unicode="&#x2dc;" 
d="M357 712q-2 -49 -23 -76.5t-53 -27.5q-20 0 -37 6t-33 13.5t-31.5 14t-31.5 6.5q-15 0 -22.5 -8t-12.5 -29l-47 5q2 49 23 76.5t53 27.5q19 0 36.5 -6.5t33.5 -14t31.5 -13.5t31.5 -6q15 0 22.5 8t12.5 29z" />
    <glyph glyph-name="macron" unicode="&#xaf;" 
d="M77 618v70h270v-70h-270z" />
    <glyph glyph-name="breve" unicode="&#x2d8;" 
d="M212 585q-36 0 -61.5 11t-41 30t-23.5 44t-10 54l52 6q6 -41 26 -60.5t58 -19.5t58 19.5t26 60.5l52 -6q-2 -29 -10 -54t-23.5 -44t-41 -30t-61.5 -11z" />
    <glyph glyph-name="dotaccent" unicode="&#x2d9;" 
d="M209 587q-23 0 -37.5 12.5t-14.5 43.5v2q0 31 14.5 43.5t37.5 12.5h6q23 0 37.5 -12.5t14.5 -43.5v-2q0 -31 -14.5 -43.5t-37.5 -12.5h-6z" />
    <glyph glyph-name="ring" unicode="&#x2da;" 
d="M155 692q0 -33 10.5 -46.5t44.5 -13.5h3q34 0 44.5 13.5t10.5 46.5t-10.5 46.5t-44.5 13.5h-3q-34 0 -44.5 -13.5t-10.5 -46.5zM96 694q0 58 29 85.5t85 27.5h3q56 0 85 -27.5t29 -85.5v-4q0 -58 -29 -85.5t-85 -27.5h-3q-56 0 -85 27.5t-29 85.5v4z" />
    <glyph glyph-name="cedilla" unicode="&#xb8;" 
d="M190 12q-2 -5 -4.5 -13.5t-2.5 -17.5q0 -13 9 -21t44 -21q35 -14 54 -31.5t19 -52.5q0 -23 -7.5 -39.5t-19.5 -28.5q-16 -15 -38.5 -21.5t-47.5 -6.5q-21 0 -44 3.5t-37 9.5v43h69q55 0 55 31q0 14 -11 22t-42 21q-37 15 -49.5 28.5t-12.5 37.5q0 14 7.5 29t19.5 28h39z
" />
    <glyph glyph-name="hungarumlaut" unicode="&#x2dd;" 
d="M33 629l110 162q8 12 16 14.5t19 -7.5l40 -36l-147 -163zM206 629l110 162q8 12 16.5 14.5t19.5 -7.5l39 -36l-147 -163z" />
    <glyph glyph-name="ogonek" unicode="&#x2db;" 
d="M116 -121q0 22 7.5 44.5t21 42.5t31.5 37.5t39 31.5h39q-31 -34 -50.5 -73.5t-19.5 -75.5q0 -29 17.5 -45.5t65.5 -16.5h41v-46q-17 -5 -37 -7.5t-38 -2.5q-54 0 -85.5 29t-31.5 82z" />
    <glyph glyph-name="caron" unicode="&#x2c7;" 
d="M204 589q-19 0 -29 5.5t-24 23.5l-91 111l33 28l119 -103l119 103l33 -28l-91 -111q-14 -18 -24 -23.5t-29 -5.5h-16z" />
    <glyph glyph-name="commaaccent" 
d="M201 -288v115q-40 7 -40 50v2q0 24 13.5 36t34.5 12h1q28 0 40.5 -14.5t12.5 -50.5q0 -15 -1.5 -33.5t-4.5 -37t-6.5 -35.5t-6.5 -30q-2 -8 -6 -11t-14 -3h-23z" />
    <glyph glyph-name="grave.cap" 
d="M287 749l-182 132l32 44q9 13 17.5 12t20.5 -12l143 -137z" />
    <glyph glyph-name="acute.cap" 
d="M105 788l143 137q12 11 20.5 12t17.5 -12l32 -44l-182 -132z" />
    <glyph glyph-name="dieresis.cap" 
d="M109 777q-23 0 -37.5 12.5t-14.5 43.5v2q0 31 14.5 43.5t37.5 12.5h6q23 0 37.5 -12.5t14.5 -43.5v-2q0 -31 -14.5 -43.5t-37.5 -12.5h-6zM309 777q-23 0 -37.5 12.5t-14.5 43.5v2q0 31 14.5 43.5t37.5 12.5h6q23 0 37.5 -12.5t14.5 -43.5v-2q0 -31 -14.5 -43.5
t-37.5 -12.5h-6z" />
    <glyph glyph-name="circumflex.cap" 
d="M220 923q19 0 29 -5.5t24 -23.5l91 -111l-33 -28l-119 103l-119 -103l-33 28l91 111q14 18 24 23.5t29 5.5h16z" />
    <glyph glyph-name="tilde.cap" 
d="M357 882q-2 -49 -23 -76.5t-53 -27.5q-20 0 -37 6t-33 13.5t-31.5 14t-31.5 6.5q-15 0 -22.5 -8t-12.5 -29l-47 5q2 49 23 76.5t53 27.5q19 0 36.5 -6.5t33.5 -14t31.5 -13.5t31.5 -6q15 0 22.5 8t12.5 29z" />
    <glyph glyph-name="macron.cap" 
d="M77 798v70h270v-70h-270z" />
    <glyph glyph-name="breve.cap" 
d="M212 755q-36 0 -61.5 11t-41 30t-23.5 44t-10 54l52 6q6 -41 26 -60.5t58 -19.5t58 19.5t26 60.5l52 -6q-2 -29 -10 -54t-23.5 -44t-41 -30t-61.5 -11z" />
    <glyph glyph-name="dotaccent.cap" 
d="M209 777q-23 0 -37.5 12.5t-14.5 43.5v2q0 31 14.5 43.5t37.5 12.5h6q23 0 37.5 -12.5t14.5 -43.5v-2q0 -31 -14.5 -43.5t-37.5 -12.5h-6z" />
    <glyph glyph-name="ring.cap" 
d="M155 862q0 -33 10.5 -46.5t44.5 -13.5h3q34 0 44.5 13.5t10.5 46.5t-10.5 46.5t-44.5 13.5h-3q-34 0 -44.5 -13.5t-10.5 -46.5zM96 864q0 58 29 85.5t85 27.5h3q56 0 85 -27.5t29 -85.5v-4q0 -58 -29 -85.5t-85 -27.5h-3q-56 0 -85 27.5t-29 85.5v4z" />
    <glyph glyph-name="hungarumlaut.cap" 
d="M33 799l110 162q8 12 16 14.5t19 -7.5l40 -36l-147 -163zM206 799l110 162q8 12 16.5 14.5t19.5 -7.5l39 -36l-147 -163z" />
    <glyph glyph-name="caron.cap" 
d="M204 759q-19 0 -29 5.5t-24 23.5l-91 111l33 28l119 -103l119 103l33 -28l-91 -111q-14 -18 -24 -23.5t-29 -5.5h-16z" />
    <glyph glyph-name="Agrave" unicode="&#xc0;" horiz-adv-x="641" 
d="M443 205h-263l-44 -139h55v-66h-191v66h57l203 618h75q14 0 18.5 -4.5t9.5 -16.5l218 -597h56v-66h-207v66h61zM202 274h217l-114 320zM376 749l-182 132l32 44q9 13 17.5 12t20.5 -12l143 -137z" />
    <glyph glyph-name="Aacute" unicode="&#xc1;" horiz-adv-x="641" 
d="M443 205h-263l-44 -139h55v-66h-191v66h57l203 618h75q14 0 18.5 -4.5t9.5 -16.5l218 -597h56v-66h-207v66h61zM202 274h217l-114 320zM214 788l143 137q12 11 20.5 12t17.5 -12l32 -44l-182 -132z" />
    <glyph glyph-name="Acircumflex" unicode="&#xc2;" horiz-adv-x="641" 
d="M443 205h-263l-44 -139h55v-66h-191v66h57l203 618h75q14 0 18.5 -4.5t9.5 -16.5l218 -597h56v-66h-207v66h61zM202 274h217l-114 320zM313 923q19 0 29 -5.5t24 -23.5l91 -111l-33 -28l-119 103l-119 -103l-33 28l91 111q14 18 24 23.5t29 5.5h16z" />
    <glyph glyph-name="Atilde" unicode="&#xc3;" horiz-adv-x="641" 
d="M443 205h-263l-44 -139h55v-66h-191v66h57l203 618h75q14 0 18.5 -4.5t9.5 -16.5l218 -597h56v-66h-207v66h61zM202 274h217l-114 320zM446 882q-2 -49 -23 -76.5t-53 -27.5q-20 0 -37 6t-33 13.5t-31.5 14t-31.5 6.5q-15 0 -22.5 -8t-12.5 -29l-47 5q2 49 23 76.5
t53 27.5q19 0 36.5 -6.5t33.5 -14t31.5 -13.5t31.5 -6q15 0 22.5 8t12.5 29z" />
    <glyph glyph-name="Adieresis" unicode="&#xc4;" horiz-adv-x="641" 
d="M443 205h-263l-44 -139h55v-66h-191v66h57l203 618h75q14 0 18.5 -4.5t9.5 -16.5l218 -597h56v-66h-207v66h61zM202 274h217l-114 320zM201 777q-23 0 -37.5 12.5t-14.5 43.5v2q0 31 14.5 43.5t37.5 12.5h6q23 0 37.5 -12.5t14.5 -43.5v-2q0 -31 -14.5 -43.5t-37.5 -12.5
h-6zM401 777q-23 0 -37.5 12.5t-14.5 43.5v2q0 31 14.5 43.5t37.5 12.5h6q23 0 37.5 -12.5t14.5 -43.5v-2q0 -31 -14.5 -43.5t-37.5 -12.5h-6z" />
    <glyph glyph-name="Amacron" unicode="&#x100;" horiz-adv-x="641" 
d="M443 205h-263l-44 -139h55v-66h-191v66h57l203 618h75q14 0 18.5 -4.5t9.5 -16.5l218 -597h56v-66h-207v66h61zM202 274h217l-114 320zM170 798v70h270v-70h-270z" />
    <glyph glyph-name="Abreve" unicode="&#x102;" horiz-adv-x="641" 
d="M443 205h-263l-44 -139h55v-66h-191v66h57l203 618h75q14 0 18.5 -4.5t9.5 -16.5l218 -597h56v-66h-207v66h61zM202 274h217l-114 320zM307 755q-36 0 -61.5 11t-41 30t-23.5 44t-10 54l52 6q6 -41 26 -60.5t58 -19.5t58 19.5t26 60.5l52 -6q-2 -29 -10 -54t-23.5 -44
t-41 -30t-61.5 -11z" />
    <glyph glyph-name="Aring" unicode="&#xc5;" horiz-adv-x="641" 
d="M443 205h-263l-44 -139h55v-66h-191v66h57l203 618h75q14 0 18.5 -4.5t9.5 -16.5l218 -597h56v-66h-207v66h61zM202 274h217l-114 320zM248 862q0 -33 10.5 -46.5t44.5 -13.5h3q34 0 44.5 13.5t10.5 46.5t-10.5 46.5t-44.5 13.5h-3q-34 0 -44.5 -13.5t-10.5 -46.5z
M189 864q0 58 29 85.5t85 27.5h3q56 0 85 -27.5t29 -85.5v-4q0 -58 -29 -85.5t-85 -27.5h-3q-56 0 -85 27.5t-29 85.5v4z" />
    <glyph glyph-name="Aringacute" unicode="&#x1fa;" horiz-adv-x="641" 
d="M443 205h-263l-44 -139h55v-66h-191v66h57l203 618h75q14 0 18.5 -4.5t9.5 -16.5l218 -597h56v-66h-207v66h61zM202 274h217l-114 320zM252 856q0 -33 10.5 -46.5t44.5 -13.5h3q34 0 44.5 13.5t10.5 46.5t-10.5 46.5t-44.5 13.5h-3q-34 0 -44.5 -13.5t-10.5 -46.5z
M193 858q0 58 29 85.5t85 27.5h3q56 0 85 -27.5t29 -85.5v-4q0 -58 -29 -85.5t-85 -27.5h-3q-56 0 -85 27.5t-29 85.5v4zM202 1039l143 137q12 11 20.5 12t17.5 -12l32 -44l-182 -132z" />
    <glyph glyph-name="Aogonek" unicode="&#x104;" horiz-adv-x="641" 
d="M438 -121q0 33 15.5 64t40.5 57h-64v66h61l-48 139h-263l-44 -139h55v-66h-191v66h57l203 618h75q14 0 18.5 -4.5t9.5 -16.5l218 -597h56v-66h-89q-20 -28 -31 -57.5t-11 -56.5q0 -29 17.5 -45.5t65.5 -16.5h41v-46q-17 -5 -37 -7.5t-38 -2.5q-54 0 -85.5 29t-31.5 82z
M202 274h217l-114 320z" />
    <glyph glyph-name="AE" unicode="&#xc6;" horiz-adv-x="925" 
d="M453 274v336l-191 -336h191zM540 618v-234h192q10 0 13 -1.5t3 -7.5v-62h-208v-247h258q0 23 4.5 50t11.5 45h59v-148q0 -7 -4 -10t-19 -3h-466v66h69v139h-230l-78 -139h55v-66h-196v66h57l338 586q6 11 11 17.5t9.5 9.5t10 4t14.5 1h401q15 0 19 -3t4 -10v-147h-59
q-7 18 -11.5 44.5t-4.5 49.5h-253z" />
    <glyph glyph-name="AEacute" unicode="&#x1fc;" horiz-adv-x="925" 
d="M453 274v336l-191 -336h191zM540 618v-234h192q10 0 13 -1.5t3 -7.5v-62h-208v-247h258q0 23 4.5 50t11.5 45h59v-148q0 -7 -4 -10t-19 -3h-466v66h69v139h-230l-78 -139h55v-66h-196v66h57l338 586q6 11 11 17.5t9.5 9.5t10 4t14.5 1h401q15 0 19 -3t4 -10v-147h-59
q-7 18 -11.5 44.5t-4.5 49.5h-253zM519 788l143 137q12 11 20.5 12t17.5 -12l32 -44l-182 -132z" />
    <glyph glyph-name="Cacute" unicode="&#x106;" horiz-adv-x="579" 
d="M461 525q-2 4 -4.5 15.5t-5 25.5t-4 28t-1.5 23q-14 2 -34 3.5t-41 1.5q-113 0 -169.5 -66t-56.5 -214q0 -155 62 -221q32 -35 83.5 -48t124.5 -13h106v-61q-34 -6 -73 -9.5t-65 -3.5q-169 0 -243 83q-42 47 -63 116t-21 156q0 89 22 155.5t63 111t98 67t128 22.5
q38 0 77 -5t65 -13q16 -4 16 -21v-133h-64v0zM254 788l143 137q12 11 20.5 12t17.5 -12l32 -44l-182 -132z" />
    <glyph glyph-name="Ccedilla" unicode="&#xc7;" horiz-adv-x="579" 
d="M461 525q-2 4 -4.5 15.5t-5 25.5t-4 28t-1.5 23q-14 2 -34 3.5t-41 1.5q-113 0 -169.5 -66t-56.5 -214q0 -155 62 -221q32 -35 83.5 -48t124.5 -13h106v-61q-34 -6 -73 -9.5t-65 -3.5q-9 0 -17.5 0.5t-16.5 0.5v-6q0 -13 9 -21t44 -21q35 -14 54 -31.5t19 -52.5
q0 -23 -7.5 -39.5t-19.5 -28.5q-16 -15 -38.5 -21.5t-47.5 -6.5q-21 0 -44 3.5t-37 9.5v43h69q55 0 55 31q0 14 -11 22t-42 21q-37 15 -49.5 28.5t-12.5 37.5q0 18 11 37q-108 17 -161 77q-42 47 -63 116t-21 156q0 89 22 155.5t63 111t98 67t128 22.5q38 0 77 -5t65 -13
q16 -4 16 -21v-133h-64v0z" />
    <glyph glyph-name="Ccircumflex" unicode="&#x108;" horiz-adv-x="579" 
d="M461 525q-2 4 -4.5 15.5t-5 25.5t-4 28t-1.5 23q-14 2 -34 3.5t-41 1.5q-113 0 -169.5 -66t-56.5 -214q0 -155 62 -221q32 -35 83.5 -48t124.5 -13h106v-61q-34 -6 -73 -9.5t-65 -3.5q-169 0 -243 83q-42 47 -63 116t-21 156q0 89 22 155.5t63 111t98 67t128 22.5
q38 0 77 -5t65 -13q16 -4 16 -21v-133h-64v0zM357 923q19 0 29 -5.5t24 -23.5l91 -111l-33 -28l-119 103l-119 -103l-33 28l91 111q14 18 24 23.5t29 5.5h16z" />
    <glyph glyph-name="Ccaron" unicode="&#x10c;" horiz-adv-x="579" 
d="M461 525q-2 4 -4.5 15.5t-5 25.5t-4 28t-1.5 23q-14 2 -34 3.5t-41 1.5q-113 0 -169.5 -66t-56.5 -214q0 -155 62 -221q32 -35 83.5 -48t124.5 -13h106v-61q-34 -6 -73 -9.5t-65 -3.5q-169 0 -243 83q-42 47 -63 116t-21 156q0 89 22 155.5t63 111t98 67t128 22.5
q38 0 77 -5t65 -13q16 -4 16 -21v-133h-64v0zM341 759q-19 0 -29 5.5t-24 23.5l-91 111l33 28l119 -103l119 103l33 -28l-91 -111q-14 -18 -24 -23.5t-29 -5.5h-16z" />
    <glyph glyph-name="Cdotaccent" unicode="&#x10a;" horiz-adv-x="579" 
d="M461 525q-2 4 -4.5 15.5t-5 25.5t-4 28t-1.5 23q-14 2 -34 3.5t-41 1.5q-113 0 -169.5 -66t-56.5 -214q0 -155 62 -221q32 -35 83.5 -48t124.5 -13h106v-61q-34 -6 -73 -9.5t-65 -3.5q-169 0 -243 83q-42 47 -63 116t-21 156q0 89 22 155.5t63 111t98 67t128 22.5
q38 0 77 -5t65 -13q16 -4 16 -21v-133h-64v0zM356 777q-23 0 -37.5 12.5t-14.5 43.5v2q0 31 14.5 43.5t37.5 12.5h6q23 0 37.5 -12.5t14.5 -43.5v-2q0 -31 -14.5 -43.5t-37.5 -12.5h-6z" />
    <glyph glyph-name="Dcaron" unicode="&#x10e;" horiz-adv-x="684" 
d="M62 0v66h69v552h-69v66h234q95 0 155 -19t99 -59q78 -81 78 -260q0 -189 -78 -271q-37 -38 -92.5 -56.5t-142.5 -18.5h-253zM218 68h98q60 0 101 13.5t67 41.5q32 35 44 90t12 133q0 74 -14 128t-47 87q-28 28 -70.5 41.5t-111.5 13.5h-79v-548zM334 759q-19 0 -29 5.5
t-24 23.5l-91 111l33 28l119 -103l119 103l33 -28l-91 -111q-14 -18 -24 -23.5t-29 -5.5h-16z" />
    <glyph glyph-name="Dcroat" unicode="&#x110;" horiz-adv-x="691" 
d="M50 370l88 11v237h-69v66h234q95 0 155 -19t99 -59q78 -81 78 -260q0 -189 -78 -271q-37 -38 -92.5 -56.5t-142.5 -18.5h-253v66h69v248h-88v56zM225 383h139v-69h-139v-246h98q60 0 101 13.5t67 41.5q32 35 44 90t12 133q0 74 -14 128t-47 87q-28 28 -70.5 41.5
t-111.5 13.5h-79v-233z" />
    <glyph glyph-name="Eth" unicode="&#xd0;" horiz-adv-x="691" 
d="M50 370l88 11v237h-69v66h234q95 0 155 -19t99 -59q78 -81 78 -260q0 -189 -78 -271q-37 -38 -92.5 -56.5t-142.5 -18.5h-253v66h69v248h-88v56zM225 383h139v-69h-139v-246h98q60 0 101 13.5t67 41.5q32 35 44 90t12 133q0 74 -14 128t-47 87q-28 28 -70.5 41.5
t-111.5 13.5h-79v-233z" />
    <glyph glyph-name="Egrave" unicode="&#xc8;" horiz-adv-x="607" 
d="M62 0v66h69v552h-69v66h461q15 0 19 -3t4 -10v-147h-59q-7 18 -11.5 44.5t-4.5 49.5h-253v-234h192q10 0 13 -1.5t3 -7.5v-62h-208v-247h258q0 23 4.5 50t11.5 45h59v-148q0 -7 -4 -10t-19 -3h-466zM379 749l-182 132l32 44q9 13 17.5 12t20.5 -12l143 -137z" />
    <glyph glyph-name="Eacute" unicode="&#xc9;" horiz-adv-x="607" 
d="M62 0v66h69v552h-69v66h461q15 0 19 -3t4 -10v-147h-59q-7 18 -11.5 44.5t-4.5 49.5h-253v-234h192q10 0 13 -1.5t3 -7.5v-62h-208v-247h258q0 23 4.5 50t11.5 45h59v-148q0 -7 -4 -10t-19 -3h-466zM217 788l143 137q12 11 20.5 12t17.5 -12l32 -44l-182 -132z" />
    <glyph glyph-name="Ecircumflex" unicode="&#xca;" horiz-adv-x="607" 
d="M62 0v66h69v552h-69v66h461q15 0 19 -3t4 -10v-147h-59q-7 18 -11.5 44.5t-4.5 49.5h-253v-234h192q10 0 13 -1.5t3 -7.5v-62h-208v-247h258q0 23 4.5 50t11.5 45h59v-148q0 -7 -4 -10t-19 -3h-466zM319 923q19 0 29 -5.5t24 -23.5l91 -111l-33 -28l-119 103l-119 -103
l-33 28l91 111q14 18 24 23.5t29 5.5h16z" />
    <glyph glyph-name="Ecaron" unicode="&#x11a;" horiz-adv-x="603" 
d="M62 0v66h69v552h-69v66h461q15 0 19 -3t4 -10v-147h-59q-7 18 -11.5 44.5t-4.5 49.5h-253v-234h192q10 0 13 -1.5t3 -7.5v-62h-208v-247h258q0 23 4.5 50t11.5 45h59v-148q0 -7 -4 -10t-19 -3h-466zM323 759q-19 0 -29 5.5t-24 23.5l-91 111l33 28l119 -103l119 103
l33 -28l-91 -111q-14 -18 -24 -23.5t-29 -5.5h-16z" />
    <glyph glyph-name="Edieresis" unicode="&#xcb;" horiz-adv-x="607" 
d="M62 0v66h69v552h-69v66h461q15 0 19 -3t4 -10v-147h-59q-7 18 -11.5 44.5t-4.5 49.5h-253v-234h192q10 0 13 -1.5t3 -7.5v-62h-208v-247h258q0 23 4.5 50t11.5 45h59v-148q0 -7 -4 -10t-19 -3h-466zM208 777q-23 0 -37.5 12.5t-14.5 43.5v2q0 31 14.5 43.5t37.5 12.5h6
q23 0 37.5 -12.5t14.5 -43.5v-2q0 -31 -14.5 -43.5t-37.5 -12.5h-6zM408 777q-23 0 -37.5 12.5t-14.5 43.5v2q0 31 14.5 43.5t37.5 12.5h6q23 0 37.5 -12.5t14.5 -43.5v-2q0 -31 -14.5 -43.5t-37.5 -12.5h-6z" />
    <glyph glyph-name="Emacron" unicode="&#x112;" horiz-adv-x="603" 
d="M62 0v66h69v552h-69v66h461q15 0 19 -3t4 -10v-147h-59q-7 18 -11.5 44.5t-4.5 49.5h-253v-234h192q10 0 13 -1.5t3 -7.5v-62h-208v-247h258q0 23 4.5 50t11.5 45h59v-148q0 -7 -4 -10t-19 -3h-466zM186 798v70h270v-70h-270z" />
    <glyph glyph-name="Ebreve" unicode="&#x114;" horiz-adv-x="603" 
d="M62 0v66h69v552h-69v66h461q15 0 19 -3t4 -10v-147h-59q-7 18 -11.5 44.5t-4.5 49.5h-253v-234h192q10 0 13 -1.5t3 -7.5v-62h-208v-247h258q0 23 4.5 50t11.5 45h59v-148q0 -7 -4 -10t-19 -3h-466zM321 755q-36 0 -61.5 11t-41 30t-23.5 44t-10 54l52 6q6 -41 26 -60.5
t58 -19.5t58 19.5t26 60.5l52 -6q-2 -29 -10 -54t-23.5 -44t-41 -30t-61.5 -11z" />
    <glyph glyph-name="Edotaccent" unicode="&#x116;" horiz-adv-x="603" 
d="M62 0v66h69v552h-69v66h461q15 0 19 -3t4 -10v-147h-59q-7 18 -11.5 44.5t-4.5 49.5h-253v-234h192q10 0 13 -1.5t3 -7.5v-62h-208v-247h258q0 23 4.5 50t11.5 45h59v-148q0 -7 -4 -10t-19 -3h-466zM318 777q-23 0 -37.5 12.5t-14.5 43.5v2q0 31 14.5 43.5t37.5 12.5h6
q23 0 37.5 -12.5t14.5 -43.5v-2q0 -31 -14.5 -43.5t-37.5 -12.5h-6z" />
    <glyph glyph-name="Eogonek" unicode="&#x118;" horiz-adv-x="603" 
d="M357 -121q0 33 14.5 64t39.5 57h-349v66h69v552h-69v66h461q15 0 19 -3t4 -10v-147h-59q-7 18 -11.5 44.5t-4.5 49.5h-253v-234h192q10 0 13 -1.5t3 -7.5v-62h-208v-247h258q0 23 4.5 50t11.5 45h59v-148q0 -7 -4 -10t-19 -3h-60q-20 -28 -31.5 -57.5t-11.5 -56.5
q0 -29 17.5 -45.5t65.5 -16.5h41v-46q-17 -5 -37 -7.5t-38 -2.5q-54 0 -85.5 29t-31.5 82z" />
    <glyph glyph-name="Gcircumflex" unicode="&#x11c;" horiz-adv-x="656" 
d="M491 527q-2 3 -4 14t-4.5 24.5t-4 28t-2.5 25.5q-18 2 -45.5 3.5t-51.5 1.5q-61 0 -102 -14t-70 -46q-63 -71 -63 -223q0 -143 46.5 -212t148.5 -69q34 0 75 7t73 18v181h-106v66h191v-332h-61q-10 12 -15 31q-34 -20 -81.5 -32.5t-91.5 -12.5q-68 0 -118.5 24
t-83.5 69.5t-49 111.5t-16 149q0 94 23 162.5t67 113.5q79 81 226 81q21 0 44 -1.5t45.5 -4t42.5 -6t35 -6.5q16 -4 16 -22v-130h-64zM366 923q19 0 29 -5.5t24 -23.5l91 -111l-33 -28l-119 103l-119 -103l-33 28l91 111q14 18 24 23.5t29 5.5h16z" />
    <glyph glyph-name="Gbreve" unicode="&#x11e;" horiz-adv-x="656" 
d="M491 527q-2 3 -4 14t-4.5 24.5t-4 28t-2.5 25.5q-18 2 -45.5 3.5t-51.5 1.5q-61 0 -102 -14t-70 -46q-63 -71 -63 -223q0 -143 46.5 -212t148.5 -69q34 0 75 7t73 18v181h-106v66h191v-332h-61q-10 12 -15 31q-34 -20 -81.5 -32.5t-91.5 -12.5q-68 0 -118.5 24
t-83.5 69.5t-49 111.5t-16 149q0 94 23 162.5t67 113.5q79 81 226 81q21 0 44 -1.5t45.5 -4t42.5 -6t35 -6.5q16 -4 16 -22v-130h-64zM358 755q-36 0 -61.5 11t-41 30t-23.5 44t-10 54l52 6q6 -41 26 -60.5t58 -19.5t58 19.5t26 60.5l52 -6q-2 -29 -10 -54t-23.5 -44
t-41 -30t-61.5 -11z" />
    <glyph glyph-name="Gdotaccent" unicode="&#x120;" horiz-adv-x="656" 
d="M491 527q-2 3 -4 14t-4.5 24.5t-4 28t-2.5 25.5q-18 2 -45.5 3.5t-51.5 1.5q-61 0 -102 -14t-70 -46q-63 -71 -63 -223q0 -143 46.5 -212t148.5 -69q34 0 75 7t73 18v181h-106v66h191v-332h-61q-10 12 -15 31q-34 -20 -81.5 -32.5t-91.5 -12.5q-68 0 -118.5 24
t-83.5 69.5t-49 111.5t-16 149q0 94 23 162.5t67 113.5q79 81 226 81q21 0 44 -1.5t45.5 -4t42.5 -6t35 -6.5q16 -4 16 -22v-130h-64zM355 777q-23 0 -37.5 12.5t-14.5 43.5v2q0 31 14.5 43.5t37.5 12.5h6q23 0 37.5 -12.5t14.5 -43.5v-2q0 -31 -14.5 -43.5t-37.5 -12.5h-6z
" />
    <glyph glyph-name="Gcommaaccent" unicode="&#x122;" horiz-adv-x="656" 
d="M491 527q-2 3 -4 14t-4.5 24.5t-4 28t-2.5 25.5q-18 2 -45.5 3.5t-51.5 1.5q-61 0 -102 -14t-70 -46q-63 -71 -63 -223q0 -143 46.5 -212t148.5 -69q34 0 75 7t73 18v181h-106v66h191v-332h-61q-10 12 -15 31q-34 -20 -81.5 -32.5t-91.5 -12.5q-68 0 -118.5 24
t-83.5 69.5t-49 111.5t-16 149q0 94 23 162.5t67 113.5q79 81 226 81q21 0 44 -1.5t45.5 -4t42.5 -6t35 -6.5q16 -4 16 -22v-130h-64zM346 -288v115q-40 7 -40 50v2q0 24 13.5 36t34.5 12h1q28 0 40.5 -14.5t12.5 -50.5q0 -15 -1.5 -33.5t-4.5 -37t-6.5 -35.5t-6.5 -30
q-2 -8 -6 -11t-14 -3h-23z" />
    <glyph glyph-name="Hcircumflex" unicode="&#x124;" horiz-adv-x="738" 
d="M451 618v66h225v-66h-69v-552h69v-66h-225v66h69v247h-302v-247h69v-66h-225v66h69v552h-69v66h225v-66h-69v-234h302v234h-69zM377 923q19 0 29 -5.5t24 -23.5l91 -111l-33 -28l-119 103l-119 -103l-33 28l91 111q14 18 24 23.5t29 5.5h16z" />
    <glyph glyph-name="Hbar" unicode="&#x126;" horiz-adv-x="738" 
d="M131 545v73h-69v66h225v-66h-69v-73h302v73h-69v66h225v-66h-69v-73h99v-65h-99v-414h69v-66h-225v66h69v247h-302v-247h69v-66h-225v66h69v414h-99v65h99zM520 384v96h-302v-96h302z" />
    <glyph glyph-name="Igrave" unicode="&#xcc;" horiz-adv-x="353" 
d="M133 618h-69v66h225v-66h-69v-552h69v-66h-225v66h69v552zM253 749l-182 132l32 44q9 13 17.5 12t20.5 -12l143 -137z" />
    <glyph glyph-name="Iacute" unicode="&#xcd;" horiz-adv-x="353" 
d="M133 618h-69v66h225v-66h-69v-552h69v-66h-225v66h69v552zM71 788l143 137q12 11 20.5 12t17.5 -12l32 -44l-182 -132z" />
    <glyph glyph-name="Icircumflex" unicode="&#xce;" horiz-adv-x="353" 
d="M133 618h-69v66h225v-66h-69v-552h69v-66h-225v66h69v552zM186 923q19 0 29 -5.5t24 -23.5l91 -111l-33 -28l-119 103l-119 -103l-33 28l91 111q14 18 24 23.5t29 5.5h16z" />
    <glyph glyph-name="Itilde" unicode="&#x128;" horiz-adv-x="353" 
d="M133 618h-69v66h225v-66h-69v-552h69v-66h-225v66h69v552zM323 882q-2 -49 -23 -76.5t-53 -27.5q-20 0 -37 6t-33 13.5t-31.5 14t-31.5 6.5q-15 0 -22.5 -8t-12.5 -29l-47 5q2 49 23 76.5t53 27.5q19 0 36.5 -6.5t33.5 -14t31.5 -13.5t31.5 -6q15 0 22.5 8t12.5 29z" />
    <glyph glyph-name="Idieresis" unicode="&#xcf;" horiz-adv-x="353" 
d="M133 618h-69v66h225v-66h-69v-552h69v-66h-225v66h69v552zM75 777q-23 0 -37.5 12.5t-14.5 43.5v2q0 31 14.5 43.5t37.5 12.5h6q23 0 37.5 -12.5t14.5 -43.5v-2q0 -31 -14.5 -43.5t-37.5 -12.5h-6zM275 777q-23 0 -37.5 12.5t-14.5 43.5v2q0 31 14.5 43.5t37.5 12.5h6
q23 0 37.5 -12.5t14.5 -43.5v-2q0 -31 -14.5 -43.5t-37.5 -12.5h-6z" />
    <glyph glyph-name="Imacron" unicode="&#x12a;" horiz-adv-x="353" 
d="M133 618h-69v66h225v-66h-69v-552h69v-66h-225v66h69v552zM43 798v70h270v-70h-270z" />
    <glyph glyph-name="Ibreve" unicode="&#x12c;" horiz-adv-x="353" 
d="M133 618h-69v66h225v-66h-69v-552h69v-66h-225v66h69v552zM178 755q-36 0 -61.5 11t-41 30t-23.5 44t-10 54l52 6q6 -41 26 -60.5t58 -19.5t58 19.5t26 60.5l52 -6q-2 -29 -10 -54t-23.5 -44t-41 -30t-61.5 -11z" />
    <glyph glyph-name="Idotaccent" unicode="&#x130;" horiz-adv-x="353" 
d="M133 618h-69v66h225v-66h-69v-552h69v-66h-225v66h69v552zM175 777q-23 0 -37.5 12.5t-14.5 43.5v2q0 31 14.5 43.5t37.5 12.5h6q23 0 37.5 -12.5t14.5 -43.5v-2q0 -31 -14.5 -43.5t-37.5 -12.5h-6z" />
    <glyph glyph-name="Iogonek" unicode="&#x12e;" horiz-adv-x="353" 
d="M97 -121q0 33 15.5 64t40.5 57h-89v66h69v552h-69v66h225v-66h-69v-552h69v-66h-82q-20 -28 -31 -57.5t-11 -56.5q0 -29 17.5 -45.5t65.5 -16.5h41v-46q-17 -5 -37 -7.5t-38 -2.5q-54 0 -85.5 29t-31.5 82z" />
    <glyph glyph-name="IJ" unicode="&#x132;" horiz-adv-x="802" 
d="M133 618h-69v66h225v-66h-69v-552h69v-66h-225v66h69v552zM490 58q38 0 62.5 5.5t40.5 19.5q26 24 26 87v448h-170v66h257v-506q0 -54 -12.5 -91.5t-37.5 -60.5q-43 -40 -129 -40q-27 0 -58 2t-60 7v63h81z" />
    <glyph glyph-name="Jcircumflex" unicode="&#x134;" horiz-adv-x="449" 
d="M137 58q38 0 62.5 5.5t40.5 19.5q26 24 26 87v448h-170v66h257v-506q0 -54 -12.5 -91.5t-37.5 -60.5q-43 -40 -129 -40q-27 0 -58 2t-60 7v63h81zM242 923q19 0 29 -5.5t24 -23.5l91 -111l-33 -28l-119 103l-119 -103l-33 28l91 111q14 18 24 23.5t29 5.5h16z" />
    <glyph glyph-name="Kcommaaccent" unicode="&#x136;" horiz-adv-x="665" 
d="M131 618h-69v66h225v-66h-69v-276l269 309q17 20 31.5 26.5t38.5 6.5h82v-66h-76l-197 -214l201 -338h80v-64q-23 -2 -51 -3.5t-43 -1.5q-29 0 -41.5 9t-25.5 31l-178 304l-90 -98v-177h69v-66h-225v66h69v552zM371 -288v115q-40 7 -40 50v2q0 24 13.5 36t34.5 12h1
q28 0 40.5 -14.5t12.5 -50.5q0 -15 -1.5 -33.5t-4.5 -37t-6.5 -35.5t-6.5 -30q-2 -8 -6 -11t-14 -3h-23z" />
    <glyph glyph-name="Lacute" unicode="&#x139;" horiz-adv-x="573" 
d="M468 66q0 23 4.5 50t11.5 45h59v-148q0 -7 -4 -10t-19 -3h-458v66h69v552h-69v66h225v-66h-69v-552h250zM84 788l143 137q12 11 20.5 12t17.5 -12l32 -44l-182 -132z" />
    <glyph glyph-name="Lcaron" unicode="&#x13d;" horiz-adv-x="573" 
d="M468 66q0 23 4.5 50t11.5 45h59v-148q0 -7 -4 -10t-19 -3h-458v66h69v552h-69v66h225v-66h-69v-552h250zM381 482v115q-40 7 -40 50v2q0 24 13.5 36t34.5 12h1q28 0 40.5 -14.5t12.5 -50.5q0 -15 -1.5 -33.5t-4.5 -37t-6.5 -35.5t-6.5 -30q-2 -8 -6 -11t-14 -3h-23z" />
    <glyph glyph-name="Lcommaaccent" unicode="&#x13b;" horiz-adv-x="573" 
d="M468 66q0 23 4.5 50t11.5 45h59v-148q0 -7 -4 -10t-19 -3h-458v66h69v552h-69v66h225v-66h-69v-552h250zM307 -288v115q-40 7 -40 50v2q0 24 13.5 36t34.5 12h1q28 0 40.5 -14.5t12.5 -50.5q0 -15 -1.5 -33.5t-4.5 -37t-6.5 -35.5t-6.5 -30q-2 -8 -6 -11t-14 -3h-23z" />
    <glyph glyph-name="Lslash" unicode="&#x141;" horiz-adv-x="573" 
d="M468 66q0 23 4.5 50t11.5 45h59v-148q0 -7 -4 -10t-19 -3h-458v66h69v171l-65 -42l-32 54l97 64v305h-69v66h225v-66h-69v-248l142 94l32 -55l-174 -115v-228h250z" />
    <glyph glyph-name="Ldot" unicode="&#x13f;" horiz-adv-x="573" 
d="M468 66q0 23 4.5 50t11.5 45h59v-148q0 -7 -4 -10t-19 -3h-458v66h69v552h-69v66h225v-66h-69v-552h250zM410 294q-23 0 -37.5 12.5t-14.5 43.5v2q0 31 14.5 43.5t37.5 12.5h6q23 0 37.5 -12.5t14.5 -43.5v-2q0 -31 -14.5 -43.5t-37.5 -12.5h-6z" />
    <glyph glyph-name="Nacute" unicode="&#x143;" horiz-adv-x="763" 
d="M154 684q23 0 33.5 -4t23.5 -22l360 -510v470h-69v66h213v-66h-69v-618h-64l-376 537v-471h69v-66h-213v66h69v552h-69v66h92v0zM295 788l143 137q12 11 20.5 12t17.5 -12l32 -44l-182 -132z" />
    <glyph glyph-name="Ncaron" unicode="&#x147;" horiz-adv-x="763" 
d="M154 684q23 0 33.5 -4t23.5 -22l360 -510v470h-69v66h213v-66h-69v-618h-64l-376 537v-471h69v-66h-213v66h69v552h-69v66h92v0zM373 759q-19 0 -29 5.5t-24 23.5l-91 111l33 28l119 -103l119 103l33 -28l-91 -111q-14 -18 -24 -23.5t-29 -5.5h-16z" />
    <glyph glyph-name="Ntilde" unicode="&#xd1;" horiz-adv-x="763" 
d="M154 684q23 0 33.5 -4t23.5 -22l360 -510v470h-69v66h213v-66h-69v-618h-64l-376 537v-471h69v-66h-213v66h69v552h-69v66h92v0zM527 882q-2 -49 -23 -76.5t-53 -27.5q-20 0 -37 6t-33 13.5t-31.5 14t-31.5 6.5q-15 0 -22.5 -8t-12.5 -29l-47 5q2 49 23 76.5t53 27.5
q19 0 36.5 -6.5t33.5 -14t31.5 -13.5t31.5 -6q15 0 22.5 8t12.5 29z" />
    <glyph glyph-name="Ncommaaccent" unicode="&#x145;" horiz-adv-x="763" 
d="M154 684q23 0 33.5 -4t23.5 -22l360 -510v470h-69v66h213v-66h-69v-618h-64l-376 537v-471h69v-66h-213v66h69v552h-69v66h92v0zM380 -288v115q-40 7 -40 50v2q0 24 13.5 36t34.5 12h1q28 0 40.5 -14.5t12.5 -50.5q0 -15 -1.5 -33.5t-4.5 -37t-6.5 -35.5t-6.5 -30
q-2 -8 -6 -11t-14 -3h-23z" />
    <glyph glyph-name="Eng" unicode="&#x14a;" horiz-adv-x="763" 
d="M546 -92q25 24 25 87v20l-365 522v-471h69v-66h-213v66h69v552h-69v66h92q23 0 33.5 -4t23.5 -22l360 -510v470h-69v66h213v-66h-69v-623q0 -100 -47 -144q-20 -19 -48.5 -28t-63.5 -9q-31 0 -59.5 3.5t-45.5 7.5v58h62q38 0 62 5.5t40 19.5z" />
    <glyph glyph-name="Ograve" unicode="&#xd2;" horiz-adv-x="662" 
d="M331 65q52 0 87.5 19t57.5 55t31.5 87t9.5 115t-9.5 115t-31.5 87t-57.5 55.5t-87.5 19.5t-87.5 -19.5t-57.5 -55.5t-31.5 -87t-9.5 -115t9.5 -115t31.5 -87t57.5 -55t87.5 -19zM331 -14q-133 0 -204 89t-71 266t71 266.5t204 89.5t204 -89.5t71 -266.5t-71 -266
t-204 -89zM406 749l-182 132l32 44q9 13 17.5 12t20.5 -12l143 -137z" />
    <glyph glyph-name="Oacute" unicode="&#xd3;" horiz-adv-x="662" 
d="M331 65q52 0 87.5 19t57.5 55t31.5 87t9.5 115t-9.5 115t-31.5 87t-57.5 55.5t-87.5 19.5t-87.5 -19.5t-57.5 -55.5t-31.5 -87t-9.5 -115t9.5 -115t31.5 -87t57.5 -55t87.5 -19zM331 -14q-133 0 -204 89t-71 266t71 266.5t204 89.5t204 -89.5t71 -266.5t-71 -266
t-204 -89zM224 788l143 137q12 11 20.5 12t17.5 -12l32 -44l-182 -132z" />
    <glyph glyph-name="Ocircumflex" unicode="&#xd4;" horiz-adv-x="662" 
d="M331 65q52 0 87.5 19t57.5 55t31.5 87t9.5 115t-9.5 115t-31.5 87t-57.5 55.5t-87.5 19.5t-87.5 -19.5t-57.5 -55.5t-31.5 -87t-9.5 -115t9.5 -115t31.5 -87t57.5 -55t87.5 -19zM331 -14q-133 0 -204 89t-71 266t71 266.5t204 89.5t204 -89.5t71 -266.5t-71 -266
t-204 -89zM339 923q19 0 29 -5.5t24 -23.5l91 -111l-33 -28l-119 103l-119 -103l-33 28l91 111q14 18 24 23.5t29 5.5h16z" />
    <glyph glyph-name="Otilde" unicode="&#xd5;" horiz-adv-x="662" 
d="M331 65q52 0 87.5 19t57.5 55t31.5 87t9.5 115t-9.5 115t-31.5 87t-57.5 55.5t-87.5 19.5t-87.5 -19.5t-57.5 -55.5t-31.5 -87t-9.5 -115t9.5 -115t31.5 -87t57.5 -55t87.5 -19zM331 -14q-133 0 -204 89t-71 266t71 266.5t204 89.5t204 -89.5t71 -266.5t-71 -266
t-204 -89zM476 882q-2 -49 -23 -76.5t-53 -27.5q-20 0 -37 6t-33 13.5t-31.5 14t-31.5 6.5q-15 0 -22.5 -8t-12.5 -29l-47 5q2 49 23 76.5t53 27.5q19 0 36.5 -6.5t33.5 -14t31.5 -13.5t31.5 -6q15 0 22.5 8t12.5 29z" />
    <glyph glyph-name="Odieresis" unicode="&#xd6;" horiz-adv-x="662" 
d="M331 65q52 0 87.5 19t57.5 55t31.5 87t9.5 115t-9.5 115t-31.5 87t-57.5 55.5t-87.5 19.5t-87.5 -19.5t-57.5 -55.5t-31.5 -87t-9.5 -115t9.5 -115t31.5 -87t57.5 -55t87.5 -19zM331 -14q-133 0 -204 89t-71 266t71 266.5t204 89.5t204 -89.5t71 -266.5t-71 -266
t-204 -89zM228 777q-23 0 -37.5 12.5t-14.5 43.5v2q0 31 14.5 43.5t37.5 12.5h6q23 0 37.5 -12.5t14.5 -43.5v-2q0 -31 -14.5 -43.5t-37.5 -12.5h-6zM428 777q-23 0 -37.5 12.5t-14.5 43.5v2q0 31 14.5 43.5t37.5 12.5h6q23 0 37.5 -12.5t14.5 -43.5v-2q0 -31 -14.5 -43.5
t-37.5 -12.5h-6z" />
    <glyph glyph-name="Omacron" unicode="&#x14c;" horiz-adv-x="662" 
d="M331 65q52 0 87.5 19t57.5 55t31.5 87t9.5 115t-9.5 115t-31.5 87t-57.5 55.5t-87.5 19.5t-87.5 -19.5t-57.5 -55.5t-31.5 -87t-9.5 -115t9.5 -115t31.5 -87t57.5 -55t87.5 -19zM331 -14q-133 0 -204 89t-71 266t71 266.5t204 89.5t204 -89.5t71 -266.5t-71 -266
t-204 -89zM196 798v70h270v-70h-270z" />
    <glyph glyph-name="Obreve" unicode="&#x14e;" horiz-adv-x="662" 
d="M331 65q52 0 87.5 19t57.5 55t31.5 87t9.5 115t-9.5 115t-31.5 87t-57.5 55.5t-87.5 19.5t-87.5 -19.5t-57.5 -55.5t-31.5 -87t-9.5 -115t9.5 -115t31.5 -87t57.5 -55t87.5 -19zM331 -14q-133 0 -204 89t-71 266t71 266.5t204 89.5t204 -89.5t71 -266.5t-71 -266
t-204 -89zM331 755q-36 0 -61.5 11t-41 30t-23.5 44t-10 54l52 6q6 -41 26 -60.5t58 -19.5t58 19.5t26 60.5l52 -6q-2 -29 -10 -54t-23.5 -44t-41 -30t-61.5 -11z" />
    <glyph glyph-name="Ohungarumlaut" unicode="&#x150;" horiz-adv-x="662" 
d="M331 65q52 0 87.5 19t57.5 55t31.5 87t9.5 115t-9.5 115t-31.5 87t-57.5 55.5t-87.5 19.5t-87.5 -19.5t-57.5 -55.5t-31.5 -87t-9.5 -115t9.5 -115t31.5 -87t57.5 -55t87.5 -19zM331 -14q-133 0 -204 89t-71 266t71 266.5t204 89.5t204 -89.5t71 -266.5t-71 -266
t-204 -89zM152 799l110 162q8 12 16 14.5t19 -7.5l40 -36l-147 -163zM325 799l110 162q8 12 16.5 14.5t19.5 -7.5l39 -36l-147 -163z" />
    <glyph glyph-name="Oslash" unicode="&#xd8;" horiz-adv-x="662" 
d="M331 -14q-49 0 -93 14l-26 -78h-62l35 101q-63 39 -96 118.5t-33 199.5q0 177 71 266.5t204 89.5q43 0 82 -11l27 77h61l-34 -98q68 -38 103.5 -118.5t35.5 -205.5q0 -177 -71 -266t-204 -89zM331 65q52 0 87.5 19t57.5 55t31.5 87t9.5 115q0 86 -17.5 148.5t-59.5 95.5
l-176 -510q29 -10 67 -10zM145 341q0 -81 15.5 -141t52.5 -95l174 506q-13 3 -26.5 5t-29.5 2q-52 0 -87.5 -19.5t-57.5 -55.5t-31.5 -87t-9.5 -115z" />
    <glyph glyph-name="Oslashacute" unicode="&#x1fe;" horiz-adv-x="662" 
d="M331 -14q-49 0 -93 14l-26 -78h-62l35 101q-63 39 -96 118.5t-33 199.5q0 177 71 266.5t204 89.5q43 0 82 -11l27 77h61l-34 -98q68 -38 103.5 -118.5t35.5 -205.5q0 -177 -71 -266t-204 -89zM331 65q52 0 87.5 19t57.5 55t31.5 87t9.5 115q0 86 -17.5 148.5t-59.5 95.5
l-176 -510q29 -10 67 -10zM145 341q0 -81 15.5 -141t52.5 -95l174 506q-13 3 -26.5 5t-29.5 2q-52 0 -87.5 -19.5t-57.5 -55.5t-31.5 -87t-9.5 -115zM224 788l143 137q12 11 20.5 12t17.5 -12l32 -44l-182 -132z" />
    <glyph glyph-name="OE" unicode="&#x152;" horiz-adv-x="943" 
d="M468 68l-1 548h-64q-64 0 -114.5 -15t-82.5 -50t-48.5 -86.5t-16.5 -122.5t16.5 -122.5t48.5 -86.5t82.5 -50t114.5 -15h65zM393 0q-88 0 -151 22.5t-104 65.5q-86 91 -86 254t86 254q41 43 104 65.5t151 22.5h466q15 0 19 -3t4 -10v-147h-59q-7 18 -11.5 44.5t-4.5 49.5
h-253v-234h192q10 0 13 -1.5t3 -7.5v-62h-208v-247h258q0 23 4.5 50t11.5 45h59v-148q0 -7 -4 -10t-19 -3h-471z" />
    <glyph glyph-name="Thorn" unicode="&#xde;" horiz-adv-x="604" 
d="M133 618h-69v66h225v-66h-69v-66h117q69 0 110.5 -10.5t67.5 -35.5q53 -50 53 -153q0 -214 -207 -214q-38 0 -75.5 3.5t-65.5 7.5v-84h69v-66h-225v66h69v552zM220 486v-278h106q46 0 74.5 8t45.5 25t25 46t8 67q0 71 -35 103q-17 15 -43.5 22t-69.5 7h-111z" />
    <glyph glyph-name="Racute" unicode="&#x154;" horiz-adv-x="656" 
d="M287 66v-66h-225v66h69v552h-69v66h277q69 0 110.5 -11t67.5 -36t39.5 -61t13.5 -88q0 -168 -133 -203l113 -219h76v-64q-23 -2 -45.5 -3.5t-39.5 -1.5q-29 0 -44 9t-26 31l-120 240h-133v-211h69zM218 346h110q46 0 74.5 8t45.5 25t25 45.5t8 64.5q0 33 -8.5 58.5
t-25.5 41.5q-17 15 -43.5 22t-69.5 7h-116v-272zM251 788l143 137q12 11 20.5 12t17.5 -12l32 -44l-182 -132z" />
    <glyph glyph-name="Rcaron" unicode="&#x158;" horiz-adv-x="656" 
d="M287 66v-66h-225v66h69v552h-69v66h277q69 0 110.5 -11t67.5 -36t39.5 -61t13.5 -88q0 -168 -133 -203l113 -219h76v-64q-23 -2 -45.5 -3.5t-39.5 -1.5q-29 0 -44 9t-26 31l-120 240h-133v-211h69zM218 346h110q46 0 74.5 8t45.5 25t25 45.5t8 64.5q0 33 -8.5 58.5
t-25.5 41.5q-17 15 -43.5 22t-69.5 7h-116v-272zM330 759q-19 0 -29 5.5t-24 23.5l-91 111l33 28l119 -103l119 103l33 -28l-91 -111q-14 -18 -24 -23.5t-29 -5.5h-16z" />
    <glyph glyph-name="Rcommaaccent" unicode="&#x156;" horiz-adv-x="656" 
d="M287 66v-66h-225v66h69v552h-69v66h277q69 0 110.5 -11t67.5 -36t39.5 -61t13.5 -88q0 -168 -133 -203l113 -219h76v-64q-23 -2 -45.5 -3.5t-39.5 -1.5q-29 0 -44 9t-26 31l-120 240h-133v-211h69zM218 346h110q46 0 74.5 8t45.5 25t25 45.5t8 64.5q0 33 -8.5 58.5
t-25.5 41.5q-17 15 -43.5 22t-69.5 7h-116v-272zM358 -288v115q-40 7 -40 50v2q0 24 13.5 36t34.5 12h1q28 0 40.5 -14.5t12.5 -50.5q0 -15 -1.5 -33.5t-4.5 -37t-6.5 -35.5t-6.5 -30q-2 -8 -6 -11t-14 -3h-23z" />
    <glyph glyph-name="Sacute" unicode="&#x15a;" horiz-adv-x="567" 
d="M155 68q18 -4 48 -7t62 -3q91 0 131 36q34 31 34 85q0 23 -5.5 41.5t-18.5 32.5t-36 25t-65 24l-52 16q-50 15 -82 32.5t-51 35.5q-26 25 -37.5 55.5t-11.5 68.5q0 43 13.5 76t39.5 57q32 30 76.5 43.5t107.5 13.5q43 0 86.5 -6.5t69.5 -14.5q8 -2 12 -6t4 -14v-119h-64
q-2 4 -4 13.5t-4 21t-3.5 23.5t-1.5 21q-20 3 -49.5 5t-48.5 2q-42 0 -73 -8t-51 -28q-27 -27 -27 -71q0 -22 6 -40.5t22 -34.5q14 -13 36.5 -25.5t62.5 -24.5l55 -17q52 -17 85.5 -34.5t54.5 -42.5q37 -43 37 -119q0 -45 -13.5 -78.5t-38.5 -57.5q-62 -60 -194 -60
q-53 0 -99 6t-74 14q-9 3 -12.5 7t-3.5 14v122h64q2 -4 4 -13.5t4 -21.5t3.5 -24t1.5 -21zM198 788l143 137q12 11 20.5 12t17.5 -12l32 -44l-182 -132z" />
    <glyph glyph-name="Scircumflex" unicode="&#x15c;" horiz-adv-x="567" 
d="M155 68q18 -4 48 -7t62 -3q91 0 131 36q34 31 34 85q0 23 -5.5 41.5t-18.5 32.5t-36 25t-65 24l-52 16q-50 15 -82 32.5t-51 35.5q-26 25 -37.5 55.5t-11.5 68.5q0 43 13.5 76t39.5 57q32 30 76.5 43.5t107.5 13.5q43 0 86.5 -6.5t69.5 -14.5q8 -2 12 -6t4 -14v-119h-64
q-2 4 -4 13.5t-4 21t-3.5 23.5t-1.5 21q-20 3 -49.5 5t-48.5 2q-42 0 -73 -8t-51 -28q-27 -27 -27 -71q0 -22 6 -40.5t22 -34.5q14 -13 36.5 -25.5t62.5 -24.5l55 -17q52 -17 85.5 -34.5t54.5 -42.5q37 -43 37 -119q0 -45 -13.5 -78.5t-38.5 -57.5q-62 -60 -194 -60
q-53 0 -99 6t-74 14q-9 3 -12.5 7t-3.5 14v122h64q2 -4 4 -13.5t4 -21.5t3.5 -24t1.5 -21zM303 923q19 0 29 -5.5t24 -23.5l91 -111l-33 -28l-119 103l-119 -103l-33 28l91 111q14 18 24 23.5t29 5.5h16z" />
    <glyph glyph-name="Scaron" unicode="&#x160;" horiz-adv-x="567" 
d="M155 68q18 -4 48 -7t62 -3q91 0 131 36q34 31 34 85q0 23 -5.5 41.5t-18.5 32.5t-36 25t-65 24l-52 16q-50 15 -82 32.5t-51 35.5q-26 25 -37.5 55.5t-11.5 68.5q0 43 13.5 76t39.5 57q32 30 76.5 43.5t107.5 13.5q43 0 86.5 -6.5t69.5 -14.5q8 -2 12 -6t4 -14v-119h-64
q-2 4 -4 13.5t-4 21t-3.5 23.5t-1.5 21q-20 3 -49.5 5t-48.5 2q-42 0 -73 -8t-51 -28q-27 -27 -27 -71q0 -22 6 -40.5t22 -34.5q14 -13 36.5 -25.5t62.5 -24.5l55 -17q52 -17 85.5 -34.5t54.5 -42.5q37 -43 37 -119q0 -45 -13.5 -78.5t-38.5 -57.5q-62 -60 -194 -60
q-53 0 -99 6t-74 14q-9 3 -12.5 7t-3.5 14v122h64q2 -4 4 -13.5t4 -21.5t3.5 -24t1.5 -21zM286 759q-19 0 -29 5.5t-24 23.5l-91 111l33 28l119 -103l119 103l33 -28l-91 -111q-14 -18 -24 -23.5t-29 -5.5h-16z" />
    <glyph glyph-name="Scedilla" unicode="&#x15e;" horiz-adv-x="567" 
d="M155 68q18 -4 48 -7t62 -3q91 0 131 36q34 31 34 85q0 23 -5.5 41.5t-18.5 32.5t-36 25t-65 24l-52 16q-50 15 -82 32.5t-51 35.5q-26 25 -37.5 55.5t-11.5 68.5q0 43 13.5 76t39.5 57q32 30 76.5 43.5t107.5 13.5q43 0 86.5 -6.5t69.5 -14.5q8 -2 12 -6t4 -14v-119h-64
q-2 4 -4 13.5t-4 21t-3.5 23.5t-1.5 21q-20 3 -49.5 5t-48.5 2q-42 0 -73 -8t-51 -28q-27 -27 -27 -71q0 -22 6 -40.5t22 -34.5q14 -13 36.5 -25.5t62.5 -24.5l55 -17q52 -17 85.5 -34.5t54.5 -42.5q37 -43 37 -119q0 -45 -13.5 -78.5t-38.5 -57.5q-54 -53 -166 -59v-5
q0 -13 9 -21t44 -21q35 -14 54 -31.5t19 -52.5q0 -23 -7.5 -39.5t-19.5 -28.5q-16 -15 -38.5 -21.5t-47.5 -6.5q-21 0 -44 3.5t-37 9.5v43h69q55 0 55 31q0 14 -11 22t-42 21q-37 15 -49.5 28.5t-12.5 37.5q0 14 8 30q-46 2 -85.5 7t-64.5 13q-9 3 -12.5 7t-3.5 14v122h64
q2 -4 4 -13.5t4 -21.5t3.5 -24t1.5 -21z" />
    <glyph glyph-name="Scommaaccent" unicode="&#x218;" horiz-adv-x="567" 
d="M155 68q18 -4 48 -7t62 -3q91 0 131 36q34 31 34 85q0 23 -5.5 41.5t-18.5 32.5t-36 25t-65 24l-52 16q-50 15 -82 32.5t-51 35.5q-26 25 -37.5 55.5t-11.5 68.5q0 43 13.5 76t39.5 57q32 30 76.5 43.5t107.5 13.5q43 0 86.5 -6.5t69.5 -14.5q8 -2 12 -6t4 -14v-119h-64
q-2 4 -4 13.5t-4 21t-3.5 23.5t-1.5 21q-20 3 -49.5 5t-48.5 2q-42 0 -73 -8t-51 -28q-27 -27 -27 -71q0 -22 6 -40.5t22 -34.5q14 -13 36.5 -25.5t62.5 -24.5l55 -17q52 -17 85.5 -34.5t54.5 -42.5q37 -43 37 -119q0 -45 -13.5 -78.5t-38.5 -57.5q-62 -60 -194 -60
q-53 0 -99 6t-74 14q-9 3 -12.5 7t-3.5 14v122h64q2 -4 4 -13.5t4 -21.5t3.5 -24t1.5 -21zM282 -288v115q-40 7 -40 50v2q0 24 13.5 36t34.5 12h1q28 0 40.5 -14.5t12.5 -50.5q0 -15 -1.5 -33.5t-4.5 -37t-6.5 -35.5t-6.5 -30q-2 -8 -6 -11t-14 -3h-23z" />
    <glyph glyph-name="Tcaron" unicode="&#x164;" horiz-adv-x="619" 
d="M564 684q15 0 19 -3t4 -10v-147h-59q-7 18 -11.5 44.5t-4.5 49.5h-159v-552h69v-66h-225v66h69v552h-159q0 -23 -4.5 -49.5t-11.5 -44.5h-59v147q0 7 4 10t19 3h509zM301 759q-19 0 -29 5.5t-24 23.5l-91 111l33 28l119 -103l119 103l33 -28l-91 -111q-14 -18 -24 -23.5
t-29 -5.5h-16z" />
    <glyph glyph-name="Tcommaaccent" unicode="&#x162;" horiz-adv-x="619" 
d="M564 684q15 0 19 -3t4 -10v-147h-59q-7 18 -11.5 44.5t-4.5 49.5h-159v-552h69v-66h-225v66h69v552h-159q0 -23 -4.5 -49.5t-11.5 -44.5h-59v147q0 7 4 10t19 3h509zM298 -288v115q-40 7 -40 50v2q0 24 13.5 36t34.5 12h1q28 0 40.5 -14.5t12.5 -50.5q0 -15 -1.5 -33.5
t-4.5 -37t-6.5 -35.5t-6.5 -30q-2 -8 -6 -11t-14 -3h-23z" />
    <glyph glyph-name="uni021A" unicode="&#x21a;" horiz-adv-x="619" 
d="M564 684q15 0 19 -3t4 -10v-147h-59q-7 18 -11.5 44.5t-4.5 49.5h-159v-552h69v-66h-225v66h69v552h-159q0 -23 -4.5 -49.5t-11.5 -44.5h-59v147q0 7 4 10t19 3h509zM298 -288v115q-40 7 -40 50v2q0 24 13.5 36t34.5 12h1q28 0 40.5 -14.5t12.5 -50.5q0 -15 -1.5 -33.5
t-4.5 -37t-6.5 -35.5t-6.5 -30q-2 -8 -6 -11t-14 -3h-23z" />
    <glyph glyph-name="Tbar" unicode="&#x166;" horiz-adv-x="619" 
d="M564 684q15 0 19 -3t4 -10v-147h-59q-7 18 -11.5 44.5t-4.5 49.5h-159v-255h149v-64h-149v-233h69v-66h-225v66h69v233h-149v64h149v255h-159q0 -23 -4.5 -49.5t-11.5 -44.5h-59v147q0 7 4 10t19 3h509z" />
    <glyph glyph-name="Ugrave" unicode="&#xd9;" horiz-adv-x="715" 
d="M461 618v66h212v-66h-69v-386q0 -65 -16.5 -110.5t-48.5 -75.5t-77.5 -45t-100.5 -15q-64 0 -112.5 16.5t-80.5 51.5q-29 31 -43 75.5t-14 110.5v378h-69v66h225v-66h-69v-375q0 -47 9 -79.5t29 -53.5q21 -23 53 -34.5t77 -11.5q81 0 123 42q20 21 30.5 52t10.5 79v381
h-69zM441 749l-182 132l32 44q9 13 17.5 12t20.5 -12l143 -137z" />
    <glyph glyph-name="Uacute" unicode="&#xda;" horiz-adv-x="715" 
d="M461 618v66h212v-66h-69v-386q0 -65 -16.5 -110.5t-48.5 -75.5t-77.5 -45t-100.5 -15q-64 0 -112.5 16.5t-80.5 51.5q-29 31 -43 75.5t-14 110.5v378h-69v66h225v-66h-69v-375q0 -47 9 -79.5t29 -53.5q21 -23 53 -34.5t77 -11.5q81 0 123 42q20 21 30.5 52t10.5 79v381
h-69zM258 788l143 137q12 11 20.5 12t17.5 -12l32 -44l-182 -132z" />
    <glyph glyph-name="Ucircumflex" unicode="&#xdb;" horiz-adv-x="715" 
d="M461 618v66h212v-66h-69v-386q0 -65 -16.5 -110.5t-48.5 -75.5t-77.5 -45t-100.5 -15q-64 0 -112.5 16.5t-80.5 51.5q-29 31 -43 75.5t-14 110.5v378h-69v66h225v-66h-69v-375q0 -47 9 -79.5t29 -53.5q21 -23 53 -34.5t77 -11.5q81 0 123 42q20 21 30.5 52t10.5 79v381
h-69zM373 923q19 0 29 -5.5t24 -23.5l91 -111l-33 -28l-119 103l-119 -103l-33 28l91 111q14 18 24 23.5t29 5.5h16z" />
    <glyph glyph-name="Utilde" unicode="&#x168;" horiz-adv-x="715" 
d="M461 618v66h212v-66h-69v-386q0 -65 -16.5 -110.5t-48.5 -75.5t-77.5 -45t-100.5 -15q-64 0 -112.5 16.5t-80.5 51.5q-29 31 -43 75.5t-14 110.5v378h-69v66h225v-66h-69v-375q0 -47 9 -79.5t29 -53.5q21 -23 53 -34.5t77 -11.5q81 0 123 42q20 21 30.5 52t10.5 79v381
h-69zM513 882q-2 -49 -23 -76.5t-53 -27.5q-20 0 -37 6t-33 13.5t-31.5 14t-31.5 6.5q-15 0 -22.5 -8t-12.5 -29l-47 5q2 49 23 76.5t53 27.5q19 0 36.5 -6.5t33.5 -14t31.5 -13.5t31.5 -6q15 0 22.5 8t12.5 29z" />
    <glyph glyph-name="Udieresis" unicode="&#xdc;" horiz-adv-x="715" 
d="M461 618v66h212v-66h-69v-386q0 -65 -16.5 -110.5t-48.5 -75.5t-77.5 -45t-100.5 -15q-64 0 -112.5 16.5t-80.5 51.5q-29 31 -43 75.5t-14 110.5v378h-69v66h225v-66h-69v-375q0 -47 9 -79.5t29 -53.5q21 -23 53 -34.5t77 -11.5q81 0 123 42q20 21 30.5 52t10.5 79v381
h-69zM261 777q-23 0 -37.5 12.5t-14.5 43.5v2q0 31 14.5 43.5t37.5 12.5h6q23 0 37.5 -12.5t14.5 -43.5v-2q0 -31 -14.5 -43.5t-37.5 -12.5h-6zM461 777q-23 0 -37.5 12.5t-14.5 43.5v2q0 31 14.5 43.5t37.5 12.5h6q23 0 37.5 -12.5t14.5 -43.5v-2q0 -31 -14.5 -43.5
t-37.5 -12.5h-6z" />
    <glyph glyph-name="Umacron" unicode="&#x16a;" horiz-adv-x="715" 
d="M461 618v66h212v-66h-69v-386q0 -65 -16.5 -110.5t-48.5 -75.5t-77.5 -45t-100.5 -15q-64 0 -112.5 16.5t-80.5 51.5q-29 31 -43 75.5t-14 110.5v378h-69v66h225v-66h-69v-375q0 -47 9 -79.5t29 -53.5q21 -23 53 -34.5t77 -11.5q81 0 123 42q20 21 30.5 52t10.5 79v381
h-69zM233 798v70h270v-70h-270z" />
    <glyph glyph-name="Ubreve" unicode="&#x16c;" horiz-adv-x="715" 
d="M461 618v66h212v-66h-69v-386q0 -65 -16.5 -110.5t-48.5 -75.5t-77.5 -45t-100.5 -15q-64 0 -112.5 16.5t-80.5 51.5q-29 31 -43 75.5t-14 110.5v378h-69v66h225v-66h-69v-375q0 -47 9 -79.5t29 -53.5q21 -23 53 -34.5t77 -11.5q81 0 123 42q20 21 30.5 52t10.5 79v381
h-69zM367 755q-36 0 -61.5 11t-41 30t-23.5 44t-10 54l52 6q6 -41 26 -60.5t58 -19.5t58 19.5t26 60.5l52 -6q-2 -29 -10 -54t-23.5 -44t-41 -30t-61.5 -11z" />
    <glyph glyph-name="Uring" unicode="&#x16e;" horiz-adv-x="715" 
d="M461 618v66h212v-66h-69v-386q0 -65 -16.5 -110.5t-48.5 -75.5t-77.5 -45t-100.5 -15q-64 0 -112.5 16.5t-80.5 51.5q-29 31 -43 75.5t-14 110.5v378h-69v66h225v-66h-69v-375q0 -47 9 -79.5t29 -53.5q21 -23 53 -34.5t77 -11.5q81 0 123 42q20 21 30.5 52t10.5 79v381
h-69zM311 862q0 -33 10.5 -46.5t44.5 -13.5h3q34 0 44.5 13.5t10.5 46.5t-10.5 46.5t-44.5 13.5h-3q-34 0 -44.5 -13.5t-10.5 -46.5zM252 864q0 58 29 85.5t85 27.5h3q56 0 85 -27.5t29 -85.5v-4q0 -58 -29 -85.5t-85 -27.5h-3q-56 0 -85 27.5t-29 85.5v4z" />
    <glyph glyph-name="Uhungarumlaut" unicode="&#x170;" horiz-adv-x="715" 
d="M461 618v66h212v-66h-69v-386q0 -65 -16.5 -110.5t-48.5 -75.5t-77.5 -45t-100.5 -15q-64 0 -112.5 16.5t-80.5 51.5q-29 31 -43 75.5t-14 110.5v378h-69v66h225v-66h-69v-375q0 -47 9 -79.5t29 -53.5q21 -23 53 -34.5t77 -11.5q81 0 123 42q20 21 30.5 52t10.5 79v381
h-69zM208 799l110 162q8 12 16 14.5t19 -7.5l40 -36l-147 -163zM381 799l110 162q8 12 16.5 14.5t19.5 -7.5l39 -36l-147 -163z" />
    <glyph glyph-name="Uogonek" unicode="&#x172;" horiz-adv-x="715" 
d="M292 -121q0 29 12 56.5t32 51.5q-55 3 -97 19t-71 48q-29 31 -43 75.5t-14 110.5v378h-69v66h225v-66h-69v-375q0 -47 9 -79.5t29 -53.5q21 -23 53 -34.5t77 -11.5q81 0 123 42q20 21 30.5 52t10.5 79v381h-69v66h212v-66h-69v-386q0 -65 -16.5 -110.5t-48.5 -75.5
q-27 -26 -63.5 -40t-81.5 -18q-16 -26 -25 -52t-9 -50q0 -29 17.5 -45.5t65.5 -16.5h41v-46q-17 -5 -37 -7.5t-38 -2.5q-54 0 -85.5 29t-31.5 82z" />
    <glyph glyph-name="Wgrave" unicode="&#x1e80;" horiz-adv-x="925" 
d="M863 618l-154 -618h-81q-16 0 -22.5 5t-9.5 17l-126 548l-119 -570h-84q-16 0 -22 5t-10 17l-167 596h-64v66h83q17 0 27.5 -1t17 -5t9.5 -10.5t6 -16.5l151 -565l116 569q4 17 11 23t27 6h69l138 -603l129 537h-60v66h193v-66h-58zM548 749l-182 132l32 44q9 13 17.5 12
t20.5 -12l143 -137z" />
    <glyph glyph-name="Wacute" unicode="&#x1e82;" horiz-adv-x="925" 
d="M863 618l-154 -618h-81q-16 0 -22.5 5t-9.5 17l-126 548l-119 -570h-84q-16 0 -22 5t-10 17l-167 596h-64v66h83q17 0 27.5 -1t17 -5t9.5 -10.5t6 -16.5l151 -565l116 569q4 17 11 23t27 6h69l138 -603l129 537h-60v66h193v-66h-58zM366 788l143 137q12 11 20.5 12
t17.5 -12l32 -44l-182 -132z" />
    <glyph glyph-name="Wcircumflex" unicode="&#x174;" horiz-adv-x="925" 
d="M863 618l-154 -618h-81q-16 0 -22.5 5t-9.5 17l-126 548l-119 -570h-84q-16 0 -22 5t-10 17l-167 596h-64v66h83q17 0 27.5 -1t17 -5t9.5 -10.5t6 -16.5l151 -565l116 569q4 17 11 23t27 6h69l138 -603l129 537h-60v66h193v-66h-58zM480 923q19 0 29 -5.5t24 -23.5
l91 -111l-33 -28l-119 103l-119 -103l-33 28l91 111q14 18 24 23.5t29 5.5h16z" />
    <glyph glyph-name="Wdieresis" unicode="&#x1e84;" horiz-adv-x="925" 
d="M863 618l-154 -618h-81q-16 0 -22.5 5t-9.5 17l-126 548l-119 -570h-84q-16 0 -22 5t-10 17l-167 596h-64v66h83q17 0 27.5 -1t17 -5t9.5 -10.5t6 -16.5l151 -565l116 569q4 17 11 23t27 6h69l138 -603l129 537h-60v66h193v-66h-58zM369 777q-23 0 -37.5 12.5t-14.5 43.5
v2q0 31 14.5 43.5t37.5 12.5h6q23 0 37.5 -12.5t14.5 -43.5v-2q0 -31 -14.5 -43.5t-37.5 -12.5h-6zM569 777q-23 0 -37.5 12.5t-14.5 43.5v2q0 31 14.5 43.5t37.5 12.5h6q23 0 37.5 -12.5t14.5 -43.5v-2q0 -31 -14.5 -43.5t-37.5 -12.5h-6z" />
    <glyph glyph-name="Ygrave" unicode="&#x1ef2;" horiz-adv-x="588" 
d="M4 618v66h74q29 0 40.5 -7t21.5 -25l161 -308l146 274h-53v66h190v-66h-55l-192 -342v-210h69v-66h-225v66h69v209l-186 343h-60zM352 749l-182 132l32 44q9 13 17.5 12t20.5 -12l143 -137z" />
    <glyph glyph-name="Yacute" unicode="&#xdd;" horiz-adv-x="588" 
d="M4 618v66h74q29 0 40.5 -7t21.5 -25l161 -308l146 274h-53v66h190v-66h-55l-192 -342v-210h69v-66h-225v66h69v209l-186 343h-60zM205 788l143 137q12 11 20.5 12t17.5 -12l32 -44l-182 -132z" />
    <glyph glyph-name="Ycircumflex" unicode="&#x176;" horiz-adv-x="588" 
d="M4 618v66h74q29 0 40.5 -7t21.5 -25l161 -308l146 274h-53v66h190v-66h-55l-192 -342v-210h69v-66h-225v66h69v209l-186 343h-60zM302 923q19 0 29 -5.5t24 -23.5l91 -111l-33 -28l-119 103l-119 -103l-33 28l91 111q14 18 24 23.5t29 5.5h16z" />
    <glyph glyph-name="Ydieresis" unicode="&#x178;" horiz-adv-x="588" 
d="M4 618v66h74q29 0 40.5 -7t21.5 -25l161 -308l146 274h-53v66h190v-66h-55l-192 -342v-210h69v-66h-225v66h69v209l-186 343h-60zM193 777q-23 0 -37.5 12.5t-14.5 43.5v2q0 31 14.5 43.5t37.5 12.5h6q23 0 37.5 -12.5t14.5 -43.5v-2q0 -31 -14.5 -43.5t-37.5 -12.5h-6z
M393 777q-23 0 -37.5 12.5t-14.5 43.5v2q0 31 14.5 43.5t37.5 12.5h6q23 0 37.5 -12.5t14.5 -43.5v-2q0 -31 -14.5 -43.5t-37.5 -12.5h-6z" />
    <glyph glyph-name="Zacute" unicode="&#x179;" horiz-adv-x="580" 
d="M60 0q-3 10 -3 27q0 19 4.5 33t18.5 35l344 523h-295q0 -23 -4.5 -49.5t-11.5 -44.5h-58v147q0 7 4 10t19 3h443q3 -11 3 -26q0 -18 -4.5 -33t-18.5 -36l-344 -523h293q0 23 4.5 50.5t11.5 45.5h58v-149q0 -7 -4 -10t-19 -3h-441zM193 788l143 137q12 11 20.5 12
t17.5 -12l32 -44l-182 -132z" />
    <glyph glyph-name="Zcaron" unicode="&#x17d;" horiz-adv-x="580" 
d="M60 0q-3 10 -3 27q0 19 4.5 33t18.5 35l344 523h-295q0 -23 -4.5 -49.5t-11.5 -44.5h-58v147q0 7 4 10t19 3h443q3 -11 3 -26q0 -18 -4.5 -33t-18.5 -36l-344 -523h293q0 23 4.5 50.5t11.5 45.5h58v-149q0 -7 -4 -10t-19 -3h-441zM286 759q-19 0 -29 5.5t-24 23.5
l-91 111l33 28l119 -103l119 103l33 -28l-91 -111q-14 -18 -24 -23.5t-29 -5.5h-16z" />
    <glyph glyph-name="Zdotaccent" unicode="&#x17b;" horiz-adv-x="580" 
d="M60 0q-3 10 -3 27q0 19 4.5 33t18.5 35l344 523h-295q0 -23 -4.5 -49.5t-11.5 -44.5h-58v147q0 7 4 10t19 3h443q3 -11 3 -26q0 -18 -4.5 -33t-18.5 -36l-344 -523h293q0 23 4.5 50.5t11.5 45.5h58v-149q0 -7 -4 -10t-19 -3h-441zM291 777q-23 0 -37.5 12.5t-14.5 43.5v2
q0 31 14.5 43.5t37.5 12.5h6q23 0 37.5 -12.5t14.5 -43.5v-2q0 -31 -14.5 -43.5t-37.5 -12.5h-6z" />
    <glyph glyph-name="agrave" unicode="&#xe0;" horiz-adv-x="529" 
d="M358 232h-100q-71 0 -100 -22q-29 -21 -29 -66q0 -38 23 -62.5t79 -24.5q31 0 64.5 5.5t62.5 16.5v153zM360 29q-32 -19 -71 -31t-79 -12q-34 0 -63.5 9.5t-52 28.5t-35.5 48t-13 68q0 67 39 106q49 50 164 50q27 0 54.5 -1t54.5 -3v43q0 30 -5.5 46.5t-16.5 27.5
q-13 12 -35 16.5t-57 4.5h-152v52q39 11 87.5 16.5t89.5 5.5q92 0 135 -45q18 -19 26.5 -45.5t8.5 -66.5v-286h66v-60q-26 -3 -49 -5t-43 -2q-25 0 -37 9.5t-16 25.5zM346 579l-182 132l32 44q9 13 17.5 12t20.5 -12l143 -137z" />
    <glyph glyph-name="aacute" unicode="&#xe1;" horiz-adv-x="529" 
d="M358 232h-100q-71 0 -100 -22q-29 -21 -29 -66q0 -38 23 -62.5t79 -24.5q31 0 64.5 5.5t62.5 16.5v153zM360 29q-32 -19 -71 -31t-79 -12q-34 0 -63.5 9.5t-52 28.5t-35.5 48t-13 68q0 67 39 106q49 50 164 50q27 0 54.5 -1t54.5 -3v43q0 30 -5.5 46.5t-16.5 27.5
q-13 12 -35 16.5t-57 4.5h-152v52q39 11 87.5 16.5t89.5 5.5q92 0 135 -45q18 -19 26.5 -45.5t8.5 -66.5v-286h66v-60q-26 -3 -49 -5t-43 -2q-25 0 -37 9.5t-16 25.5zM173 618l143 137q12 11 20.5 12t17.5 -12l32 -44l-182 -132z" />
    <glyph glyph-name="acircumflex" unicode="&#xe2;" horiz-adv-x="529" 
d="M358 232h-100q-71 0 -100 -22q-29 -21 -29 -66q0 -38 23 -62.5t79 -24.5q31 0 64.5 5.5t62.5 16.5v153zM360 29q-32 -19 -71 -31t-79 -12q-34 0 -63.5 9.5t-52 28.5t-35.5 48t-13 68q0 67 39 106q49 50 164 50q27 0 54.5 -1t54.5 -3v43q0 30 -5.5 46.5t-16.5 27.5
q-13 12 -35 16.5t-57 4.5h-152v52q39 11 87.5 16.5t89.5 5.5q92 0 135 -45q18 -19 26.5 -45.5t8.5 -66.5v-286h66v-60q-26 -3 -49 -5t-43 -2q-25 0 -37 9.5t-16 25.5zM266 753q19 0 29 -5.5t24 -23.5l91 -111l-33 -28l-119 103l-119 -103l-33 28l91 111q14 18 24 23.5
t29 5.5h16z" />
    <glyph glyph-name="atilde" unicode="&#xe3;" horiz-adv-x="529" 
d="M358 232h-100q-71 0 -100 -22q-29 -21 -29 -66q0 -38 23 -62.5t79 -24.5q31 0 64.5 5.5t62.5 16.5v153zM360 29q-32 -19 -71 -31t-79 -12q-34 0 -63.5 9.5t-52 28.5t-35.5 48t-13 68q0 67 39 106q49 50 164 50q27 0 54.5 -1t54.5 -3v43q0 30 -5.5 46.5t-16.5 27.5
q-13 12 -35 16.5t-57 4.5h-152v52q39 11 87.5 16.5t89.5 5.5q92 0 135 -45q18 -19 26.5 -45.5t8.5 -66.5v-286h66v-60q-26 -3 -49 -5t-43 -2q-25 0 -37 9.5t-16 25.5zM400 712q-2 -49 -23 -76.5t-53 -27.5q-20 0 -37 6t-33 13.5t-31.5 14t-31.5 6.5q-15 0 -22.5 -8
t-12.5 -29l-47 5q2 49 23 76.5t53 27.5q19 0 36.5 -6.5t33.5 -14t31.5 -13.5t31.5 -6q15 0 22.5 8t12.5 29z" />
    <glyph glyph-name="adieresis" unicode="&#xe4;" horiz-adv-x="529" 
d="M358 232h-100q-71 0 -100 -22q-29 -21 -29 -66q0 -38 23 -62.5t79 -24.5q31 0 64.5 5.5t62.5 16.5v153zM360 29q-32 -19 -71 -31t-79 -12q-34 0 -63.5 9.5t-52 28.5t-35.5 48t-13 68q0 67 39 106q49 50 164 50q27 0 54.5 -1t54.5 -3v43q0 30 -5.5 46.5t-16.5 27.5
q-13 12 -35 16.5t-57 4.5h-152v52q39 11 87.5 16.5t89.5 5.5q92 0 135 -45q18 -19 26.5 -45.5t8.5 -66.5v-286h66v-60q-26 -3 -49 -5t-43 -2q-25 0 -37 9.5t-16 25.5zM158 607q-23 0 -37.5 12.5t-14.5 43.5v2q0 31 14.5 43.5t37.5 12.5h6q23 0 37.5 -12.5t14.5 -43.5v-2
q0 -31 -14.5 -43.5t-37.5 -12.5h-6zM358 607q-23 0 -37.5 12.5t-14.5 43.5v2q0 31 14.5 43.5t37.5 12.5h6q23 0 37.5 -12.5t14.5 -43.5v-2q0 -31 -14.5 -43.5t-37.5 -12.5h-6z" />
    <glyph glyph-name="amacron" unicode="&#x101;" horiz-adv-x="529" 
d="M358 232h-100q-71 0 -100 -22q-29 -21 -29 -66q0 -38 23 -62.5t79 -24.5q31 0 64.5 5.5t62.5 16.5v153zM360 29q-32 -19 -71 -31t-79 -12q-34 0 -63.5 9.5t-52 28.5t-35.5 48t-13 68q0 67 39 106q49 50 164 50q27 0 54.5 -1t54.5 -3v43q0 30 -5.5 46.5t-16.5 27.5
q-13 12 -35 16.5t-57 4.5h-152v52q39 11 87.5 16.5t89.5 5.5q92 0 135 -45q18 -19 26.5 -45.5t8.5 -66.5v-286h66v-60q-26 -3 -49 -5t-43 -2q-25 0 -37 9.5t-16 25.5zM129 618v70h270v-70h-270z" />
    <glyph glyph-name="abreve" unicode="&#x103;" horiz-adv-x="529" 
d="M358 232h-100q-71 0 -100 -22q-29 -21 -29 -66q0 -38 23 -62.5t79 -24.5q31 0 64.5 5.5t62.5 16.5v153zM360 29q-32 -19 -71 -31t-79 -12q-34 0 -63.5 9.5t-52 28.5t-35.5 48t-13 68q0 67 39 106q49 50 164 50q27 0 54.5 -1t54.5 -3v43q0 30 -5.5 46.5t-16.5 27.5
q-13 12 -35 16.5t-57 4.5h-152v52q39 11 87.5 16.5t89.5 5.5q92 0 135 -45q18 -19 26.5 -45.5t8.5 -66.5v-286h66v-60q-26 -3 -49 -5t-43 -2q-25 0 -37 9.5t-16 25.5zM264 585q-36 0 -61.5 11t-41 30t-23.5 44t-10 54l52 6q6 -41 26 -60.5t58 -19.5t58 19.5t26 60.5l52 -6
q-2 -29 -10 -54t-23.5 -44t-41 -30t-61.5 -11z" />
    <glyph glyph-name="aring" unicode="&#xe5;" horiz-adv-x="529" 
d="M358 232h-100q-71 0 -100 -22q-29 -21 -29 -66q0 -38 23 -62.5t79 -24.5q31 0 64.5 5.5t62.5 16.5v153zM360 29q-32 -19 -71 -31t-79 -12q-34 0 -63.5 9.5t-52 28.5t-35.5 48t-13 68q0 67 39 106q49 50 164 50q27 0 54.5 -1t54.5 -3v43q0 30 -5.5 46.5t-16.5 27.5
q-13 12 -35 16.5t-57 4.5h-152v52q39 11 87.5 16.5t89.5 5.5q92 0 135 -45q18 -19 26.5 -45.5t8.5 -66.5v-286h66v-60q-26 -3 -49 -5t-43 -2q-25 0 -37 9.5t-16 25.5zM206 692q0 -33 10.5 -46.5t44.5 -13.5h3q34 0 44.5 13.5t10.5 46.5t-10.5 46.5t-44.5 13.5h-3
q-34 0 -44.5 -13.5t-10.5 -46.5zM147 694q0 58 29 85.5t85 27.5h3q56 0 85 -27.5t29 -85.5v-4q0 -58 -29 -85.5t-85 -27.5h-3q-56 0 -85 27.5t-29 85.5v4z" />
    <glyph glyph-name="aringacute" unicode="&#x1fb;" horiz-adv-x="529" 
d="M358 232h-100q-71 0 -100 -22q-29 -21 -29 -66q0 -38 23 -62.5t79 -24.5q31 0 64.5 5.5t62.5 16.5v153zM360 29q-32 -19 -71 -31t-79 -12q-34 0 -63.5 9.5t-52 28.5t-35.5 48t-13 68q0 67 39 106q49 50 164 50q27 0 54.5 -1t54.5 -3v43q0 30 -5.5 46.5t-16.5 27.5
q-13 12 -35 16.5t-57 4.5h-152v52q39 11 87.5 16.5t89.5 5.5q92 0 135 -45q18 -19 26.5 -45.5t8.5 -66.5v-286h66v-60q-26 -3 -49 -5t-43 -2q-25 0 -37 9.5t-16 25.5zM208 671q0 -33 10.5 -46.5t44.5 -13.5h3q34 0 44.5 13.5t10.5 46.5t-10.5 46.5t-44.5 13.5h-3
q-34 0 -44.5 -13.5t-10.5 -46.5zM149 673q0 58 29 85.5t85 27.5h3q56 0 85 -27.5t29 -85.5v-4q0 -58 -29 -85.5t-85 -27.5h-3q-56 0 -85 27.5t-29 85.5v4zM158 852l143 137q12 11 20.5 12t17.5 -12l32 -44l-182 -132z" />
    <glyph glyph-name="aogonek" unicode="&#x105;" horiz-adv-x="529" 
d="M313 -121q0 37 20 69t50 52q-10 4 -15.5 12t-7.5 17q-32 -19 -71 -31t-79 -12q-34 0 -63.5 9.5t-52 28.5t-35.5 48t-13 68q0 67 39 106q49 50 164 50q27 0 54.5 -1t54.5 -3v43q0 30 -5.5 46.5t-16.5 27.5q-13 12 -35 16.5t-57 4.5h-152v52q39 11 87.5 16.5t89.5 5.5
q92 0 135 -45q18 -19 26.5 -45.5t8.5 -66.5v-286h66v-60q-34 -2 -57.5 -14t-38.5 -29t-21.5 -36.5t-6.5 -35.5q0 -29 17.5 -45.5t65.5 -16.5h41v-46q-17 -5 -37 -7.5t-38 -2.5q-54 0 -85.5 28.5t-31.5 82.5zM358 232h-100q-71 0 -100 -22q-29 -21 -29 -66q0 -38 23 -62.5
t79 -24.5q31 0 64.5 5.5t62.5 16.5v153z" />
    <glyph glyph-name="ae" unicode="&#xe6;" horiz-adv-x="816" 
d="M437 220q2 -40 10.5 -69.5t28.5 -49.5q21 -23 56 -33.5t95 -10.5h124v-50q-32 -9 -74 -15t-80 -6q-61 0 -106 15.5t-73 44.5q-45 -29 -94 -44.5t-107 -15.5q-83 0 -127 40.5t-44 113.5q0 67 39 106q49 50 164 50q27 0 54.5 -1t54.5 -3v43q0 30 -5.5 46.5t-16.5 27.5
q-13 12 -35 16.5t-57 4.5h-152v52q39 11 87.5 16.5t89.5 5.5q51 0 88.5 -14t60.5 -49q26 30 63.5 46.5t85.5 16.5q49 0 87 -17t63.5 -49t39 -77.5t13.5 -102.5v-29q0 -9 -11 -9h-322zM242 57q37 0 75 10.5t69 25.5q-14 29 -20.5 64t-7.5 75h-100q-71 0 -100 -22
q-29 -21 -29 -66q0 -19 5 -35t18 -27.5t35 -18t55 -6.5zM693 284q-5 72 -35 112t-91 40q-33 0 -56.5 -12t-39.5 -33t-24 -48.5t-9 -58.5h255z" />
    <glyph glyph-name="aeacute" unicode="&#x1fd;" horiz-adv-x="816" 
d="M437 220q2 -40 10.5 -69.5t28.5 -49.5q21 -23 56 -33.5t95 -10.5h124v-50q-32 -9 -74 -15t-80 -6q-61 0 -106 15.5t-73 44.5q-45 -29 -94 -44.5t-107 -15.5q-83 0 -127 40.5t-44 113.5q0 67 39 106q49 50 164 50q27 0 54.5 -1t54.5 -3v43q0 30 -5.5 46.5t-16.5 27.5
q-13 12 -35 16.5t-57 4.5h-152v52q39 11 87.5 16.5t89.5 5.5q51 0 88.5 -14t60.5 -49q26 30 63.5 46.5t85.5 16.5q49 0 87 -17t63.5 -49t39 -77.5t13.5 -102.5v-29q0 -9 -11 -9h-322zM242 57q37 0 75 10.5t69 25.5q-14 29 -20.5 64t-7.5 75h-100q-71 0 -100 -22
q-29 -21 -29 -66q0 -19 5 -35t18 -27.5t35 -18t55 -6.5zM693 284q-5 72 -35 112t-91 40q-33 0 -56.5 -12t-39.5 -33t-24 -48.5t-9 -58.5h255zM333 618l143 137q12 11 20.5 12t17.5 -12l32 -44l-182 -132z" />
    <glyph glyph-name="cacute" unicode="&#x107;" horiz-adv-x="465" 
d="M425 6q-29 -8 -67.5 -14t-69.5 -6q-119 0 -182 69q-30 33 -46.5 81.5t-16.5 109.5q0 64 18.5 113t50.5 81q31 32 77.5 48t100.5 16q35 0 66 -4.5t54 -9.5q10 -2 13 -6.5t3 -14.5v-111h-62q-2 4 -4 13.5t-4.5 20t-4 21.5t-1.5 20q-24 3 -49 3q-42 0 -74 -9.5t-53 -31.5
q-22 -23 -34.5 -60t-12.5 -88q0 -40 9 -79t34 -65q24 -25 61 -35.5t91 -10.5h103v-51zM186 618l143 137q12 11 20.5 12t17.5 -12l32 -44l-182 -132z" />
    <glyph glyph-name="ccedilla" unicode="&#xe7;" horiz-adv-x="465" 
d="M425 6q-29 -8 -67.5 -14t-69.5 -6q-7 0 -13.5 0.5t-13.5 0.5v-6q0 -13 9 -21t44 -21q35 -14 54 -31.5t19 -52.5q0 -23 -7.5 -39.5t-19.5 -28.5q-16 -15 -38.5 -21.5t-47.5 -6.5q-21 0 -44 3.5t-37 9.5v43h69q55 0 55 31q0 14 -11 22t-42 21q-37 15 -49.5 28.5t-12.5 37.5
q0 21 12 39q-67 15 -108 61q-30 33 -46.5 81.5t-16.5 109.5q0 64 18.5 113t50.5 81q31 32 77.5 48t100.5 16q35 0 66 -4.5t54 -9.5q10 -2 13 -6.5t3 -14.5v-111h-62q-2 4 -4 13.5t-4.5 20t-4 21.5t-1.5 20q-24 3 -49 3q-42 0 -74 -9.5t-53 -31.5q-22 -23 -34.5 -60
t-12.5 -88q0 -40 9 -79t34 -65q24 -25 61 -35.5t91 -10.5h103v-51z" />
    <glyph glyph-name="ccircumflex" unicode="&#x109;" horiz-adv-x="465" 
d="M425 6q-29 -8 -67.5 -14t-69.5 -6q-119 0 -182 69q-30 33 -46.5 81.5t-16.5 109.5q0 64 18.5 113t50.5 81q31 32 77.5 48t100.5 16q35 0 66 -4.5t54 -9.5q10 -2 13 -6.5t3 -14.5v-111h-62q-2 4 -4 13.5t-4.5 20t-4 21.5t-1.5 20q-24 3 -49 3q-42 0 -74 -9.5t-53 -31.5
q-22 -23 -34.5 -60t-12.5 -88q0 -40 9 -79t34 -65q24 -25 61 -35.5t91 -10.5h103v-51zM284 753q19 0 29 -5.5t24 -23.5l91 -111l-33 -28l-119 103l-119 -103l-33 28l91 111q14 18 24 23.5t29 5.5h16z" />
    <glyph glyph-name="ccaron" unicode="&#x10d;" horiz-adv-x="465" 
d="M425 6q-29 -8 -67.5 -14t-69.5 -6q-119 0 -182 69q-30 33 -46.5 81.5t-16.5 109.5q0 64 18.5 113t50.5 81q31 32 77.5 48t100.5 16q35 0 66 -4.5t54 -9.5q10 -2 13 -6.5t3 -14.5v-111h-62q-2 4 -4 13.5t-4.5 20t-4 21.5t-1.5 20q-24 3 -49 3q-42 0 -74 -9.5t-53 -31.5
q-22 -23 -34.5 -60t-12.5 -88q0 -40 9 -79t34 -65q24 -25 61 -35.5t91 -10.5h103v-51zM270 589q-19 0 -29 5.5t-24 23.5l-91 111l33 28l119 -103l119 103l33 -28l-91 -111q-14 -18 -24 -23.5t-29 -5.5h-16z" />
    <glyph glyph-name="cdotaccent" unicode="&#x10b;" horiz-adv-x="465" 
d="M425 6q-29 -8 -67.5 -14t-69.5 -6q-119 0 -182 69q-30 33 -46.5 81.5t-16.5 109.5q0 64 18.5 113t50.5 81q31 32 77.5 48t100.5 16q35 0 66 -4.5t54 -9.5q10 -2 13 -6.5t3 -14.5v-111h-62q-2 4 -4 13.5t-4.5 20t-4 21.5t-1.5 20q-24 3 -49 3q-42 0 -74 -9.5t-53 -31.5
q-22 -23 -34.5 -60t-12.5 -88q0 -40 9 -79t34 -65q24 -25 61 -35.5t91 -10.5h103v-51zM287 587q-23 0 -37.5 12.5t-14.5 43.5v2q0 31 14.5 43.5t37.5 12.5h6q23 0 37.5 -12.5t14.5 -43.5v-2q0 -31 -14.5 -43.5t-37.5 -12.5h-6z" />
    <glyph glyph-name="dcaron" unicode="&#x10f;" horiz-adv-x="627" 
d="M380 30q-35 -20 -73 -32t-74 -12q-93 0 -140 69t-47 193q0 119 51 187.5t142 68.5q33 0 69 -10t68 -26v190h-68v60q8 1 20.5 2t25.5 2t25.5 1.5t21.5 0.5q31 0 45 -14q11 -11 11 -40v-609h66v-60q-26 -3 -49 -5t-43 -2q-25 0 -36 9.5t-15 25.5v1zM255 60q27 0 61 6t60 17
v329q-30 8 -61 13t-55 5q-68 0 -99 -45t-31 -136q0 -54 8 -90.5t23.5 -58t39 -31t54.5 -9.5zM545 482v115q-40 7 -40 50v2q0 24 13.5 36t34.5 12h1q28 0 40.5 -14.5t12.5 -50.5q0 -15 -1.5 -33.5t-4.5 -37t-6.5 -35.5t-6.5 -30q-2 -8 -6 -11t-14 -3h-23z" />
    <glyph glyph-name="dcroat" unicode="&#x111;" horiz-adv-x="551" 
d="M457 553v-492h66v-60q-26 -3 -49 -5t-43 -2q-25 0 -36 9.5t-15 25.5v1q-35 -20 -73 -32t-74 -12q-93 0 -140 69t-47 193q0 119 51 187.5t142 68.5q33 0 69 -10t68 -26v85h-164v58h164v47h-68v60q8 1 20.5 2t25.5 2t25.5 1.5t21.5 0.5q31 0 45 -14q11 -11 11 -40v-61
l82 -7v-49h-82zM255 60q27 0 61 6t60 17v329q-30 8 -61 13t-55 5q-68 0 -99 -45t-31 -136q0 -54 8 -90.5t23.5 -58t39 -31t54.5 -9.5z" />
    <glyph glyph-name="eth" unicode="&#xf0;" horiz-adv-x="542" 
d="M195 613l74 59q-16 20 -33 38.5t-35 37.5l36 34q21 -18 40.5 -36t37.5 -37l88 71l34 -42l-86 -69q72 -85 108.5 -181.5t36.5 -214.5q0 -63 -14 -116t-42.5 -91t-71 -59.5t-99.5 -21.5q-55 0 -96.5 18.5t-69.5 51.5t-42.5 78t-14.5 98q0 57 15.5 101.5t44 75t67 46
t85.5 15.5q30 0 65.5 -7t67.5 -18q-28 96 -90 185l-72 -58zM413 283q0 52 -9 103q-28 7 -60 11.5t-61 4.5q-42 0 -71.5 -12t-47.5 -34t-26.5 -53.5t-8.5 -71.5q0 -37 9 -69t26 -56t43 -37.5t61 -13.5q75 0 110 59.5t35 168.5z" />
    <glyph glyph-name="egrave" unicode="&#xe8;" horiz-adv-x="506" 
d="M127 220q2 -40 10.5 -69.5t28.5 -49.5q21 -23 56 -33.5t95 -10.5h124v-50q-32 -9 -74 -15t-80 -6q-63 0 -108 16.5t-73 46.5q-32 35 -47.5 85t-15.5 112q0 57 14 104.5t41.5 81.5t67.5 53t91 19q49 0 87 -17t63.5 -49t39 -77.5t13.5 -102.5v-29q0 -9 -11 -9h-322z
M383 284q-5 72 -35 112t-91 40q-33 0 -56.5 -12t-39.5 -33t-24 -48.5t-9 -58.5h255zM340 579l-182 132l32 44q9 13 17.5 12t20.5 -12l143 -137z" />
    <glyph glyph-name="eacute" unicode="&#xe9;" horiz-adv-x="506" 
d="M127 220q2 -40 10.5 -69.5t28.5 -49.5q21 -23 56 -33.5t95 -10.5h124v-50q-32 -9 -74 -15t-80 -6q-63 0 -108 16.5t-73 46.5q-32 35 -47.5 85t-15.5 112q0 57 14 104.5t41.5 81.5t67.5 53t91 19q49 0 87 -17t63.5 -49t39 -77.5t13.5 -102.5v-29q0 -9 -11 -9h-322z
M383 284q-5 72 -35 112t-91 40q-33 0 -56.5 -12t-39.5 -33t-24 -48.5t-9 -58.5h255zM152 618l143 137q12 11 20.5 12t17.5 -12l32 -44l-182 -132z" />
    <glyph glyph-name="ecircumflex" unicode="&#xea;" horiz-adv-x="506" 
d="M127 220q2 -40 10.5 -69.5t28.5 -49.5q21 -23 56 -33.5t95 -10.5h124v-50q-32 -9 -74 -15t-80 -6q-63 0 -108 16.5t-73 46.5q-32 35 -47.5 85t-15.5 112q0 57 14 104.5t41.5 81.5t67.5 53t91 19q49 0 87 -17t63.5 -49t39 -77.5t13.5 -102.5v-29q0 -9 -11 -9h-322z
M383 284q-5 72 -35 112t-91 40q-33 0 -56.5 -12t-39.5 -33t-24 -48.5t-9 -58.5h255zM267 753q19 0 29 -5.5t24 -23.5l91 -111l-33 -28l-119 103l-119 -103l-33 28l91 111q14 18 24 23.5t29 5.5h16z" />
    <glyph glyph-name="ecaron" unicode="&#x11b;" horiz-adv-x="506" 
d="M127 220q2 -40 10.5 -69.5t28.5 -49.5q21 -23 56 -33.5t95 -10.5h124v-50q-32 -9 -74 -15t-80 -6q-63 0 -108 16.5t-73 46.5q-32 35 -47.5 85t-15.5 112q0 57 14 104.5t41.5 81.5t67.5 53t91 19q49 0 87 -17t63.5 -49t39 -77.5t13.5 -102.5v-29q0 -9 -11 -9h-322z
M383 284q-5 72 -35 112t-91 40q-33 0 -56.5 -12t-39.5 -33t-24 -48.5t-9 -58.5h255zM249 589q-19 0 -29 5.5t-24 23.5l-91 111l33 28l119 -103l119 103l33 -28l-91 -111q-14 -18 -24 -23.5t-29 -5.5h-16z" />
    <glyph glyph-name="edieresis" unicode="&#xeb;" horiz-adv-x="506" 
d="M127 220q2 -40 10.5 -69.5t28.5 -49.5q21 -23 56 -33.5t95 -10.5h124v-50q-32 -9 -74 -15t-80 -6q-63 0 -108 16.5t-73 46.5q-32 35 -47.5 85t-15.5 112q0 57 14 104.5t41.5 81.5t67.5 53t91 19q49 0 87 -17t63.5 -49t39 -77.5t13.5 -102.5v-29q0 -9 -11 -9h-322z
M383 284q-5 72 -35 112t-91 40q-33 0 -56.5 -12t-39.5 -33t-24 -48.5t-9 -58.5h255zM155 607q-23 0 -37.5 12.5t-14.5 43.5v2q0 31 14.5 43.5t37.5 12.5h6q23 0 37.5 -12.5t14.5 -43.5v-2q0 -31 -14.5 -43.5t-37.5 -12.5h-6zM355 607q-23 0 -37.5 12.5t-14.5 43.5v2
q0 31 14.5 43.5t37.5 12.5h6q23 0 37.5 -12.5t14.5 -43.5v-2q0 -31 -14.5 -43.5t-37.5 -12.5h-6z" />
    <glyph glyph-name="emacron" unicode="&#x113;" horiz-adv-x="506" 
d="M127 220q2 -40 10.5 -69.5t28.5 -49.5q21 -23 56 -33.5t95 -10.5h124v-50q-32 -9 -74 -15t-80 -6q-63 0 -108 16.5t-73 46.5q-32 35 -47.5 85t-15.5 112q0 57 14 104.5t41.5 81.5t67.5 53t91 19q49 0 87 -17t63.5 -49t39 -77.5t13.5 -102.5v-29q0 -9 -11 -9h-322z
M383 284q-5 72 -35 112t-91 40q-33 0 -56.5 -12t-39.5 -33t-24 -48.5t-9 -58.5h255zM128 618v70h270v-70h-270z" />
    <glyph glyph-name="ebreve" unicode="&#x115;" horiz-adv-x="506" 
d="M127 220q2 -40 10.5 -69.5t28.5 -49.5q21 -23 56 -33.5t95 -10.5h124v-50q-32 -9 -74 -15t-80 -6q-63 0 -108 16.5t-73 46.5q-32 35 -47.5 85t-15.5 112q0 57 14 104.5t41.5 81.5t67.5 53t91 19q49 0 87 -17t63.5 -49t39 -77.5t13.5 -102.5v-29q0 -9 -11 -9h-322z
M383 284q-5 72 -35 112t-91 40q-33 0 -56.5 -12t-39.5 -33t-24 -48.5t-9 -58.5h255zM261 585q-36 0 -61.5 11t-41 30t-23.5 44t-10 54l52 6q6 -41 26 -60.5t58 -19.5t58 19.5t26 60.5l52 -6q-2 -29 -10 -54t-23.5 -44t-41 -30t-61.5 -11z" />
    <glyph glyph-name="edotaccent" unicode="&#x117;" horiz-adv-x="506" 
d="M127 220q2 -40 10.5 -69.5t28.5 -49.5q21 -23 56 -33.5t95 -10.5h124v-50q-32 -9 -74 -15t-80 -6q-63 0 -108 16.5t-73 46.5q-32 35 -47.5 85t-15.5 112q0 57 14 104.5t41.5 81.5t67.5 53t91 19q49 0 87 -17t63.5 -49t39 -77.5t13.5 -102.5v-29q0 -9 -11 -9h-322z
M383 284q-5 72 -35 112t-91 40q-33 0 -56.5 -12t-39.5 -33t-24 -48.5t-9 -58.5h255zM254 587q-23 0 -37.5 12.5t-14.5 43.5v2q0 31 14.5 43.5t37.5 12.5h6q23 0 37.5 -12.5t14.5 -43.5v-2q0 -31 -14.5 -43.5t-37.5 -12.5h-6z" />
    <glyph glyph-name="eogonek" unicode="&#x119;" horiz-adv-x="506" 
d="M268 -121q0 33 12 60.5t34 47.5q-7 0 -13.5 -0.5t-13.5 -0.5q-63 0 -108 16.5t-73 46.5q-32 35 -47.5 85t-15.5 112q0 57 14 104.5t41.5 81.5t67.5 53t91 19q49 0 87 -17t63.5 -49t39 -77.5t13.5 -102.5v-29q0 -9 -11 -9h-322q2 -40 10.5 -69.5t28.5 -49.5
q21 -23 56 -33.5t95 -10.5h124v-50q-26 -8 -44 -16t-33 -25t-21.5 -38t-6.5 -42q0 -29 17.5 -45.5t65.5 -16.5h41v-46q-17 -5 -37 -7.5t-38 -2.5q-54 0 -85.5 29t-31.5 82zM383 284q-5 72 -35 112t-91 40q-33 0 -56.5 -12t-39.5 -33t-24 -48.5t-9 -58.5h255z" />
    <glyph glyph-name="gcircumflex" unicode="&#x11d;" horiz-adv-x="513" 
d="M459 320q0 -85 -50.5 -134.5t-149.5 -49.5q-47 0 -83 12l-18 -75h152q102 0 144 -39q40 -37 40 -108q0 -44 -16.5 -75t-47 -51t-73 -29.5t-93.5 -9.5h-11q-100 0 -156 41.5t-56 112.5q0 55 44 105q-8 9 -8 27q0 43 56 120q-37 24 -55.5 63t-18.5 90q0 85 50.5 134.5
t149.5 49.5q71 0 119 -28l47 76q16 -8 34.5 -20.5t29.5 -24.5l-64 -73q34 -46 34 -114zM381 320q0 54 -26.5 85.5t-95.5 31.5t-95.5 -31.5t-26.5 -85.5t26.5 -85.5t95.5 -31.5t95.5 31.5t26.5 85.5zM146 -2q-11 0 -16 1v-2q-4 -18 -6.5 -34t-2.5 -31q0 -48 32.5 -74
t109.5 -26h2q77 0 113.5 21.5t36.5 67.5q0 17 -5 32.5t-16 24.5q-13 11 -34 15.5t-55 4.5h-159zM268 753q19 0 29 -5.5t24 -23.5l91 -111l-33 -28l-119 103l-119 -103l-33 28l91 111q14 18 24 23.5t29 5.5h16z" />
    <glyph glyph-name="gbreve" unicode="&#x11f;" horiz-adv-x="513" 
d="M459 320q0 -85 -50.5 -134.5t-149.5 -49.5q-47 0 -83 12l-18 -75h152q102 0 144 -39q40 -37 40 -108q0 -44 -16.5 -75t-47 -51t-73 -29.5t-93.5 -9.5h-11q-100 0 -156 41.5t-56 112.5q0 55 44 105q-8 9 -8 27q0 43 56 120q-37 24 -55.5 63t-18.5 90q0 85 50.5 134.5
t149.5 49.5q71 0 119 -28l47 76q16 -8 34.5 -20.5t29.5 -24.5l-64 -73q34 -46 34 -114zM381 320q0 54 -26.5 85.5t-95.5 31.5t-95.5 -31.5t-26.5 -85.5t26.5 -85.5t95.5 -31.5t95.5 31.5t26.5 85.5zM146 -2q-11 0 -16 1v-2q-4 -18 -6.5 -34t-2.5 -31q0 -48 32.5 -74
t109.5 -26h2q77 0 113.5 21.5t36.5 67.5q0 17 -5 32.5t-16 24.5q-13 11 -34 15.5t-55 4.5h-159zM261 585q-36 0 -61.5 11t-41 30t-23.5 44t-10 54l52 6q6 -41 26 -60.5t58 -19.5t58 19.5t26 60.5l52 -6q-2 -29 -10 -54t-23.5 -44t-41 -30t-61.5 -11z" />
    <glyph glyph-name="gdotaccent" unicode="&#x121;" horiz-adv-x="513" 
d="M459 320q0 -85 -50.5 -134.5t-149.5 -49.5q-47 0 -83 12l-18 -75h152q102 0 144 -39q40 -37 40 -108q0 -44 -16.5 -75t-47 -51t-73 -29.5t-93.5 -9.5h-11q-100 0 -156 41.5t-56 112.5q0 55 44 105q-8 9 -8 27q0 43 56 120q-37 24 -55.5 63t-18.5 90q0 85 50.5 134.5
t149.5 49.5q71 0 119 -28l47 76q16 -8 34.5 -20.5t29.5 -24.5l-64 -73q34 -46 34 -114zM381 320q0 54 -26.5 85.5t-95.5 31.5t-95.5 -31.5t-26.5 -85.5t26.5 -85.5t95.5 -31.5t95.5 31.5t26.5 85.5zM146 -2q-11 0 -16 1v-2q-4 -18 -6.5 -34t-2.5 -31q0 -48 32.5 -74
t109.5 -26h2q77 0 113.5 21.5t36.5 67.5q0 17 -5 32.5t-16 24.5q-13 11 -34 15.5t-55 4.5h-159zM255 587q-23 0 -37.5 12.5t-14.5 43.5v2q0 31 14.5 43.5t37.5 12.5h6q23 0 37.5 -12.5t14.5 -43.5v-2q0 -31 -14.5 -43.5t-37.5 -12.5h-6z" />
    <glyph glyph-name="gcommaaccent" unicode="&#x123;" horiz-adv-x="513" 
d="M459 320q0 -85 -50.5 -134.5t-149.5 -49.5q-47 0 -83 12l-18 -75h152q102 0 144 -39q40 -37 40 -108q0 -44 -16.5 -75t-47 -51t-73 -29.5t-93.5 -9.5h-11q-100 0 -156 41.5t-56 112.5q0 55 44 105q-8 9 -8 27q0 43 56 120q-37 24 -55.5 63t-18.5 90q0 85 50.5 134.5
t149.5 49.5q71 0 119 -28l47 76q16 -8 34.5 -20.5t29.5 -24.5l-64 -73q34 -46 34 -114zM381 320q0 54 -26.5 85.5t-95.5 31.5t-95.5 -31.5t-26.5 -85.5t26.5 -85.5t95.5 -31.5t95.5 31.5t26.5 85.5zM146 -2q-11 0 -16 1v-2q-4 -18 -6.5 -34t-2.5 -31q0 -48 32.5 -74
t109.5 -26h2q77 0 113.5 21.5t36.5 67.5q0 17 -5 32.5t-16 24.5q-13 11 -34 15.5t-55 4.5h-159zM270 790v-115q40 -7 40 -50v-2q0 -24 -13.5 -36t-34.5 -12h-1q-28 0 -40.5 14.5t-12.5 50.5q0 15 1.5 33.5t4.5 37t6.5 35.5t6.5 30q2 8 6 11t14 3h23z" />
    <glyph glyph-name="hcircumflex" unicode="&#x125;" horiz-adv-x="576" 
d="M166 463q37 18 78 29.5t83 11.5t73 -11.5t50 -31.5t27 -47.5t8 -69.5v-283h65v-60q-8 -1 -20 -2t-24.5 -2t-24.5 -1.5t-21 -0.5q-31 0 -45 14q-11 11 -11 40v276q0 31 -5 50.5t-17 31.5t-32.5 17t-48.5 5t-62.5 -5t-72.5 -14v-410h-81v658h-68v60q8 1 20.5 2t25.5 2
t25.5 1.5t21.5 0.5q31 0 45 -14q11 -11 11 -40v-207zM138 915q19 0 29 -5.5t24 -23.5l91 -111l-33 -28l-119 103l-119 -103l-33 28l91 111q14 18 24 23.5t29 5.5h16z" />
    <glyph glyph-name="hbar" unicode="&#x127;" horiz-adv-x="576" 
d="M85 658h-68v60q8 1 20.5 2t25.5 2t25.5 1.5t21.5 0.5q31 0 45 -14q11 -11 11 -40v-59h164v-58h-164v-90q37 18 78 29.5t83 11.5t73 -11.5t50 -31.5t27 -47.5t8 -69.5v-283h65v-60q-8 -1 -20 -2t-24.5 -2t-24.5 -1.5t-21 -0.5q-31 0 -45 14q-11 11 -11 40v276
q0 31 -5 50.5t-17 31.5t-32.5 17t-48.5 5t-62.5 -5t-72.5 -14v-410h-81v553h-82v49l82 9v47z" />
    <glyph glyph-name="dotlessi" unicode="&#x131;" horiz-adv-x="256" 
d="M180 0h-81v428h-70v60q8 1 21 2t26.5 2t26 1.5t21.5 0.5q31 0 45 -14q11 -11 11 -40v-440z" />
    <glyph glyph-name="igrave" unicode="&#xec;" horiz-adv-x="256" 
d="M180 0h-81v428h-70v60q8 1 21 2t26.5 2t26 1.5t21.5 0.5q31 0 45 -14q11 -11 11 -40v-440zM189 579l-182 132l32 44q9 13 17.5 12t20.5 -12l143 -137z" />
    <glyph glyph-name="iacute" unicode="&#xed;" horiz-adv-x="256" 
d="M180 0h-81v428h-70v60q8 1 21 2t26.5 2t26 1.5t21.5 0.5q31 0 45 -14q11 -11 11 -40v-440zM31 618l143 137q12 11 20.5 12t17.5 -12l32 -44l-182 -132z" />
    <glyph glyph-name="icircumflex" unicode="&#xee;" horiz-adv-x="256" 
d="M180 0h-81v428h-70v60q8 1 21 2t26.5 2t26 1.5t21.5 0.5q31 0 45 -14q11 -11 11 -40v-440zM134 753q19 0 29 -5.5t24 -23.5l91 -111l-33 -28l-119 103l-119 -103l-33 28l91 111q14 18 24 23.5t29 5.5h16z" />
    <glyph glyph-name="itilde" unicode="&#x129;" horiz-adv-x="256" 
d="M180 0h-81v428h-70v60q8 1 21 2t26.5 2t26 1.5t21.5 0.5q31 0 45 -14q11 -11 11 -40v-440zM273 712q-2 -49 -23 -76.5t-53 -27.5q-20 0 -37 6t-33 13.5t-31.5 14t-31.5 6.5q-15 0 -22.5 -8t-12.5 -29l-47 5q2 49 23 76.5t53 27.5q19 0 36.5 -6.5t33.5 -14t31.5 -13.5
t31.5 -6q15 0 22.5 8t12.5 29z" />
    <glyph glyph-name="idieresis" unicode="&#xef;" horiz-adv-x="256" 
d="M180 0h-81v428h-70v60q8 1 21 2t26.5 2t26 1.5t21.5 0.5q31 0 45 -14q11 -11 11 -40v-440zM23 607q-23 0 -37.5 12.5t-14.5 43.5v2q0 31 14.5 43.5t37.5 12.5h6q23 0 37.5 -12.5t14.5 -43.5v-2q0 -31 -14.5 -43.5t-37.5 -12.5h-6zM223 607q-23 0 -37.5 12.5t-14.5 43.5v2
q0 31 14.5 43.5t37.5 12.5h6q23 0 37.5 -12.5t14.5 -43.5v-2q0 -31 -14.5 -43.5t-37.5 -12.5h-6z" />
    <glyph glyph-name="imacron" unicode="&#x12b;" horiz-adv-x="256" 
d="M180 0h-81v428h-70v60q8 1 21 2t26.5 2t26 1.5t21.5 0.5q31 0 45 -14q11 -11 11 -40v-440zM-8 618v70h270v-70h-270z" />
    <glyph glyph-name="ibreve" unicode="&#x12d;" horiz-adv-x="256" 
d="M180 0h-81v428h-70v60q8 1 21 2t26.5 2t26 1.5t21.5 0.5q31 0 45 -14q11 -11 11 -40v-440zM129 585q-36 0 -61.5 11t-41 30t-23.5 44t-10 54l52 6q6 -41 26 -60.5t58 -19.5t58 19.5t26 60.5l52 -6q-2 -29 -10 -54t-23.5 -44t-41 -30t-61.5 -11z" />
    <glyph glyph-name="iogonek" unicode="&#x12f;" horiz-adv-x="256" 
d="M32 -121q0 36 19 70.5t48 60.5v418h-70v60q8 1 21 2t26.5 2t26 1.5t21.5 0.5q31 0 45 -14q11 -11 11 -40v-440h-24q-8 0 -13 -3t-13 -16q-15 -23 -22.5 -47.5t-7.5 -47.5q0 -29 17.5 -45.5t65.5 -16.5h41v-46q-17 -5 -37 -7.5t-38 -2.5q-54 0 -85.5 29t-31.5 82zM132 591
q-23 0 -36 12t-13 41v3q0 29 13 41t36 12h6q23 0 36 -12t13 -41v-3q0 -29 -13 -41t-36 -12h-6z" />
    <glyph glyph-name="ij" unicode="&#x133;" horiz-adv-x="512" 
d="M132 591q-23 0 -36 12t-13 41v3q0 29 13 41t36 12h6q23 0 36 -12t13 -41v-3q0 -29 -13 -41t-36 -12h-6zM180 0h-81v428h-70v60q8 1 21 2t26.5 2t26 1.5t21.5 0.5q31 0 45 -14q11 -11 11 -40v-440zM388 591q-23 0 -36 12t-13 41v3q0 29 13 41t36 12h6q23 0 36 -12t13 -41
v-3q0 -29 -13 -41t-36 -12h-6zM436 -64q0 -45 -7.5 -75t-24.5 -50q-33 -40 -104 -40q-17 0 -37.5 2t-34.5 5v61h41q27 0 42 4t25 15q19 20 19 81v489h-70v60q8 1 21 2t26.5 2t26 1.5t21.5 0.5q31 0 45 -14q11 -11 11 -40v-504z" />
    <glyph glyph-name="jcircumflex" unicode="&#x135;" horiz-adv-x="256" 
d="M180 -64q0 -45 -7.5 -75t-24.5 -50q-33 -40 -104 -40q-17 0 -37.5 2t-34.5 5v61h41q27 0 42 4t25 15q19 20 19 81v489h-70v60q8 1 21 2t26.5 2t26 1.5t21.5 0.5q31 0 45 -14q11 -11 11 -40v-504zM134 753q19 0 29 -5.5t24 -23.5l91 -111l-33 -28l-119 103l-119 -103
l-33 28l91 111q14 18 24 23.5t29 5.5h16z" />
    <glyph glyph-name="kcommaaccent" unicode="&#x137;" horiz-adv-x="534" 
d="M166 256l180 200q20 23 35 28.5t42 5.5h65v-62h-69l-117 -121l155 -246h62v-58q-7 -1 -17.5 -2t-22 -2t-21 -1.5t-15.5 -0.5q-23 0 -35 6t-24 26l-137 221l-81 -80v-170h-81v658h-68v60q8 1 20.5 2t25.5 2t25.5 1.5t21.5 0.5q31 0 45 -14q11 -11 11 -40v-414zM284 -288
v115q-40 7 -40 50v2q0 24 13.5 36t34.5 12h1q28 0 40.5 -14.5t12.5 -50.5q0 -15 -1.5 -33.5t-4.5 -37t-6.5 -35.5t-6.5 -30q-2 -8 -6 -11t-14 -3h-23z" />
    <glyph glyph-name="kgreenlandic" unicode="&#x138;" horiz-adv-x="545" 
d="M177 256l180 200q20 23 35 28.5t42 5.5h65v-62h-69l-117 -121l155 -246h62v-58q-7 -1 -17.5 -2t-22 -2t-21 -1.5t-15.5 -0.5q-23 0 -35 6t-24 26l-137 221l-81 -80v-170h-81v428h-68v59q8 1 20.5 2.5t25.5 2.5t25.5 1.5t21.5 0.5q31 0 45 -14q11 -11 11 -40v-184z" />
    <glyph glyph-name="lacute" unicode="&#x13a;" horiz-adv-x="242" 
d="M166 0h-81v658h-68v60q8 1 20.5 2t25.5 2t25.5 1.5t21.5 0.5q31 0 45 -14q11 -11 11 -40v-670zM6 805l143 137q12 11 20.5 12t17.5 -12l32 -44l-182 -132z" />
    <glyph glyph-name="lcaron" unicode="&#x13e;" horiz-adv-x="336" 
d="M166 0h-81v658h-68v60q8 1 20.5 2t25.5 2t25.5 1.5t21.5 0.5q31 0 45 -14q11 -11 11 -40v-670zM254 482v115q-40 7 -40 50v2q0 24 13.5 36t34.5 12h1q28 0 40.5 -14.5t12.5 -50.5q0 -15 -1.5 -33.5t-4.5 -37t-6.5 -35.5t-6.5 -30q-2 -8 -6 -11t-14 -3h-23z" />
    <glyph glyph-name="lcommaaccent" unicode="&#x13c;" horiz-adv-x="242" 
d="M166 0h-81v658h-68v60q8 1 20.5 2t25.5 2t25.5 1.5t21.5 0.5q31 0 45 -14q11 -11 11 -40v-670zM114 -288v115q-40 7 -40 50v2q0 24 13.5 36t34.5 12h1q28 0 40.5 -14.5t12.5 -50.5q0 -15 -1.5 -33.5t-4.5 -37t-6.5 -35.5t-6.5 -30q-2 -8 -6 -11t-14 -3h-23z" />
    <glyph glyph-name="lslash" unicode="&#x142;" horiz-adv-x="310" 
d="M191 431l87 58l32 -55l-119 -79v-355h-81v302l-58 -38l-32 54l90 59v281h-68v60q8 1 20.5 2t25.5 2t25.5 1.5t21.5 0.5q31 0 45 -14q11 -11 11 -40v-239z" />
    <glyph glyph-name="longs" unicode="&#x17f;" horiz-adv-x="283" 
d="M183 0h-81v428h-85v48l85 15v66q0 45 10.5 76.5t30.5 51.5q21 21 50.5 31.5t73.5 10.5q26 0 53 -4t43 -9v-56h-63q-38 0 -59.5 -4t-35.5 -16q-13 -11 -17.5 -32t-4.5 -54v-552z" />
    <glyph glyph-name="ldot" unicode="&#x140;" horiz-adv-x="357" 
d="M166 0h-81v658h-68v60q8 1 20.5 2t25.5 2t25.5 1.5t21.5 0.5q31 0 45 -14q11 -11 11 -40v-670zM291 295q-23 0 -37.5 12.5t-14.5 43.5v2q0 31 14.5 43.5t37.5 12.5h6q23 0 37.5 -12.5t14.5 -43.5v-2q0 -31 -14.5 -43.5t-37.5 -12.5h-6z" />
    <glyph glyph-name="nacute" unicode="&#x144;" horiz-adv-x="587" 
d="M561 61v-60q-8 -1 -20 -2t-24.5 -2t-24.5 -1.5t-21 -0.5q-31 0 -45 14q-11 11 -11 40v276q0 31 -5 50.5t-17 31.5t-32.5 17t-48.5 5t-62.5 -5t-72.5 -14v-410h-81v428h-68v59q26 3 50 5t44 2q25 0 37 -7t17 -24q37 18 78.5 29.5t83.5 11.5t73 -11.5t50 -31.5t27 -47.5
t8 -69.5v-283h65zM215 618l143 137q12 11 20.5 12t17.5 -12l32 -44l-182 -132z" />
    <glyph glyph-name="ncaron" unicode="&#x148;" horiz-adv-x="587" 
d="M561 61v-60q-8 -1 -20 -2t-24.5 -2t-24.5 -1.5t-21 -0.5q-31 0 -45 14q-11 11 -11 40v276q0 31 -5 50.5t-17 31.5t-32.5 17t-48.5 5t-62.5 -5t-72.5 -14v-410h-81v428h-68v59q26 3 50 5t44 2q25 0 37 -7t17 -24q37 18 78.5 29.5t83.5 11.5t73 -11.5t50 -31.5t27 -47.5
t8 -69.5v-283h65zM310 589q-19 0 -29 5.5t-24 23.5l-91 111l33 28l119 -103l119 103l33 -28l-91 -111q-14 -18 -24 -23.5t-29 -5.5h-16z" />
    <glyph glyph-name="ntilde" unicode="&#xf1;" horiz-adv-x="587" 
d="M561 61v-60q-8 -1 -20 -2t-24.5 -2t-24.5 -1.5t-21 -0.5q-31 0 -45 14q-11 11 -11 40v276q0 31 -5 50.5t-17 31.5t-32.5 17t-48.5 5t-62.5 -5t-72.5 -14v-410h-81v428h-68v59q26 3 50 5t44 2q25 0 37 -7t17 -24q37 18 78.5 29.5t83.5 11.5t73 -11.5t50 -31.5t27 -47.5
t8 -69.5v-283h65zM460 712q-2 -49 -23 -76.5t-53 -27.5q-20 0 -37 6t-33 13.5t-31.5 14t-31.5 6.5q-15 0 -22.5 -8t-12.5 -29l-47 5q2 49 23 76.5t53 27.5q19 0 36.5 -6.5t33.5 -14t31.5 -13.5t31.5 -6q15 0 22.5 8t12.5 29z" />
    <glyph glyph-name="ncommaaccent" unicode="&#x146;" horiz-adv-x="587" 
d="M561 61v-60q-8 -1 -20 -2t-24.5 -2t-24.5 -1.5t-21 -0.5q-31 0 -45 14q-11 11 -11 40v276q0 31 -5 50.5t-17 31.5t-32.5 17t-48.5 5t-62.5 -5t-72.5 -14v-410h-81v428h-68v59q26 3 50 5t44 2q25 0 37 -7t17 -24q37 18 78.5 29.5t83.5 11.5t73 -11.5t50 -31.5t27 -47.5
t8 -69.5v-283h65zM295 -288v115q-40 7 -40 50v2q0 24 13.5 36t34.5 12h1q28 0 40.5 -14.5t12.5 -50.5q0 -15 -1.5 -33.5t-4.5 -37t-6.5 -35.5t-6.5 -30q-2 -8 -6 -11t-14 -3h-23z" />
    <glyph glyph-name="napostrophe" unicode="&#x149;" horiz-adv-x="732" 
d="M706 61v-60q-8 -1 -20 -2t-24.5 -2t-24.5 -1.5t-21 -0.5q-31 0 -45 14q-11 11 -11 40v276q0 31 -5 50.5t-17 31.5t-32.5 17t-48.5 5t-62.5 -5t-72.5 -14v-410h-81v428h-68v59q26 3 50 5t44 2q25 0 37 -7t17 -24q37 18 78.5 29.5t83.5 11.5t73 -11.5t50 -31.5t27 -47.5
t8 -69.5v-283h65zM68 458v125q-22 5 -34.5 18t-12.5 39v3q0 30 14 42t37 12h1q29 0 43 -15.5t14 -53.5q0 -16 -2 -37t-5 -42.5t-6.5 -41.5t-7.5 -34q-2 -8 -6 -11.5t-15 -3.5h-20z" />
    <glyph glyph-name="eng" unicode="&#x14b;" horiz-adv-x="565" 
d="M496 -64q0 -45 -7.5 -75t-24.5 -50q-33 -40 -104 -40q-17 0 -37.5 2t-34.5 5v61h41q27 0 42 4t25 15q19 20 19 81v386q0 31 -5 50.5t-17 31.5t-32.5 17t-48.5 5t-62.5 -5t-72.5 -14v-410h-81v428h-68v59q26 3 50 5t44 2q25 0 37 -7t17 -24q37 18 78.5 29.5t83.5 11.5
t73 -11.5t50 -31.5t27 -47.5t8 -69.5v-408z" />
    <glyph glyph-name="ograve" unicode="&#xf2;" horiz-adv-x="534" 
d="M491 245q0 -121 -57 -190t-167 -69t-167 69t-57 190t57 190t167 69t167 -69t57 -190zM407 245q0 91 -32 139t-108 48t-108 -48t-32 -139t32 -139t108 -48t108 48t32 139zM342 579l-182 132l32 44q9 13 17.5 12t20.5 -12l143 -137z" />
    <glyph glyph-name="oacute" unicode="&#xf3;" horiz-adv-x="534" 
d="M491 245q0 -121 -57 -190t-167 -69t-167 69t-57 190t57 190t167 69t167 -69t57 -190zM407 245q0 91 -32 139t-108 48t-108 -48t-32 -139t32 -139t108 -48t108 48t32 139zM166 618l143 137q12 11 20.5 12t17.5 -12l32 -44l-182 -132z" />
    <glyph glyph-name="ocircumflex" unicode="&#xf4;" horiz-adv-x="534" 
d="M491 245q0 -121 -57 -190t-167 -69t-167 69t-57 190t57 190t167 69t167 -69t57 -190zM407 245q0 91 -32 139t-108 48t-108 -48t-32 -139t32 -139t108 -48t108 48t32 139zM275 753q19 0 29 -5.5t24 -23.5l91 -111l-33 -28l-119 103l-119 -103l-33 28l91 111q14 18 24 23.5
t29 5.5h16z" />
    <glyph glyph-name="otilde" unicode="&#xf5;" horiz-adv-x="534" 
d="M491 245q0 -121 -57 -190t-167 -69t-167 69t-57 190t57 190t167 69t167 -69t57 -190zM407 245q0 91 -32 139t-108 48t-108 -48t-32 -139t32 -139t108 -48t108 48t32 139zM412 712q-2 -49 -23 -76.5t-53 -27.5q-20 0 -37 6t-33 13.5t-31.5 14t-31.5 6.5q-15 0 -22.5 -8
t-12.5 -29l-47 5q2 49 23 76.5t53 27.5q19 0 36.5 -6.5t33.5 -14t31.5 -13.5t31.5 -6q15 0 22.5 8t12.5 29z" />
    <glyph glyph-name="odieresis" unicode="&#xf6;" horiz-adv-x="534" 
d="M491 245q0 -121 -57 -190t-167 -69t-167 69t-57 190t57 190t167 69t167 -69t57 -190zM407 245q0 91 -32 139t-108 48t-108 -48t-32 -139t32 -139t108 -48t108 48t32 139zM164 607q-23 0 -37.5 12.5t-14.5 43.5v2q0 31 14.5 43.5t37.5 12.5h6q23 0 37.5 -12.5t14.5 -43.5
v-2q0 -31 -14.5 -43.5t-37.5 -12.5h-6zM364 607q-23 0 -37.5 12.5t-14.5 43.5v2q0 31 14.5 43.5t37.5 12.5h6q23 0 37.5 -12.5t14.5 -43.5v-2q0 -31 -14.5 -43.5t-37.5 -12.5h-6z" />
    <glyph glyph-name="omacron" unicode="&#x14d;" horiz-adv-x="534" 
d="M491 245q0 -121 -57 -190t-167 -69t-167 69t-57 190t57 190t167 69t167 -69t57 -190zM407 245q0 91 -32 139t-108 48t-108 -48t-32 -139t32 -139t108 -48t108 48t32 139zM132 618v70h270v-70h-270z" />
    <glyph glyph-name="obreve" unicode="&#x14f;" horiz-adv-x="534" 
d="M491 245q0 -121 -57 -190t-167 -69t-167 69t-57 190t57 190t167 69t167 -69t57 -190zM407 245q0 91 -32 139t-108 48t-108 -48t-32 -139t32 -139t108 -48t108 48t32 139zM267 585q-36 0 -61.5 11t-41 30t-23.5 44t-10 54l52 6q6 -41 26 -60.5t58 -19.5t58 19.5t26 60.5
l52 -6q-2 -29 -10 -54t-23.5 -44t-41 -30t-61.5 -11z" />
    <glyph glyph-name="ohungarumlaut" unicode="&#x151;" horiz-adv-x="534" 
d="M491 245q0 -121 -57 -190t-167 -69t-167 69t-57 190t57 190t167 69t167 -69t57 -190zM407 245q0 91 -32 139t-108 48t-108 -48t-32 -139t32 -139t108 -48t108 48t32 139zM98 629l110 162q8 12 16 14.5t19 -7.5l40 -36l-147 -163zM271 629l110 162q8 12 16.5 14.5
t19.5 -7.5l39 -36l-147 -163z" />
    <glyph glyph-name="oslash" unicode="&#xf8;" horiz-adv-x="534" 
d="M491 245q0 -121 -57 -190t-167 -69q-31 0 -58 6l-26 -76h-60l33 94q-57 29 -85 89t-28 146q0 121 57 190t167 69q16 0 31 -2t29 -5l27 77h59l-34 -96q56 -29 84 -88.5t28 -144.5zM127 245q0 -58 12.5 -99t41.5 -63l122 346q-17 3 -36 3q-76 0 -108 -48t-32 -139zM407 245
q0 57 -12.5 97t-40.5 63l-121 -344q16 -3 34 -3q76 0 108 48t32 139z" />
    <glyph glyph-name="oslashacute" unicode="&#x1ff;" horiz-adv-x="534" 
d="M491 245q0 -121 -57 -190t-167 -69q-31 0 -58 6l-26 -76h-60l33 94q-57 29 -85 89t-28 146q0 121 57 190t167 69q16 0 31 -2t29 -5l27 77h59l-34 -96q56 -29 84 -88.5t28 -144.5zM127 245q0 -58 12.5 -99t41.5 -63l122 346q-17 3 -36 3q-76 0 -108 -48t-32 -139zM407 245
q0 57 -12.5 97t-40.5 63l-121 -344q16 -3 34 -3q76 0 108 48t32 139zM160 618l143 137q12 11 20.5 12t17.5 -12l32 -44l-182 -132z" />
    <glyph glyph-name="oe" unicode="&#x153;" horiz-adv-x="871" 
d="M492 220q2 -40 10.5 -69.5t28.5 -49.5q21 -23 56 -33.5t95 -10.5h124v-50q-32 -9 -74 -15t-80 -6q-63 0 -108 16.5t-73 46.5q-10 10 -22 27q-28 -44 -73.5 -67t-108.5 -23q-110 0 -167 69t-57 190t57 190t167 69q63 0 109 -23.5t74 -68.5q27 44 70.5 68t102.5 24
q99 0 150.5 -65t51.5 -181v-29q0 -9 -11 -9h-322zM407 245q0 91 -32 139t-108 48t-108 -48t-32 -139t32 -139t108 -48t108 48t32 139zM748 284q-5 73 -35 112.5t-91 39.5q-33 0 -56.5 -12t-39.5 -32.5t-24 -48t-9 -59.5h255z" />
    <glyph glyph-name="thorn" unicode="&#xfe;" horiz-adv-x="539" 
d="M284 430q-26 0 -57 -6.5t-61 -14.5v-326q26 -11 59 -17t60 -6q31 0 54 9.5t38.5 31t23.5 58t8 90.5q0 98 -32.5 139.5t-92.5 41.5zM166 464q32 18 67 29t73 11q91 0 139 -68.5t48 -187.5q0 -124 -47.5 -193t-140.5 -69q-35 0 -71 10t-68 29v-250h-81v883h-68v60
q8 1 20.5 2t25.5 2t25.5 1.5t21.5 0.5q31 0 45 -14q11 -11 11 -40v-206z" />
    <glyph glyph-name="racute" unicode="&#x155;" horiz-adv-x="351" 
d="M177 0h-81v428h-68v59q26 3 50 5t44 2q25 0 38 -7.5t16 -31.5q15 9 33.5 18t37.5 15.5t37.5 11t32.5 4.5q12 0 18 -4.5t6 -16.5v-61h-26q-44 0 -75 -3t-63 -10v-409zM109 618l143 137q12 11 20.5 12t17.5 -12l32 -44l-182 -132z" />
    <glyph glyph-name="rcaron" unicode="&#x159;" horiz-adv-x="351" 
d="M177 0h-81v428h-68v59q26 3 50 5t44 2q25 0 38 -7.5t16 -31.5q15 9 33.5 18t37.5 15.5t37.5 11t32.5 4.5q12 0 18 -4.5t6 -16.5v-61h-26q-44 0 -75 -3t-63 -10v-409zM208 589q-19 0 -29 5.5t-24 23.5l-91 111l33 28l119 -103l119 103l33 -28l-91 -111q-14 -18 -24 -23.5
t-29 -5.5h-16z" />
    <glyph glyph-name="rcommaaccent" unicode="&#x157;" horiz-adv-x="351" 
d="M177 0h-81v428h-68v59q26 3 50 5t44 2q25 0 38 -7.5t16 -31.5q15 9 33.5 18t37.5 15.5t37.5 11t32.5 4.5q12 0 18 -4.5t6 -16.5v-61h-26q-44 0 -75 -3t-63 -10v-409zM127 -288v115q-40 7 -40 50v2q0 24 13.5 36t34.5 12h1q28 0 40.5 -14.5t12.5 -50.5q0 -15 -1.5 -33.5
t-4.5 -37t-6.5 -35.5t-6.5 -30q-2 -8 -6 -11t-14 -3h-23z" />
    <glyph glyph-name="sacute" unicode="&#x15b;" horiz-adv-x="473" 
d="M124 129q3 -9 7 -30t6 -37q16 -5 45 -8t53 -3q69 0 97 24q11 9 16 23t5 30q0 34 -22.5 51t-70.5 28l-58 15q-39 10 -65 21t-43 28q-18 18 -26.5 41t-8.5 49q0 32 11 58t33 44q26 23 62 32t82 9q30 0 69.5 -3.5t67.5 -10.5q12 -3 15.5 -8.5t3.5 -14.5v-97h-60
q-4 9 -7.5 29t-5.5 35q-18 2 -40 3.5t-42 1.5q-115 0 -115 -72q0 -31 22.5 -47t70.5 -28l60 -15q42 -11 66 -22.5t41 -28.5q35 -35 35 -93q0 -67 -42 -104q-49 -43 -150 -43q-39 0 -81.5 5t-72.5 13q-11 3 -14.5 8.5t-3.5 14.5v102h60zM140 618l143 137q12 11 20.5 12
t17.5 -12l32 -44l-182 -132z" />
    <glyph glyph-name="scircumflex" unicode="&#x15d;" horiz-adv-x="473" 
d="M124 129q3 -9 7 -30t6 -37q16 -5 45 -8t53 -3q69 0 97 24q11 9 16 23t5 30q0 34 -22.5 51t-70.5 28l-58 15q-39 10 -65 21t-43 28q-18 18 -26.5 41t-8.5 49q0 32 11 58t33 44q26 23 62 32t82 9q30 0 69.5 -3.5t67.5 -10.5q12 -3 15.5 -8.5t3.5 -14.5v-97h-60
q-4 9 -7.5 29t-5.5 35q-18 2 -40 3.5t-42 1.5q-115 0 -115 -72q0 -31 22.5 -47t70.5 -28l60 -15q42 -11 66 -22.5t41 -28.5q35 -35 35 -93q0 -67 -42 -104q-49 -43 -150 -43q-39 0 -81.5 5t-72.5 13q-11 3 -14.5 8.5t-3.5 14.5v102h60zM247 753q19 0 29 -5.5t24 -23.5
l91 -111l-33 -28l-119 103l-119 -103l-33 28l91 111q14 18 24 23.5t29 5.5h16z" />
    <glyph glyph-name="scaron" unicode="&#x161;" horiz-adv-x="473" 
d="M124 129q3 -9 7 -30t6 -37q16 -5 45 -8t53 -3q69 0 97 24q11 9 16 23t5 30q0 34 -22.5 51t-70.5 28l-58 15q-39 10 -65 21t-43 28q-18 18 -26.5 41t-8.5 49q0 32 11 58t33 44q26 23 62 32t82 9q30 0 69.5 -3.5t67.5 -10.5q12 -3 15.5 -8.5t3.5 -14.5v-97h-60
q-4 9 -7.5 29t-5.5 35q-18 2 -40 3.5t-42 1.5q-115 0 -115 -72q0 -31 22.5 -47t70.5 -28l60 -15q42 -11 66 -22.5t41 -28.5q35 -35 35 -93q0 -67 -42 -104q-49 -43 -150 -43q-39 0 -81.5 5t-72.5 13q-11 3 -14.5 8.5t-3.5 14.5v102h60zM239 589q-19 0 -29 5.5t-24 23.5
l-91 111l33 28l119 -103l119 103l33 -28l-91 -111q-14 -18 -24 -23.5t-29 -5.5h-16z" />
    <glyph glyph-name="scedilla" unicode="&#x15f;" horiz-adv-x="473" 
d="M124 129q3 -9 7 -30t6 -37q16 -5 45 -8t53 -3q69 0 97 24q11 9 16 23t5 30q0 34 -22.5 51t-70.5 28l-58 15q-39 10 -65 21t-43 28q-18 18 -26.5 41t-8.5 49q0 32 11 58t33 44q26 23 62 32t82 9q30 0 69.5 -3.5t67.5 -10.5q12 -3 15.5 -8.5t3.5 -14.5v-97h-60
q-4 9 -7.5 29t-5.5 35q-18 2 -40 3.5t-42 1.5q-115 0 -115 -72q0 -31 22.5 -47t70.5 -28l60 -15q42 -11 66 -22.5t41 -28.5q35 -35 35 -93q0 -67 -42 -104q-46 -40 -138 -43v-5q0 -13 9 -21t44 -21q35 -14 54 -31.5t19 -52.5q0 -23 -7.5 -39.5t-19.5 -28.5
q-16 -15 -38.5 -21.5t-47.5 -6.5q-21 0 -44 3.5t-37 9.5v43h69q55 0 55 31q0 14 -11 22t-42 21q-37 15 -49.5 28.5t-12.5 37.5q0 17 9 32q-32 2 -62.5 6.5t-53.5 10.5q-11 3 -14.5 8.5t-3.5 14.5v102h60z" />
    <glyph glyph-name="scommaaccent" unicode="&#x219;" horiz-adv-x="473" 
d="M124 129q3 -9 7 -30t6 -37q16 -5 45 -8t53 -3q69 0 97 24q11 9 16 23t5 30q0 34 -22.5 51t-70.5 28l-58 15q-39 10 -65 21t-43 28q-18 18 -26.5 41t-8.5 49q0 32 11 58t33 44q26 23 62 32t82 9q30 0 69.5 -3.5t67.5 -10.5q12 -3 15.5 -8.5t3.5 -14.5v-97h-60
q-4 9 -7.5 29t-5.5 35q-18 2 -40 3.5t-42 1.5q-115 0 -115 -72q0 -31 22.5 -47t70.5 -28l60 -15q42 -11 66 -22.5t41 -28.5q35 -35 35 -93q0 -67 -42 -104q-49 -43 -150 -43q-39 0 -81.5 5t-72.5 13q-11 3 -14.5 8.5t-3.5 14.5v102h60zM230 -288v115q-40 7 -40 50v2
q0 24 13.5 36t34.5 12h1q28 0 40.5 -14.5t12.5 -50.5q0 -15 -1.5 -33.5t-4.5 -37t-6.5 -35.5t-6.5 -30q-2 -8 -6 -11t-14 -3h-23z" />
    <glyph glyph-name="germandbls" unicode="&#xdf;" horiz-adv-x="629" 
d="M325 60q17 -4 39 -6.5t42 -2.5q68 0 95 23q26 21 26 54q0 18 -6 31.5t-19.5 24.5t-35.5 21.5t-55 21.5q-45 15 -74.5 30t-47.5 31t-25.5 33.5t-7.5 38.5q0 35 21 63t69 62q42 29 58.5 50.5t16.5 50.5q0 36 -27.5 56.5t-69.5 20.5q-62 0 -98 -34q-43 -42 -43 -134v-495
h-81v428h-85v48l85 15v17q0 55 17 96t47.5 68.5t72 41t90.5 13.5q80 0 123.5 -38.5t43.5 -96.5q0 -33 -12 -57.5t-30.5 -43.5t-40 -33.5t-40 -28.5t-30.5 -27.5t-12 -30.5q0 -13 6 -22.5t20 -18.5t37 -18.5t58 -22.5q37 -14 65.5 -29t47.5 -33.5t28.5 -42t9.5 -54.5
q0 -61 -45 -100q-50 -44 -149 -44q-38 0 -75.5 5.5t-64.5 13.5q-16 5 -16 22v99h59q4 -10 7.5 -30.5t5.5 -35.5z" />
    <glyph glyph-name="tcaron" unicode="&#x165;" horiz-adv-x="365" 
d="M98 604q17 5 39.5 9t41.5 5v-128h133v-62h-133v-276q0 -28 2.5 -45.5t11.5 -28.5q8 -11 23.5 -16t42.5 -5h91v-53q-20 -8 -52 -13t-58 -5q-38 0 -63.5 8.5t-42.5 24.5q-20 19 -28 48t-8 77v284h-85v48l85 15v113zM265 557v115q-40 7 -40 50v2q0 24 13.5 36t34.5 12h1
q28 0 40.5 -14.5t12.5 -50.5q0 -15 -1.5 -33.5t-4.5 -37t-6.5 -35.5t-6.5 -30q-2 -8 -6 -11t-14 -3h-23z" />
    <glyph glyph-name="tcommaaccent" unicode="&#x163;" horiz-adv-x="365" 
d="M98 604q17 5 39.5 9t41.5 5v-128h133v-62h-133v-276q0 -28 2.5 -45.5t11.5 -28.5q8 -11 23.5 -16t42.5 -5h91v-53q-20 -8 -52 -13t-58 -5q-38 0 -63.5 8.5t-42.5 24.5q-20 19 -28 48t-8 77v284h-85v48l85 15v113zM216 -288v115q-40 7 -40 50v2q0 24 13.5 36t34.5 12h1
q28 0 40.5 -14.5t12.5 -50.5q0 -15 -1.5 -33.5t-4.5 -37t-6.5 -35.5t-6.5 -30q-2 -8 -6 -11t-14 -3h-23z" />
    <glyph glyph-name="uni021B" unicode="&#x21b;" horiz-adv-x="365" 
d="M98 604q17 5 39.5 9t41.5 5v-128h133v-62h-133v-276q0 -28 2.5 -45.5t11.5 -28.5q8 -11 23.5 -16t42.5 -5h91v-53q-20 -8 -52 -13t-58 -5q-38 0 -63.5 8.5t-42.5 24.5q-20 19 -28 48t-8 77v284h-85v48l85 15v113zM216 -288v115q-40 7 -40 50v2q0 24 13.5 36t34.5 12h1
q28 0 40.5 -14.5t12.5 -50.5q0 -15 -1.5 -33.5t-4.5 -37t-6.5 -35.5t-6.5 -30q-2 -8 -6 -11t-14 -3h-23z" />
    <glyph glyph-name="tbar" unicode="&#x167;" horiz-adv-x="365" 
d="M98 604q17 5 39.5 9t41.5 5v-128h133v-62h-133v-147h124v-58h-124v-71q0 -28 2.5 -45.5t11.5 -28.5q8 -11 23.5 -16t42.5 -5h91v-53q-20 -8 -52 -13t-58 -5q-38 0 -63.5 8.5t-42.5 24.5q-20 19 -28 48t-8 77v79h-82v49l82 9v147h-85v48l85 15v113z" />
    <glyph glyph-name="ugrave" unicode="&#xf9;" horiz-adv-x="583" 
d="M172 165q0 -60 22 -82q12 -12 32.5 -17t48.5 -5t61 4.5t70 14.5v348h-65v62h146v-429h68v-58q-26 -3 -50 -5t-44 -2q-25 0 -37 9t-16 22q-37 -18 -77 -29.5t-82 -11.5t-73 11.5t-50 31.5t-27 47.5t-8 69.5v282h-65v60q17 2 45 4t45 2q31 0 45 -14q11 -11 11 -40v-275z
M345 579l-182 132l32 44q9 13 17.5 12t20.5 -12l143 -137z" />
    <glyph glyph-name="uacute" unicode="&#xfa;" horiz-adv-x="583" 
d="M172 165q0 -60 22 -82q12 -12 32.5 -17t48.5 -5t61 4.5t70 14.5v348h-65v62h146v-429h68v-58q-26 -3 -50 -5t-44 -2q-25 0 -37 9t-16 22q-37 -18 -77 -29.5t-82 -11.5t-73 11.5t-50 31.5t-27 47.5t-8 69.5v282h-65v60q17 2 45 4t45 2q31 0 45 -14q11 -11 11 -40v-275z
M203 618l143 137q12 11 20.5 12t17.5 -12l32 -44l-182 -132z" />
    <glyph glyph-name="ucircumflex" unicode="&#xfb;" horiz-adv-x="583" 
d="M172 165q0 -60 22 -82q12 -12 32.5 -17t48.5 -5t61 4.5t70 14.5v348h-65v62h146v-429h68v-58q-26 -3 -50 -5t-44 -2q-25 0 -37 9t-16 22q-37 -18 -77 -29.5t-82 -11.5t-73 11.5t-50 31.5t-27 47.5t-8 69.5v282h-65v60q17 2 45 4t45 2q31 0 45 -14q11 -11 11 -40v-275z
M298 753q19 0 29 -5.5t24 -23.5l91 -111l-33 -28l-119 103l-119 -103l-33 28l91 111q14 18 24 23.5t29 5.5h16z" />
    <glyph glyph-name="utilde" unicode="&#x169;" horiz-adv-x="583" 
d="M172 165q0 -60 22 -82q12 -12 32.5 -17t48.5 -5t61 4.5t70 14.5v348h-65v62h146v-429h68v-58q-26 -3 -50 -5t-44 -2q-25 0 -37 9t-16 22q-37 -18 -77 -29.5t-82 -11.5t-73 11.5t-50 31.5t-27 47.5t-8 69.5v282h-65v60q17 2 45 4t45 2q31 0 45 -14q11 -11 11 -40v-275z
M427 712q-2 -49 -23 -76.5t-53 -27.5q-20 0 -37 6t-33 13.5t-31.5 14t-31.5 6.5q-15 0 -22.5 -8t-12.5 -29l-47 5q2 49 23 76.5t53 27.5q19 0 36.5 -6.5t33.5 -14t31.5 -13.5t31.5 -6q15 0 22.5 8t12.5 29z" />
    <glyph glyph-name="udieresis" unicode="&#xfc;" horiz-adv-x="583" 
d="M172 165q0 -60 22 -82q12 -12 32.5 -17t48.5 -5t61 4.5t70 14.5v348h-65v62h146v-429h68v-58q-26 -3 -50 -5t-44 -2q-25 0 -37 9t-16 22q-37 -18 -77 -29.5t-82 -11.5t-73 11.5t-50 31.5t-27 47.5t-8 69.5v282h-65v60q17 2 45 4t45 2q31 0 45 -14q11 -11 11 -40v-275z
M178 607q-23 0 -37.5 12.5t-14.5 43.5v2q0 31 14.5 43.5t37.5 12.5h6q23 0 37.5 -12.5t14.5 -43.5v-2q0 -31 -14.5 -43.5t-37.5 -12.5h-6zM378 607q-23 0 -37.5 12.5t-14.5 43.5v2q0 31 14.5 43.5t37.5 12.5h6q23 0 37.5 -12.5t14.5 -43.5v-2q0 -31 -14.5 -43.5t-37.5 -12.5
h-6z" />
    <glyph glyph-name="umacron" unicode="&#x16b;" horiz-adv-x="583" 
d="M172 165q0 -60 22 -82q12 -12 32.5 -17t48.5 -5t61 4.5t70 14.5v348h-65v62h146v-429h68v-58q-26 -3 -50 -5t-44 -2q-25 0 -37 9t-16 22q-37 -18 -77 -29.5t-82 -11.5t-73 11.5t-50 31.5t-27 47.5t-8 69.5v282h-65v60q17 2 45 4t45 2q31 0 45 -14q11 -11 11 -40v-275z
M156 618v70h270v-70h-270z" />
    <glyph glyph-name="ubreve" unicode="&#x16d;" horiz-adv-x="583" 
d="M172 165q0 -60 22 -82q12 -12 32.5 -17t48.5 -5t61 4.5t70 14.5v348h-65v62h146v-429h68v-58q-26 -3 -50 -5t-44 -2q-25 0 -37 9t-16 22q-37 -18 -77 -29.5t-82 -11.5t-73 11.5t-50 31.5t-27 47.5t-8 69.5v282h-65v60q17 2 45 4t45 2q31 0 45 -14q11 -11 11 -40v-275z
M288 585q-36 0 -61.5 11t-41 30t-23.5 44t-10 54l52 6q6 -41 26 -60.5t58 -19.5t58 19.5t26 60.5l52 -6q-2 -29 -10 -54t-23.5 -44t-41 -30t-61.5 -11z" />
    <glyph glyph-name="uring" unicode="&#x16f;" horiz-adv-x="583" 
d="M172 165q0 -60 22 -82q12 -12 32.5 -17t48.5 -5t61 4.5t70 14.5v348h-65v62h146v-429h68v-58q-26 -3 -50 -5t-44 -2q-25 0 -37 9t-16 22q-37 -18 -77 -29.5t-82 -11.5t-73 11.5t-50 31.5t-27 47.5t-8 69.5v282h-65v60q17 2 45 4t45 2q31 0 45 -14q11 -11 11 -40v-275z
M226 692q0 -33 10.5 -46.5t44.5 -13.5h3q34 0 44.5 13.5t10.5 46.5t-10.5 46.5t-44.5 13.5h-3q-34 0 -44.5 -13.5t-10.5 -46.5zM167 694q0 58 29 85.5t85 27.5h3q56 0 85 -27.5t29 -85.5v-4q0 -58 -29 -85.5t-85 -27.5h-3q-56 0 -85 27.5t-29 85.5v4z" />
    <glyph glyph-name="uhungarumlaut" unicode="&#x171;" horiz-adv-x="583" 
d="M172 165q0 -60 22 -82q12 -12 32.5 -17t48.5 -5t61 4.5t70 14.5v348h-65v62h146v-429h68v-58q-26 -3 -50 -5t-44 -2q-25 0 -37 9t-16 22q-37 -18 -77 -29.5t-82 -11.5t-73 11.5t-50 31.5t-27 47.5t-8 69.5v282h-65v60q17 2 45 4t45 2q31 0 45 -14q11 -11 11 -40v-275z
M123 629l110 162q8 12 16 14.5t19 -7.5l40 -36l-147 -163zM296 629l110 162q8 12 16.5 14.5t19.5 -7.5l39 -36l-147 -163z" />
    <glyph glyph-name="uogonek" unicode="&#x173;" horiz-adv-x="583" 
d="M433 0q-17 5 -23 26q-36 -17 -78 -28.5t-83 -11.5q-42 0 -73 11.5t-50 31.5t-27 47.5t-8 69.5v282h-65v60q17 2 45 4t45 2q31 0 45 -14q11 -11 11 -40v-275q0 -60 22 -82q12 -12 32.5 -17t48.5 -5t61 4.5t70 14.5v348h-65v62h146v-429h68v-60q-34 -2 -57.5 -14t-38.5 -29
t-21.5 -36.5t-6.5 -35.5q0 -29 17.5 -45.5t65.5 -16.5h41v-46q-17 -5 -37 -7.5t-38 -2.5q-54 0 -85.5 28.5t-31.5 82.5q0 37 20 69t50 52z" />
    <glyph glyph-name="wgrave" unicode="&#x1e81;" horiz-adv-x="759" 
d="M437 487l106 -411l93 352h-47v59h164v-59h-45l-120 -428h-58q-23 0 -33 6.5t-15 25.5l-96 369l-90 -401h-62q-22 0 -32 7t-15 25l-121 396h-60v59q20 2 39 4t32 2q30 0 44 -7t21 -32l106 -375l81 379q4 17 11.5 23t24.5 6h72zM465 579l-182 132l32 44q9 13 17.5 12
t20.5 -12l143 -137z" />
    <glyph glyph-name="wacute" unicode="&#x1e83;" horiz-adv-x="759" 
d="M437 487l106 -411l93 352h-47v59h164v-59h-45l-120 -428h-58q-23 0 -33 6.5t-15 25.5l-96 369l-90 -401h-62q-22 0 -32 7t-15 25l-121 396h-60v59q20 2 39 4t32 2q30 0 44 -7t21 -32l106 -375l81 379q4 17 11.5 23t24.5 6h72zM283 618l143 137q12 11 20.5 12t17.5 -12
l32 -44l-182 -132z" />
    <glyph glyph-name="wcircumflex" unicode="&#x175;" horiz-adv-x="759" 
d="M437 487l106 -411l93 352h-47v59h164v-59h-45l-120 -428h-58q-23 0 -33 6.5t-15 25.5l-96 369l-90 -401h-62q-22 0 -32 7t-15 25l-121 396h-60v59q20 2 39 4t32 2q30 0 44 -7t21 -32l106 -375l81 379q4 17 11.5 23t24.5 6h72zM397 753q19 0 29 -5.5t24 -23.5l91 -111
l-33 -28l-119 103l-119 -103l-33 28l91 111q14 18 24 23.5t29 5.5h16z" />
    <glyph glyph-name="wdieresis" unicode="&#x1e85;" horiz-adv-x="759" 
d="M437 487l106 -411l93 352h-47v59h164v-59h-45l-120 -428h-58q-23 0 -33 6.5t-15 25.5l-96 369l-90 -401h-62q-22 0 -32 7t-15 25l-121 396h-60v59q20 2 39 4t32 2q30 0 44 -7t21 -32l106 -375l81 379q4 17 11.5 23t24.5 6h72zM286 607q-23 0 -37.5 12.5t-14.5 43.5v2
q0 31 14.5 43.5t37.5 12.5h6q23 0 37.5 -12.5t14.5 -43.5v-2q0 -31 -14.5 -43.5t-37.5 -12.5h-6zM486 607q-23 0 -37.5 12.5t-14.5 43.5v2q0 31 14.5 43.5t37.5 12.5h6q23 0 37.5 -12.5t14.5 -43.5v-2q0 -31 -14.5 -43.5t-37.5 -12.5h-6z" />
    <glyph glyph-name="ygrave" unicode="&#x1ef3;" horiz-adv-x="564" 
d="M173 165q0 -60 22 -82q12 -12 32.5 -17t48.5 -5t61 4.5t70 14.5v348h-65v62h146v-524q0 -57 -12.5 -94.5t-36.5 -62.5q-47 -48 -149 -48q-27 0 -60 3.5t-59 8.5v56h94q82 0 112 30q17 17 23.5 43.5t6.5 71.5v52q-37 -18 -76.5 -29t-80.5 -11q-42 0 -73 11.5t-50 31.5
t-27 47.5t-8 69.5v282h-65v60q17 2 45 4t45 2q31 0 45 -14q11 -11 11 -40v-275zM347 579l-182 132l32 44q9 13 17.5 12t20.5 -12l143 -137z" />
    <glyph glyph-name="yacute" unicode="&#xfd;" horiz-adv-x="564" 
d="M173 165q0 -60 22 -82q12 -12 32.5 -17t48.5 -5t61 4.5t70 14.5v348h-65v62h146v-524q0 -57 -12.5 -94.5t-36.5 -62.5q-47 -48 -149 -48q-27 0 -60 3.5t-59 8.5v56h94q82 0 112 30q17 17 23.5 43.5t6.5 71.5v52q-37 -18 -76.5 -29t-80.5 -11q-42 0 -73 11.5t-50 31.5
t-27 47.5t-8 69.5v282h-65v60q17 2 45 4t45 2q31 0 45 -14q11 -11 11 -40v-275zM190 618l143 137q12 11 20.5 12t17.5 -12l32 -44l-182 -132z" />
    <glyph glyph-name="ycircumflex" unicode="&#x177;" horiz-adv-x="564" 
d="M173 165q0 -60 22 -82q12 -12 32.5 -17t48.5 -5t61 4.5t70 14.5v348h-65v62h146v-524q0 -57 -12.5 -94.5t-36.5 -62.5q-47 -48 -149 -48q-27 0 -60 3.5t-59 8.5v56h94q82 0 112 30q17 17 23.5 43.5t6.5 71.5v52q-37 -18 -76.5 -29t-80.5 -11q-42 0 -73 11.5t-50 31.5
t-27 47.5t-8 69.5v282h-65v60q17 2 45 4t45 2q31 0 45 -14q11 -11 11 -40v-275zM290 753q19 0 29 -5.5t24 -23.5l91 -111l-33 -28l-119 103l-119 -103l-33 28l91 111q14 18 24 23.5t29 5.5h16z" />
    <glyph glyph-name="ydieresis" unicode="&#xff;" horiz-adv-x="564" 
d="M173 165q0 -60 22 -82q12 -12 32.5 -17t48.5 -5t61 4.5t70 14.5v348h-65v62h146v-524q0 -57 -12.5 -94.5t-36.5 -62.5q-47 -48 -149 -48q-27 0 -60 3.5t-59 8.5v56h94q82 0 112 30q17 17 23.5 43.5t6.5 71.5v52q-37 -18 -76.5 -29t-80.5 -11q-42 0 -73 11.5t-50 31.5
t-27 47.5t-8 69.5v282h-65v60q17 2 45 4t45 2q31 0 45 -14q11 -11 11 -40v-275zM179 607q-23 0 -37.5 12.5t-14.5 43.5v2q0 31 14.5 43.5t37.5 12.5h6q23 0 37.5 -12.5t14.5 -43.5v-2q0 -31 -14.5 -43.5t-37.5 -12.5h-6zM379 607q-23 0 -37.5 12.5t-14.5 43.5v2
q0 31 14.5 43.5t37.5 12.5h6q23 0 37.5 -12.5t14.5 -43.5v-2q0 -31 -14.5 -43.5t-37.5 -12.5h-6z" />
    <glyph glyph-name="zacute" unicode="&#x17a;" horiz-adv-x="488" 
d="M60 0q-2 5 -2.5 12t-0.5 15q0 19 6 32.5t20 31.5l260 337h-211q-2 -15 -5.5 -37t-7.5 -33h-61v116q0 16 17 16h361q2 -5 2.5 -12t0.5 -15q0 -17 -6 -31t-20 -33l-260 -338h215q0 7 1.5 17.5t3 20.5t4 19t4.5 15h61v-117q0 -16 -17 -16h-365zM151 618l143 137
q12 11 20.5 12t17.5 -12l32 -44l-182 -132z" />
    <glyph glyph-name="zcaron" unicode="&#x17e;" horiz-adv-x="488" 
d="M60 0q-2 5 -2.5 12t-0.5 15q0 19 6 32.5t20 31.5l260 337h-211q-2 -15 -5.5 -37t-7.5 -33h-61v116q0 16 17 16h361q2 -5 2.5 -12t0.5 -15q0 -17 -6 -31t-20 -33l-260 -338h215q0 7 1.5 17.5t3 20.5t4 19t4.5 15h61v-117q0 -16 -17 -16h-365zM238 589q-19 0 -29 5.5
t-24 23.5l-91 111l33 28l119 -103l119 103l33 -28l-91 -111q-14 -18 -24 -23.5t-29 -5.5h-16z" />
    <glyph glyph-name="zdotaccent" unicode="&#x17c;" horiz-adv-x="488" 
d="M60 0q-2 5 -2.5 12t-0.5 15q0 19 6 32.5t20 31.5l260 337h-211q-2 -15 -5.5 -37t-7.5 -33h-61v116q0 16 17 16h361q2 -5 2.5 -12t0.5 -15q0 -17 -6 -31t-20 -33l-260 -338h215q0 7 1.5 17.5t3 20.5t4 19t4.5 15h61v-117q0 -16 -17 -16h-365zM249 587q-23 0 -37.5 12.5
t-14.5 43.5v2q0 31 14.5 43.5t37.5 12.5h6q23 0 37.5 -12.5t14.5 -43.5v-2q0 -31 -14.5 -43.5t-37.5 -12.5h-6z" />
    <glyph glyph-name="apple" horiz-adv-x="599" 
d="M242 210v67h205v69h-205v203h271v-68h-202v-67h202v-204h-271zM175 618v-550h75v-68h-143v684h406v-66h-338z" />
    </font>
</defs>
</svg>
